osu file format v9

[General]
AudioFilename: Pump It Up - Cleaner.mp3
AudioLeadIn: 0
PreviewTime: 85122
Countdown: 0
SampleSet: Soft
StackLeniency: 0.8
Mode: 0
LetterboxInBreaks: 0

[Editor]
Bookmarks: 1305,13760,17045,37678,38870,43361,48102,59647,62728,75958,87485,92720,96912,96943,105213
DistanceSpacing: 0.95
BeatDivisor: 4
GridSize: 4

[Metadata]
Title:Cleaner
Artist:Doin
Creator:XK2238
Version:Extra Clean
Source:Pump It Up Fiesta EX
Tags:j4yj4ys3z

[Difficulty]
HPDrainRate:6
CircleSize:5
OverallDifficulty:7
ApproachRate:9
SliderMultiplier:2.30000000596046
SliderTickRate:2

[Events]
//Background and Video events
0,0,"BG.jpg"
//Break Periods
2,71134,75063
//Storyboard Layer 0 (Background)
//Storyboard Layer 1 (Fail)
//Storyboard Layer 2 (Pass)
//Storyboard Layer 3 (Foreground)
//Storyboard Sound Samples
//Background Colour Transformations
3,100,0,0,0

[TimingPoints]
4728,295.566502463054,4,2,0,60,1,0
9458,-100,4,1,0,60,0,0
12412,-74.0740740740741,4,1,0,60,0,0
13594,-85.4700854700855,4,1,0,60,0,0
15368,-81.9672131147541,4,1,0,60,0,0
21279,-100,4,1,0,60,0,0
22461,-77.5193798449612,4,1,0,60,0,0
22757,-66.6666666666667,4,1,0,60,0,0
23127,-100,4,2,0,60,0,0
23348,-90.0900900900901,4,2,0,60,0,0
23939,-100,4,1,0,60,0,0
26082,-100,4,1,0,60,0,0
28373,-133.333333333333,4,1,0,60,0,0
31920,-80.6451612903226,4,1,0,60,0,0
32954,-200,4,2,0,38,0,0
33397,-100,4,1,0,60,0,0
37240,-66.6666666666667,4,1,0,60,0,0
37831,-100,4,1,0,60,0,0
42486,-200,4,2,0,32,0,0
42856,-100,4,1,0,60,0,0
46698,-100,4,1,0,60,0,0
50836,-77.5193798449612,4,1,0,60,0,0
52166,-87.719298245614,4,1,0,60,0,0
55491,-100,4,2,0,36,0,0
55564,-100,4,1,0,34,0,0
56156,-100,4,1,0,40,0,0
56747,-100,4,1,0,60,0,0
59112,-133.333333333333,4,1,0,60,0,0
62585,-90.0900900900901,4,1,0,60,0,0
75663,591.133004926108,4,2,0,60,1,0
76254,295.566502463054,4,2,0,60,1,0
80393,-100,4,1,0,60,0,0
85713,-100,4,1,0,50,0,0
87485,-100,4,1,0,80,0,1
91994,-200,4,2,0,36,0,1
92511,-100,4,1,0,80,0,1
101452,-200,4,1,0,80,0,1
101969,-100,4,1,0,80,0,1
104039,-80,4,1,0,60,0,0
106327,-200,4,2,0,38,0,0
107880,-100,4,1,0,60,0,0

[Colours]
Combo1 : 255,0,0
Combo2 : 172,129,70
Combo3 : 128,128,128

[HitObjects]
128,152,4728,2,0,B|152:288|152:288|136:312|104:320|72:320|40:312,1,230.000000596046
56,232,5171,2,0,B|32:96|32:96|48:72|80:64|112:64|144:72,1,230.000000596046
208,64,5614,2,0,B|232:80|264:88|296:88|328:80,1,115.000000298023
384,144,5910,2,0,B|368:168|360:200|360:232|368:264,1,115.000000298023
304,320,6205,2,0,B|280:304|248:296|216:296|184:304,2,115.000000298023
384,336,6649,1,0
488,256,6796,1,0
456,136,6944,1,0
368,40,7092,6,0,B|240:40|240:40|176:128,1,230.000000596046
304,144,7535,1,0
400,240,7683,1,0
224,200,7831,1,0
320,304,7979,1,0
192,320,8127,1,0
96,320,8274,2,0,B|56:296|40:248|56:192,2,115.000000298023
104,136,8718,2,0,B|144:160|160:208|144:264,2,115.000000298023
176,56,9161,2,0,B|240:88,3,57.5000001490115
304,40,9457,5,4
432,32,9604,1,0
376,136,9752,1,0
304,40,9900,2,0,B|272:112|264:152|272:192|304:224|352:248|392:240,1,230.000000596046
456,160,10343,1,0
456,280,10491,1,0
360,352,10639,2,0,B|336:296,3,57.5000001490115
264,288,10934,2,0,B|288:344,3,57.5000001490115
208,328,11230,2,0,B|184:272,1,57.5000001490115
112,264,11378,2,0,B|136:320,1,57.5000001490115
80,352,11526,5,0
48,328,11599,1,0
32,288,11673,1,0
24,248,11747,1,0
24,208,11821,2,0,B|24:112|24:112|24:80|40:64|72:56|104:64|120:80|120:112|120:112,1,230.000000596046
120,128,12191,1,0
136,152,12264,1,0
168,160,12338,1,0
200,152,12412,2,0,B|248:120|312:96|392:88,3,155.250005491823
376,88,13003,5,0
408,88,13077,1,0
440,96,13151,1,0
472,112,13225,1,0
488,136,13299,1,0
496,168,13373,1,0
496,200,13447,1,0
488,232,13521,1,0
472,264,13594,2,0,B|416:352|416:352|256:256,1,269.09999797064
248,256,13964,5,0
216,248,14038,1,0
184,248,14112,1,0
152,256,14186,1,0
40,160,14333,1,0
128,40,14481,1,0
248,136,14629,1,0
72,232,14777,1,0
56,80,14925,1,0
208,64,15072,1,0
224,216,15220,1,0
140,148,15368,6,0,B|-4:168,1,140.300004377603
140,148,15663,2,0,B|120:4,1,140.300004377603,0|0
140,148,15959,2,0,B|284:128,1,140.300004377603,0|0
140,148,16255,2,0,B|160:292,1,140.300004377603,0|0
256,192,16550,1,0
328,64,16698,1,0
464,124,16846,1,0
392,256,16994,1,0
272,120,17141,1,4
408,64,17289,1,0
456,200,17437,1,0
312,248,17585,1,0
184,344,17732,6,0,B|16:344,2,140.300004377603,4|0|0
44,264,18176,1,0
184,264,18324,1,0
44,192,18471,1,0
56,180,18545,1,0
68,168,18619,1,0
80,156,18693,1,0
92,144,18767,1,0
104,132,18841,1,0
116,120,18915,1,4
188,192,19062,1,0
224,44,19210,1,8
256,192,19358,1,8
288,44,19506,5,0
308,36,19580,1,0
340,32,19654,1,0
376,40,19727,1,0
420,60,19801,1,0
448,96,19875,1,0
456,116,19949,1,0
460,148,20023,1,0
452,184,20097,2,0,B|440:224|440:312|460:364,2,140.300004377603,4|0|0
376,260,20540,2,0,B|292:260,2,70.1500021888017,0|0|8
344,188,20836,1,8
344,328,20984,1,2
344,188,21131,1,2
256,328,21279,6,0,B|208:276,2,57.5000001490115
160,336,21575,1,0
156,312,21649,1,0
148,292,21723,1,0
136,276,21796,1,0
124,260,21870,1,0
104,252,21944,1,0
84,260,22018,1,0
72,276,22092,1,0
56,288,22166,5,0
40,276,22240,1,0
28,256,22314,1,0
28,228,22388,1,0
28,200,22461,2,0,B|28:44,1,148.349998085439
120,32,22757,2,8,B|168:20,7,43.1249988265335
192,28,23053,1,0
224,40,23127,1,0
256,44,23200,1,0
288,40,23274,1,0
320,28,23348,2,0,B|352:48|388:56|424:48|456:28,1,127.650000406891
476,192,23644,1,4
428,348,23939,6,0,B|484:304,3,57.5000001490115
396,328,24235,1,0
360,316,24309,1,0
320,316,24383,1,0
284,332,24457,1,0
252,348,24530,2,0,B|196:304,3,57.5000001490115
132,252,24826,1,4
320,108,25122,1,0
256,300,25269,1,8
192,108,25417,1,0
360,224,25565,2,0,B|336:160,1,57.5000001490115,8|0
172,170,25713,2,0,B|152:224,1,57.5000001490115,8|0
256,192,25861,1,8
256,192,26008,12,0,26895
120,180,27191,5,0
124,164,27264,1,0
128,152,27338,1,0
132,140,27412,1,0
136,128,27486,1,0
144,116,27560,1,0
152,104,27634,1,0
160,92,27708,1,0
176,76,27782,5,8
216,64,27855,1,8
256,60,27929,1,8
296,64,28003,1,8
336,76,28077,1,8
368,92,28151,1,8
400,124,28225,1,8
424,168,28299,1,8
432,212,28373,5,0
460,220,28447,1,0
436,240,28521,1,0
468,252,28594,1,0
440,272,28668,2,0,B|448:324|448:324|392:332,1,86.249997653067,0|8
384,328,28964,1,0
368,360,29038,1,0
344,328,29112,1,0
324,360,29186,1,0
304,328,29260,2,0,B|216:328,1,86.249997653067,0|8
232,256,29555,6,0,B|240:212,3,43.1249988265335
156,284,29851,2,8,B|148:240,3,43.1249988265335,0|0|0|0
88,332,30146,1,0
56,312,30220,1,0
32,280,30294,1,0
24,248,30368,1,0
24,212,30442,1,8
88,52,30590,1,0
148,212,30737,5,0
152,180,30812,1,0
168,148,30886,1,0
196,124,30960,1,0
232,108,31034,2,0,B|300:88,2,43.1249988265335
332,36,31328,1,0
344,60,31402,1,0
356,88,31476,1,0
368,116,31550,1,0
380,144,31624,2,0,B|420:228,1,86.249997653067
480,344,31920,5,0
468,320,31994,1,0
440,308,32067,1,0
488,196,32214,2,0,B|408:192|324:248,1,142.599999349594,8|0
300,348,32511,1,0
284,336,32585,1,0
276,320,32659,1,0
268,304,32732,1,0
252,292,32806,1,12
120,192,32954,2,0,B|128:176,8,14.3750000372529
160,60,33397,1,12
264,224,33545,1,0
300,92,33693,5,0
300,92,33767,1,0
300,92,33841,1,0
300,92,33915,1,0
300,92,33989,2,0,B|332:12|436:64,1,115.000000298023
428,124,34284,1,0
448,144,34358,1,0
468,164,34432,1,0
392,224,34580,2,0,B|480:304,1,115.000000298023
392,224,34875,1,0
360,240,34949,1,0
332,264,35023,1,0
312,296,35097,1,0
292,328,35171,1,0
416,344,35319,1,0
260,188,35466,6,0,B|276:132,1,57.5000001490115
208,136,35614,2,0,B|204:72,1,57.5000001490115
144,104,35762,2,0,B|120:24,2,57.5000001490115
48,184,36058,1,0
56,220,36131,1,0
76,256,36205,1,0
100,284,36279,1,0
132,308,36353,1,0
160,192,36501,1,0
260,264,36649,5,0
260,264,36723,1,0
260,264,36796,1,0
368,340,36944,1,0
480,192,37092,1,0
368,44,37240,1,0
368,60,37314,1,0
368,84,37388,1,0
368,116,37461,1,0
368,152,37535,2,0,B|372:208|424:260,2,86.249997653067
208,176,37831,5,0
176,192,37905,1,0
148,216,37979,1,0
128,248,38053,1,0
120,284,38127,1,0
52,136,38274,1,0
120,284,38422,1,0
128,248,38496,1,0
148,216,38570,1,0
176,192,38644,1,0
208,176,38718,1,0
156,48,38865,1,0
320,32,39013,5,0
348,32,39087,1,0
376,40,39161,1,0
404,56,39235,1,0
424,80,39309,2,0,B|488:56,1,57.5000001490115
432,112,39457,2,0,B|376:136,1,57.5000001490115
440,144,39604,1,0
440,176,39678,1,0
432,212,39752,1,0
416,244,39826,1,0
392,272,39900,2,0,B|360:300|312:312|260:312,1,115.000000298023
344,160,40195,5,0
224,104,40343,1,0
168,224,40491,1,0
288,280,40639,1,0
324,60,40787,1,0
388,260,40934,1,0
188,324,41082,1,0
124,124,41230,1,0
180,64,41378,5,0
188,88,41452,1,0
196,116,41526,1,0
204,144,41599,1,0
212,172,41673,1,0
204,196,41747,1,0
196,224,41821,1,0
332,320,41969,5,0
324,296,42043,1,0
316,268,42117,1,0
308,240,42190,1,0
300,212,42264,1,0
308,188,42338,1,0
316,160,42412,1,0
324,132,42486,1,0
332,104,42560,2,0,B|360:88|384:84|416:88|444:104,1,115.000000298023
460,108,42929,5,0
472,120,43003,1,0
476,136,43077,1,0
476,152,43151,1,0
472,192,43225,1,0
464,232,43300,1,0
444,272,43373,1,0
404,300,43447,1,0
388,308,43521,1,0
368,312,43594,1,0
348,312,43668,1,0
328,312,43742,5,0
284,312,43816,1,0
244,320,43890,1,0
204,336,43964,1,0
164,348,44038,1,0
148,348,44112,1,0
132,340,44186,1,0
120,328,44260,1,0
108,312,44333,5,0
80,280,44407,1,0
40,256,44481,1,0
28,216,44555,1,0
32,176,44629,1,0
40,160,44703,1,0
56,148,44777,1,0
76,144,44851,1,0
96,144,44925,5,4
416,144,45122,1,4
160,336,45319,1,4
256,28,45516,1,4
352,336,45713,1,4
96,144,45910,1,4
416,252,46107,2,0,B|448:264,8,28.7500000745057
380,252,46476,5,0
336,252,46550,1,0
292,252,46624,1,0
256,252,46698,1,0
220,252,46772,1,0
176,252,46846,1,0
132,252,46920,1,0
96,252,46994,2,0,B|64:264,8,28.7500000745057,0|0|0|0|0|0|0|0|4
100,32,47732,1,0
188,32,47880,5,0
188,32,47954,1,0
188,32,48028,1,0
188,32,48102,1,0
188,32,48176,1,0
188,68,48250,1,0
188,96,48324,1,0
188,124,48397,1,0
188,152,48471,2,0,B|188:228|188:228|140:228|112:248|104:312|128:352|176:364|217:360|256:336|264:288|256:248,1,345.000000894069
452,272,49062,1,0
280,188,49210,1,0
364,360,49358,1,0
400,168,49506,1,0
480,36,49654,2,0,B|424:72,1,57.5000001490115
256,32,49949,5,0
208,40,50023,1,0
164,64,50097,1,0
132,100,50171,1,0
108,144,50245,1,0
100,192,50319,1,0
108,240,50393,1,0
132,284,50467,1,0
164,320,50541,1,0
208,344,50615,1,0
256,352,50689,1,0
304,344,50762,1,0
348,320,50836,2,0,B|408:280|412:192,1,148.349998085439
360,192,51131,2,0,B|312:192,4,37.0874995213597
272,84,51427,5,0
256,72,51501,1,0
240,60,51575,1,0
224,48,51649,1,0
192,96,51723,1,0
160,92,51796,1,0
128,88,51870,1,0
96,84,51944,1,0
60,80,52018,1,4
96,168,52313,6,0,B|28:192,1,65.5500007950066
68,248,52461,2,0,B|24:316,1,65.5500007950066
96,324,52609,1,0
128,336,52683,1,0
160,344,52757,1,0
192,340,52831,1,0
220,328,52905,1,0
240,312,52979,1,0
252,288,53053,1,0
256,260,53127,1,0
256,232,53200,1,4
256,32,53348,5,0
136,192,53496,1,0
376,192,53644,1,0
184,280,53792,1,0
216,296,53865,1,0
256,304,53939,1,0
296,296,54013,1,0
328,280,54087,1,0
256,192,54235,1,0
256,192,54383,12,0,55269
376,192,55565,5,0
352,176,55639,1,0
324,160,55713,1,0
256,72,55861,1,0
240,96,55935,1,0
224,124,56009,1,0
136,192,56156,1,0
160,208,56230,1,0
188,224,56304,1,0
256,312,56452,1,0
272,288,56526,1,0
288,260,56600,1,0
256,192,56747,5,4
256,192,56895,1,0
256,192,57043,1,0
256,192,57191,1,8
304,136,57338,1,0
360,272,57486,1,0
208,328,57634,1,0
152,192,57782,1,0
360,192,57930,5,8
304,328,58077,1,0
152,272,58225,1,8
208,136,58373,1,8
352,48,58521,1,4
160,48,58668,1,8
352,48,58816,1,8
160,48,58964,1,8
256,192,59112,5,4
388,124,59260,2,0,B|432:144|448:192|432:248|388:277|336:264,1,172.500000447034
256,192,59703,1,0
124,124,59851,2,0,B|80:144|64:192|80:248|123:277|176:264,1,172.500000447034
220,264,60294,1,0
240,280,60368,1,0
260,296,60442,1,0
276,312,60516,1,0
296,328,60590,5,4
420,248,60737,1,8
296,328,60885,1,4
420,248,61033,1,8
472,148,61181,1,0
464,120,61255,1,0
448,100,61328,1,0
428,84,61402,1,0
404,72,61476,5,4
368,172,61624,1,0
332,72,61772,1,0
368,172,61920,1,0
272,116,62067,1,0
368,172,62215,1,0
260,184,62363,1,0
368,172,62511,1,0
436,240,62659,2,0,B|336:340,1,127.650000406891
436,328,62954,2,0,B|336:228,1,127.650000406891
256,240,63250,2,0,B|156:340,1,127.650000406891
256,328,63545,2,0,B|156:228,1,127.650000406891
96,236,63841,5,0
72,72,63989,1,0
192,48,64136,1,0
224,208,64284,1,0
288,208,64432,1,4
320,48,64580,1,0
440,72,64727,1,0
416,236,64875,1,0
344,148,65023,2,0,B|368:224|332:304,2,127.650000406891,4|0|8
168,276,65466,2,0,B|144:200|180:120,1,127.650000406891,4|0
256,72,65762,5,0
256,72,65836,1,0
256,72,65910,1,0
256,72,65984,1,0
256,72,66058,1,0
256,72,66131,1,0
256,72,66205,1,4
176,144,66353,1,0
256,216,66501,1,0
336,144,66649,1,0
160,56,66796,1,0
352,56,66944,1,0
160,56,67092,1,0
352,56,67240,2,0,B|416:56,2,63.8250002034454
212,96,67535,5,0
300,192,67683,1,0
184,144,67831,1,0
328,144,67979,1,0
212,192,68127,1,0
300,96,68274,1,0
256,212,68422,1,0
256,224,68496,1,0
256,240,68570,1,0
180,300,68718,5,0
332,300,68865,1,0
180,320,69013,1,0
332,320,69160,1,0
180,340,69309,1,0
332,340,69456,1,0
256,288,69604,2,0,B|256:352,2,63.8250002034454
160,192,69900,5,0
256,96,70047,1,0
352,192,70195,1,0
184,264,70343,1,0
184,120,70491,1,0
328,120,70639,1,0
328,264,70786,1,0
256,192,70934,1,0
184,112,75663,6,0,B|252:56|328:112,1,115.000000298023
256,192,76255,1,0
328,272,76549,2,0,B|260:328|184:272,2,115.000000298023
220,292,77140,1,0
220,292,77436,1,0
392,216,77731,1,0
448,252,77879,2,0,B|468:240|480:220|484:196|480:176|472:156|460:136,1,115.000000298023
416,52,78322,2,0,B|400:72|376:80|352:84|328:84|300:80,1,115.000000298023
309,81,78618,1,0
96,52,78914,2,0,B|112:72|136:80|160:84|184:84|212:80,1,115.000000298023
203,81,79210,1,0
344,192,79505,1,0
168,192,79800,1,0
256,328,80096,1,0
256,120,80244,1,0
256,328,80391,1,4
92,340,80687,5,0
84,328,80761,1,0
76,316,80835,1,0
68,304,80909,1,0
120,284,80983,1,0
108,256,81056,1,0
96,232,81130,1,0
84,208,81204,1,0
160,244,81278,1,0
156,204,81352,1,0
152,164,81426,1,0
148,124,81500,1,0
144,84,81574,1,4
256,32,81869,1,0
368,84,82165,1,0
392,184,82312,6,0,B|440:152,1,57.5000001490115
412,224,82460,2,0,B|472:216,2,57.5000001490115
416,272,82682,2,0,B|480:288,1,57.5000001490115
344,328,83052,1,0
320,320,83125,1,0
292,324,83199,1,0
264,328,83273,1,0
236,324,83347,2,0,B|188:280,3,57.5000001490115
256,248,83643,2,0,B|256:216,8,28.7500000745057
140,192,84086,5,0
256,76,84234,1,0
372,192,84382,1,0
256,308,84529,1,0
256,76,84825,1,8
256,192,85120,12,0,87189
388,32,87485,5,0
408,36,87559,1,0
424,40,87633,1,0
440,44,87708,1,0
456,48,87781,1,0
464,88,87854,1,0
468,128,87928,1,0
472,172,88002,1,0
476,216,88076,5,0
460,224,88150,1,0
448,236,88224,1,0
440,252,88298,1,0
440,272,88372,1,0
432,316,88446,1,0
392,344,88520,1,0
344,348,88593,1,0
296,344,88667,5,0
280,336,88741,1,0
264,328,88815,1,0
248,320,88889,1,0
232,312,88963,1,0
184,292,89037,1,0
136,300,89111,1,0
92,320,89185,1,0
52,344,89258,5,0
36,332,89332,1,0
28,320,89406,1,0
28,304,89480,1,0
32,288,89554,1,0
48,248,89628,1,0
64,208,89702,1,0
80,168,89776,1,0
120,136,89850,6,0,B|80:88,3,57.5000001490115
184,104,90145,2,0,B|176:176,3,57.5000001490115
152,40,90441,2,0,B|212:32,3,57.5000001490115
252,88,90736,2,0,B|296:28,3,57.5000001490115
324,96,91032,2,0,B|316:156,1,57.5000001490115
356,40,91180,2,0,B|416:76,1,57.5000001490115
480,96,91327,2,0,B|416:132,1,57.5000001490115
480,180,91475,2,0,B|412:184,1,57.5000001490115
352,216,91623,5,0
352,216,91697,1,0
352,216,91771,1,0
352,216,91845,1,0
352,216,91919,1,0
420,344,92066,1,4
284,344,92214,1,0
420,344,92362,1,4
228,344,92510,1,4
420,344,92657,1,0
468,256,92805,5,0
436,272,92879,1,0
400,280,92953,1,0
360,284,93027,1,0
316,280,93101,1,0
280,272,93175,1,0
244,260,93249,1,0
212,240,93322,1,0
180,212,93396,5,0
180,212,93470,1,0
180,212,93544,1,0
180,212,93618,1,0
160,176,93692,1,0
148,140,93766,1,0
144,104,93840,1,0
148,72,93914,1,0
160,40,93987,5,0
160,40,94061,1,0
160,40,94135,1,0
160,40,94209,1,0
196,40,94283,1,0
228,48,94357,1,0
256,64,94431,1,0
280,84,94505,1,0
304,108,94579,6,0,B|356:80,1,57.5000001490115
320,140,94726,2,0,B|256:152,1,57.5000001490115
332,172,94874,2,0,B|392:152,1,57.5000001490115
336,208,95022,2,0,B|280:220,1,57.5000001490115
340,248,95170,2,0,B|400:236,1,57.5000001490115
396,236,95318,2,0,B|444:268,1,57.5000001490115
444,268,95465,2,0,B|440:336,1,57.5000001490115
440,325,95613,2,0,B|360:360,1,57.5000001490115
300,344,95761,5,4
180,304,95909,1,0
264,272,96056,1,4
144,232,96204,1,0
228,200,96352,1,4
108,160,96500,1,0
192,128,96648,1,4
72,88,96796,1,0
156,52,96943,5,0
196,36,97017,1,0
236,32,97091,1,0
280,32,97165,1,0
324,40,97239,1,0
336,48,97313,1,0
348,56,97387,1,0
360,64,97460,1,0
372,76,97534,5,0
404,92,97608,1,0
444,104,97682,1,0
484,120,97756,1,0
472,160,97830,1,0
464,176,97904,1,0
452,188,97978,1,0
436,196,98052,1,0
416,196,98125,5,0
376,188,98199,1,0
340,172,98273,1,0
324,164,98347,1,0
312,156,98421,1,0
296,148,98495,1,0
280,144,98569,1,0
240,144,98643,1,0
204,160,98717,5,0
192,172,98790,1,0
180,184,98864,1,0
168,196,98938,1,0
156,208,99012,1,0
120,224,99086,1,0
80,216,99160,1,0
64,236,99234,1,0
68,256,99308,5,0
64,300,99382,1,0
80,336,99455,1,0
116,348,99529,1,0
152,336,99603,1,0
164,328,99677,1,0
176,320,99751,1,0
188,312,99825,1,0
200,304,99899,5,0
240,280,99973,1,0
280,268,100047,1,0
320,276,100120,1,0
352,296,100194,1,0
368,300,100268,1,0
384,300,100342,1,0
400,296,100416,1,0
416,288,100490,5,0
440,260,100564,1,0
452,220,100638,1,0
456,176,100712,1,0
452,132,100786,1,0
440,120,100859,1,0
428,112,100933,1,0
412,104,101007,1,0
396,96,101081,5,0
360,76,101155,1,0
320,64,101229,1,0
280,60,101303,1,0
240,64,101377,1,0
200,80,101451,1,0
164,108,101524,2,0,B|124:84,5,28.7500000745057
108,64,101968,5,0
96,72,102042,1,0
84,84,102116,1,0
76,100,102189,1,0
72,116,102263,1,0
68,152,102337,1,0
72,192,102411,1,0
84,232,102485,1,0
104,268,102559,5,0
120,280,102633,1,0
136,284,102707,1,0
152,284,102781,1,0
168,280,102854,1,0
204,268,102928,1,0
244,264,103002,1,0
280,276,103076,1,0
316,296,103150,5,0
328,308,103224,1,0
344,316,103298,1,0
360,316,103372,1,0
376,312,103446,1,0
412,292,103520,1,0
440,264,103593,1,0
460,224,103667,1,0
472,180,103741,5,0
472,164,103815,1,0
468,148,103889,1,0
456,136,103963,1,0
436,120,104037,1,4
320,36,104185,1,0
352,144,104332,1,4
236,60,104480,1,0
268,168,104628,1,4
152,84,104776,1,0
184,192,104923,1,4
68,108,105071,1,0
256,240,105219,5,0
256,240,105293,1,0
256,240,105367,1,0
256,240,105441,1,0
256,240,105515,1,0
256,240,105589,1,0
256,240,105662,1,0
256,240,105736,1,0
256,240,105810,5,0
256,240,105884,1,0
256,240,105958,1,0
256,240,106032,1,0
256,240,106106,1,0
256,240,106179,1,0
256,240,106253,1,0
256,240,106327,1,0
256,240,106401,6,0,B|324:240,1,57.5000001490115
256,240,106697,2,0,B|176:240,1,57.5000001490115
256,240,106992,2,0,B|256:184,1,57.5000001490115
256,240,107288,2,0,B|256:308,1,57.5000001490115
112,240,107584,1,0
400,240,107731,1,0
256,60,107879,1,4
