osu file format v5

[General]
AudioFilename: Does - Cloudy Sky.mp3
AudioLeadIn: 0
PreviewTime: -1
Countdown: 1
SampleSet: Normal
StackLeniency: 0.7
Mode: 0
LetterboxInBreaks: 1
EditorDistanceSpacing: 0.800000011920929

[Metadata]
Title:Cloudy Sky
Artist:Does
Creator:digimon514055
Version:Insane
Source:
Tags:

[Difficulty]
HPDrainRate:7
CircleSize:6
OverallDifficulty:8
SliderMultiplier:2.6
SliderTickRate:4

[Events]
//Background and Video events
Video,0,"Cloudy Sky.avi"
//Break Periods
2,44092,50990
2,83745,97744
2,127744,137449
//Storyboard Layer 0 (Background)
//Storyboard Layer 1 (Fail)
//Storyboard Layer 2 (Pass)
//Storyboard Layer 3 (Foreground)
//Storyboard Sound Samples
//Background Colour Transformations
3,100,163,162,255

[TimingPoints]
532,636.132315521628,4,1,0,100,1,0
107890,-50,4,1,0,100,0,0

[HitObjects]
96,64,23324,1,0
160,64,23642,1,0
224,64,23960,2,0,B|416:64,1,130
352,128,24650,1,0
288,128,24968,1,0
224,128,25286,2,0,B|64:128,1,130
128,224,25922,5,0
160,160,26240,1,0
224,192,26558,1,0
192,256,26876,1,0
256,288,27194,1,0
288,224,27512,1,0
320,160,27830,2,0,B|192:96,1,130
128,64,28466,5,0
128,128,28784,1,0
128,192,29103,2,0,B|128:352,1,130
192,320,29739,1,0
192,256,30057,1,0
192,192,30375,2,0,B|512:192,2,260
192,128,31965,1,0
256,128,32230,2,0,B|448:128|448:256,2,260
256,192,33821,1,2
256,256,34139,1,4
224,64,35411,5,2
288,96,35729,1,0
224,128,36047,1,0
288,160,36365,1,2
224,192,36683,2,0,B|224:352,1,130
288,352,37851,1,0
288,288,38169,1,0
352,320,38488,1,0
352,256,38806,1,0
352,192,39124,1,0
352,32,39442,5,2
352,32,39601,1,2
160,32,40076,1,8
160,128,40712,5,2
160,128,40871,1,2
352,128,41348,1,8
352,256,41984,5,2
352,256,42143,1,2
160,256,42620,1,8
160,352,43256,5,2
160,352,43415,1,2
352,352,43892,1,8
256,192,51740,12,4,54391
192,96,55663,5,0
256,64,55981,1,0
256,128,56299,1,0
320,64,56617,1,8
320,128,56935,2,0,B|320:288,1,130
320,288,58207,1,0
256,288,58526,1,0
256,224,58844,1,0
192,224,59162,1,8
192,288,59480,2,0,B|64:288|64:64|256:64|384:128|416:256,1,520
256,192,60964,12,4,62872
352,160,63191,1,0
256,192,63825,1,0
128,160,64567,1,2
128,224,65203,1,2
352,192,65839,1,0
288,192,66157,1,0
192,192,66475,2,2,B|64:192|64:128,1,130
128,96,67111,1,0
128,32,67430,1,0
192,32,67748,1,8
192,96,68066,1,0
256,96,68384,1,0
256,32,68702,1,0
320,32,69020,1,8
416,160,69656,5,0
416,224,69974,1,0
416,288,70292,1,2
352,256,70610,1,2
352,192,70928,1,0
288,224,71246,1,0
224,224,71564,2,4,B|192:160|192:160|224:96|224:96,1,130
256,64,72200,5,0
320,96,72519,1,0
384,128,72837,1,0
320,160,73155,1,0
256,128,73473,2,2,B|96:128,2,130
320,128,74427,1,8
320,192,74745,2,0,B|320:352,1,130
256,320,75381,5,8
192,320,75699,1,0
128,320,76017,1,0
128,256,76335,1,0
192,256,76653,2,8,B|288:160,1,130
352,128,77290,1,0
416,96,77608,1,0
448,160,77926,1,4
384,192,78244,1,0
416,256,78562,1,0
480,224,78880,1,0
512,288,79198,1,4
448,320,79516,1,0
384,352,79834,6,0,B|256:352|224:320,1,130
256,192,80894,12,4,83545
256,192,98494,12,0,99236
192,64,99872,6,2,B|352:64,1,130
320,128,100508,2,2,B|160:128,1,130
128,128,101145,2,4,B|128:320|256:320,1,260
320,320,102417,1,0
384,320,102735,1,0
384,256,103053,1,0
320,256,103371,1,0
256,192,103689,2,0,B|256:288|256:288|128:192|128:192|256:96|256:96|352:192|352:192|352:288|352:288|416:288|416:288|416:160|416:160|288:32|288:32|224:32|224:32|64:160|64:160|64:224|64:224|192:352|192:352|256:352,1,1560
256,192,108142,5,0
384,128,108884,1,2
352,192,109043,1,8
416,192,109202,1,8
352,288,109520,1,2
320,352,109679,1,8
288,288,109838,1,8
192,224,110156,1,2
192,288,110315,1,2
128,256,110474,1,8
128,320,110634,1,8
64,288,110793,2,2,B|-32:288|-32:160|-32:64|96:64,1,303.333333333333
160,64,111429,5,2
192,128,111588,1,8
224,64,111747,1,0
256,128,111906,1,0
256,128,112065,1,2
256,128,112224,1,0
288,192,112383,1,8
224,192,112542,1,0
160,192,112701,1,2
160,192,112860,1,0
160,192,113019,1,0
160,192,113178,1,8
96,192,113337,2,0,B|320:384,1,260
416,96,113973,5,2
352,96,114132,1,10
288,96,114291,2,0,B|0:96,1,260
32,160,114768,1,8
96,160,114927,2,2,B|256:160,2,130
96,224,115405,1,8
160,224,115564,1,8
128,288,115830,2,0,B|224:320|256:224,1,130
256,64,116465,5,0
288,96,116624,1,0
256,128,116783,1,8
288,160,116942,1,0
320,128,117101,1,0
352,160,117260,1,0
320,192,117419,1,8
352,224,117578,1,0
384,192,117737,1,0
416,224,117896,1,0
384,256,118055,1,8
416,288,118214,1,0
384,320,118373,2,4,B|192:128,1,260
256,192,118744,12,0,118956
352,64,119592,5,0
256,128,120282,2,2,B|352:224,1,130
192,160,120600,2,8,B|288:256,1,130
128,192,120918,2,4,B|224:288,1,130
256,192,121501,2,0,B|96:192,1,130
256,192,121819,2,0,B|256:32,1,130
256,192,122137,2,0,B|416:192,1,130
256,192,122455,2,0,B|256:352,1,130
256,192,122773,2,0,B|160:160|160:64,1,130
256,192,123091,2,0,B|288:96|384:96,1,130
256,192,123409,2,0,B|352:224|352:320,1,130
256,192,123727,2,0,B|224:288|128:288,1,130
256,192,123939,12,0,125318
256,192,126007,5,0
192,128,126643,1,2
320,128,126961,1,2
192,256,127226,1,4
320,256,127544,1,8
96,96,138199,5,0
160,96,138464,1,0
160,96,138570,2,0,B|320:96,1,130
320,96,138941,1,4
384,96,139206,1,4
384,160,139525,5,0
320,160,139790,1,0
320,160,139896,2,0,B|160:160,1,130
160,160,140267,1,4
96,160,140532,1,4
96,224,140799,5,0
160,224,141009,1,0
160,224,141115,2,0,B|320:224,1,130
320,224,141539,1,4
384,224,141804,1,4
384,288,142069,5,0
320,288,142334,1,0
320,288,142440,2,0,B|160:288,1,130
160,288,142811,1,4
96,288,143076,1,4
256,32,143394,5,0
256,96,143659,1,0
256,96,143765,2,0,B|256:192,1,86.6666666666667
224,256,144136,1,12
288,256,144401,1,12
256,352,144720,5,0
256,288,144985,1,0
256,288,145091,2,0,B|256:128,1,130
288,96,145462,1,12
224,96,145727,1,12
256,192,145939,12,4,147317
256,192,147317,12,8,147635
256,192,147953,5,0
384,128,148695,1,2
352,192,148854,1,8
416,192,149013,1,8
352,288,149331,1,4
320,352,149490,1,0
288,288,149649,1,0
192,224,149967,1,2
192,288,150126,1,4
128,256,150285,1,14
128,320,150445,1,14
64,288,150604,2,0,B|-32:288|-32:160|-32:64|96:64,1,303.333333333333
160,64,151240,5,4
192,128,151399,1,0
224,64,151558,1,0
256,128,151717,1,0
256,128,151876,1,4
256,128,152035,1,0
288,192,152194,1,0
224,192,152353,1,0
160,192,152512,1,4
160,192,152671,1,0
160,192,152830,1,0
160,192,152989,1,0
96,192,153148,2,4,B|320:384,1,260
416,96,153838,5,12
352,96,153997,1,8
288,96,154156,2,2,B|0:96,1,260
32,160,154633,1,8
96,160,154792,2,2,B|256:160,2,130
256,192,155324,12,0,155748
256,64,156329,5,0
288,96,156488,1,0
256,128,156647,1,14
288,160,156806,1,0
320,128,156965,1,0
352,160,157124,1,0
320,192,157283,1,14
352,224,157442,1,0
384,192,157601,1,0
416,224,157760,1,0
384,256,157919,1,14
416,288,158078,1,0
384,320,158237,2,2,B|192:128,1,260
256,192,158608,12,0,158820
352,64,159456,5,0
256,128,160146,2,14,B|352:224,1,130
192,160,160464,2,14,B|288:256,1,130
128,192,160782,2,14,B|224:288,1,130
352,288,161365,2,0,B|192:288,1,130
160,288,161683,2,2,B|160:128,1,130
160,96,162001,2,0,B|320:96,1,130
352,96,162319,2,2,B|352:256,1,130
256,288,162637,2,4,B|160:256|160:160,1,130
160,192,162955,2,4,B|192:96|288:96,1,130
256,96,163273,2,4,B|352:128|352:224,1,130
352,192,163591,2,4,B|320:288|224:288,1,130
256,192,163803,12,4,165182
256,192,165871,5,0
256,192,166454,5,0
192,192,166613,1,0
192,128,166772,1,8
256,128,166931,1,0
320,128,167090,1,0
320,192,167249,1,0
320,256,167408,1,8
256,256,167567,1,0
192,256,167726,1,0
128,256,167885,1,0
128,192,168044,1,8
128,128,168203,1,0
128,64,168362,1,0
192,64,168522,1,0
256,64,168681,1,8
320,64,168840,5,0
384,64,168999,1,0
384,128,169158,1,0
384,192,169317,1,8
384,256,169476,1,0
384,320,169635,1,0
320,320,169794,1,0
256,320,169953,1,8
192,320,170112,1,0
128,320,170271,1,0
64,320,170430,1,0
64,256,170589,1,8
64,192,170748,1,0
64,128,170907,1,0
64,64,171066,1,0
64,0,171225,5,8
128,0,171384,1,0
192,0,171543,1,0
256,0,171702,1,0
320,0,171861,1,8
384,0,172020,1,0
448,0,172179,1,0
512,0,172338,1,0
512,64,172497,1,8
512,128,172656,1,0
512,192,172815,1,0
512,256,172974,1,0
512,320,173134,1,8
512,384,173293,1,0
448,384,173452,1,0
384,384,173611,5,0
320,384,173770,1,8
256,384,173929,1,0
192,384,174088,1,0
128,384,174247,1,0
64,384,174406,1,8
0,384,174565,1,0
0,320,174724,1,0
0,256,174883,1,0
0,192,175042,1,8
0,128,175201,1,0
0,64,175360,1,0
0,0,175519,1,0
64,32,175678,1,8
128,64,175837,5,0
192,96,175996,1,0
256,128,176155,1,0
320,160,176314,1,8
256,192,176579,12,0,177800
