osu file format v14

[General]
AudioFilename: Doel Sombang - Aku Cinta Kamu.mp3
AudioLeadIn: 0
PreviewTime: 14211
Countdown: 0
SampleSet: Normal
StackLeniency: 0.7
Mode: 1
LetterboxInBreaks: 0
WidescreenStoryboard: 0

[Editor]
DistanceSpacing: 1.6
BeatDivisor: 4
GridSize: 32
TimelineZoom: 1.4

[Metadata]
Title:Aku Cinta Kamu
TitleUnicode:Aku Cinta Kamu
Artist:Doel Sumbang ft. Nini Carlina
ArtistUnicode:Doel Sumbang ft. Nini Carlina
Creator:Fleure De Lapin
Version:Inner Oni
Source:
Tags:Dangdut Lagu Indonesian song
BeatmapID:1908777
BeatmapSetID:913808

[Difficulty]
HPDrainRate:5
CircleSize:5.2
OverallDifficulty:5
ApproachRate:9.8
SliderMultiplier:1.4
SliderTickRate:1

[Events]
//Background and Video events
0,0,"uwu.jpg",0,0
//Break Periods
//Storyboard Layer 0 (Background)
//Storyboard Layer 1 (Fail)
//Storyboard Layer 2 (Pass)
//Storyboard Layer 3 (Foreground)
//Storyboard Sound Samples

[TimingPoints]
-553,615.195324515534,4,1,0,79,1,0
88035,-100,4,1,0,79,0,1
110182,-100,4,1,0,79,0,0

[HitObjects]
256,192,1138,12,0,2830,0:0:0:0:
128,96,4368,5,0,0:0:0:0:
384,96,4983,1,8,0:0:0:0:
384,96,5291,1,8,0:0:0:0:
128,96,5445,1,0,0:0:0:0:
128,96,5752,1,0,0:0:0:0:
128,96,5906,1,0,0:0:0:0:
384,96,6214,1,8,0:0:0:0:
384,96,6521,1,8,0:0:0:0:
384,96,6675,1,8,0:0:0:0:
128,96,6829,1,0,0:0:0:0:
384,96,7444,1,8,0:0:0:0:
384,96,7752,1,8,0:0:0:0:
128,96,7905,1,0,0:0:0:0:
128,96,8213,1,0,0:0:0:0:
128,96,8367,1,0,0:0:0:0:
384,96,8674,1,8,0:0:0:0:
384,96,8982,1,8,0:0:0:0:
128,96,9136,1,0,0:0:0:0:
128,96,9290,1,0,0:0:0:0:
384,96,9905,1,8,0:0:0:0:
384,96,10212,1,8,0:0:0:0:
128,96,10366,1,0,0:0:0:0:
128,96,10674,1,0,0:0:0:0:
128,96,10828,1,0,0:0:0:0:
384,96,11135,1,8,0:0:0:0:
384,96,11443,1,8,0:0:0:0:
128,96,11597,1,0,0:0:0:0:
384,96,11750,1,8,0:0:0:0:
384,96,11904,1,8,0:0:0:0:
128,96,12212,1,0,0:0:0:0:
384,96,12366,1,8,0:0:0:0:
128,96,12673,1,0,0:0:0:0:
128,96,12827,1,0,0:0:0:0:
384,96,12981,1,8,0:0:0:0:
384,96,13135,1,8,0:0:0:0:
128,96,13288,1,0,0:0:0:0:
384,96,13442,1,8,0:0:0:0:
384,96,13750,1,8,0:0:0:0:
384,96,13904,1,8,0:0:0:0:
128,96,14057,1,0,0:0:0:0:
384,288,14211,1,12,0:0:0:0:
128,96,14519,1,0,0:0:0:0:
384,96,14826,1,8,0:0:0:0:
128,96,14980,1,0,0:0:0:0:
128,96,15134,1,0,0:0:0:0:
384,96,15288,1,8,0:0:0:0:
128,96,15595,1,0,0:0:0:0:
128,96,15749,1,0,0:0:0:0:
384,96,16057,1,8,0:0:0:0:
384,96,16364,1,8,0:0:0:0:
128,96,16672,1,0,0:0:0:0:
128,96,16980,1,0,0:0:0:0:
384,96,17287,1,8,0:0:0:0:
128,96,17441,1,0,0:0:0:0:
128,96,17595,1,0,0:0:0:0:
384,96,17749,1,8,0:0:0:0:
128,96,18056,1,0,0:0:0:0:
128,96,18210,1,0,0:0:0:0:
384,96,18518,1,8,0:0:0:0:
384,96,18825,1,8,0:0:0:0:
128,96,19133,1,0,0:0:0:0:
128,96,19440,1,0,0:0:0:0:
384,96,19748,1,8,0:0:0:0:
128,96,19902,1,0,0:0:0:0:
128,96,20056,1,0,0:0:0:0:
384,96,20209,1,8,0:0:0:0:
128,96,20517,1,0,0:0:0:0:
128,96,20671,1,0,0:0:0:0:
384,96,20978,1,8,0:0:0:0:
384,96,21132,1,8,0:0:0:0:
128,96,21286,1,0,0:0:0:0:
384,96,21594,1,8,0:0:0:0:
384,96,21747,1,8,0:0:0:0:
128,96,21901,1,0,0:0:0:0:
384,96,22055,1,8,0:0:0:0:
128,96,22209,1,0,0:0:0:0:
128,96,22363,1,0,0:0:0:0:
384,96,22516,1,8,0:0:0:0:
384,96,22670,1,8,0:0:0:0:
128,96,22824,1,0,0:0:0:0:
128,96,22978,1,0,0:0:0:0:
384,96,23132,1,8,0:0:0:0:
128,96,23285,1,0,0:0:0:0:
384,96,23439,1,8,0:0:0:0:
384,96,23593,1,8,0:0:0:0:
128,96,23747,1,0,0:0:0:0:
128,96,23901,1,0,0:0:0:0:
384,288,24054,1,12,0:0:0:0:
128,96,24362,1,0,0:0:0:0:
128,96,24516,1,0,0:0:0:0:
384,96,24670,1,8,0:0:0:0:
384,96,24977,1,8,0:0:0:0:
128,96,25131,1,0,0:0:0:0:
384,96,25285,1,8,0:0:0:0:
384,96,25439,1,8,0:0:0:0:
128,96,25592,1,0,0:0:0:0:
128,96,25746,1,0,0:0:0:0:
384,96,25900,1,8,0:0:0:0:
384,96,26054,1,8,0:0:0:0:
128,96,26207,1,0,0:0:0:0:
128,96,26515,1,0,0:0:0:0:
128,96,26823,1,0,0:0:0:0:
128,96,26976,1,0,0:0:0:0:
384,96,27130,1,8,0:0:0:0:
128,96,27438,1,0,0:0:0:0:
384,96,27745,1,8,0:0:0:0:
128,96,27899,1,0,0:0:0:0:
384,96,28053,1,8,0:0:0:0:
128,96,28207,1,0,0:0:0:0:
384,96,28361,1,8,0:0:0:0:
384,96,28514,1,8,0:0:0:0:
128,96,28668,1,0,0:0:0:0:
384,96,28822,1,8,0:0:0:0:
128,96,28976,1,0,0:0:0:0:
384,96,29283,1,8,0:0:0:0:
128,96,29437,1,0,0:0:0:0:
384,96,29591,1,8,0:0:0:0:
128,96,29899,1,0,0:0:0:0:
384,96,30052,1,8,0:0:0:0:
128,96,30206,1,0,0:0:0:0:
128,96,30360,1,0,0:0:0:0:
384,96,30514,1,8,0:0:0:0:
128,96,30668,1,0,0:0:0:0:
384,96,30821,1,8,0:0:0:0:
384,96,31129,1,8,0:0:0:0:
384,96,31283,1,8,0:0:0:0:
128,96,31437,1,0,0:0:0:0:
128,96,31898,1,0,0:0:0:0:
384,96,32052,1,8,0:0:0:0:
128,96,32359,1,0,0:0:0:0:
128,96,32513,1,0,0:0:0:0:
384,96,32667,1,8,0:0:0:0:
128,96,32821,1,0,0:0:0:0:
384,96,32975,1,8,0:0:0:0:
384,96,33282,1,8,0:0:0:0:
384,96,33436,1,8,0:0:0:0:
128,96,33590,1,0,0:0:0:0:
384,96,33897,1,8,0:0:0:0:
384,96,34051,1,8,0:0:0:0:
128,96,34205,1,0,0:0:0:0:
384,96,34359,1,8,0:0:0:0:
128,96,34513,1,0,0:0:0:0:
384,96,34666,1,8,0:0:0:0:
128,96,34820,1,0,0:0:0:0:
384,96,34974,1,8,0:0:0:0:
128,96,35128,1,0,0:0:0:0:
128,96,35282,1,0,0:0:0:0:
384,96,35435,1,8,0:0:0:0:
128,96,35589,1,0,0:0:0:0:
384,96,35743,1,8,0:0:0:0:
384,96,35897,1,8,0:0:0:0:
128,96,36051,1,0,0:0:0:0:
384,96,36204,1,8,0:0:0:0:
128,96,36358,1,0,0:0:0:0:
128,96,36666,1,0,0:0:0:0:
384,96,36973,1,8,0:0:0:0:
384,96,37281,1,8,0:0:0:0:
128,96,37435,1,0,0:0:0:0:
384,96,37589,1,8,0:0:0:0:
384,96,37742,1,8,0:0:0:0:
128,96,37896,1,0,0:0:0:0:
128,96,38050,1,0,0:0:0:0:
384,96,38204,1,8,0:0:0:0:
384,96,38511,1,8,0:0:0:0:
128,96,38819,1,0,0:0:0:0:
384,96,39127,1,8,0:0:0:0:
128,96,39280,1,0,0:0:0:0:
384,96,39434,1,8,0:0:0:0:
128,96,39588,1,0,0:0:0:0:
128,96,39742,1,0,0:0:0:0:
384,96,39896,1,8,0:0:0:0:
128,96,40049,1,0,0:0:0:0:
128,96,40203,1,0,0:0:0:0:
384,96,40357,1,8,0:0:0:0:
384,96,40665,1,8,0:0:0:0:
128,96,40818,1,0,0:0:0:0:
128,96,40972,1,0,0:0:0:0:
384,96,41126,1,8,0:0:0:0:
128,96,41280,1,0,0:0:0:0:
128,96,41587,1,0,0:0:0:0:
384,96,41895,1,8,0:0:0:0:
128,96,42049,1,0,0:0:0:0:
128,96,42203,1,0,0:0:0:0:
384,96,42356,1,8,0:0:0:0:
128,96,42510,1,0,0:0:0:0:
128,96,42972,1,0,0:0:0:0:
384,96,43125,1,8,0:0:0:0:
384,96,43433,1,8,0:0:0:0:
128,96,43587,1,0,0:0:0:0:
384,96,43741,1,8,0:0:0:0:
384,96,43894,1,8,0:0:0:0:
128,96,44048,1,0,0:0:0:0:
128,96,44202,1,0,0:0:0:0:
384,96,44356,1,8,0:0:0:0:
128,96,44663,1,0,0:0:0:0:
128,96,44817,1,0,0:0:0:0:
384,96,44971,1,8,0:0:0:0:
128,96,45125,1,0,0:0:0:0:
128,96,45279,1,0,0:0:0:0:
128,96,45432,1,0,0:0:0:0:
384,96,45586,1,8,0:0:0:0:
128,96,45740,1,0,0:0:0:0:
128,96,45894,1,0,0:0:0:0:
128,96,46201,1,0,0:0:0:0:
128,96,46509,1,0,0:0:0:0:
128,96,46663,1,0,0:0:0:0:
384,96,46817,1,8,0:0:0:0:
128,96,46970,1,0,0:0:0:0:
128,96,47278,1,0,0:0:0:0:
128,96,47586,1,0,0:0:0:0:
128,96,47739,1,0,0:0:0:0:
128,96,47893,1,0,0:0:0:0:
384,96,48047,1,8,0:0:0:0:
384,96,48355,1,8,0:0:0:0:
128,96,48508,1,0,0:0:0:0:
384,96,48662,1,8,0:0:0:0:
128,96,48970,1,0,0:0:0:0:
128,96,49124,1,0,0:0:0:0:
384,96,49277,1,8,0:0:0:0:
128,96,49585,1,0,0:0:0:0:
384,96,49739,1,8,0:0:0:0:
128,96,49893,1,0,0:0:0:0:
128,96,50046,1,0,0:0:0:0:
384,96,50200,1,8,0:0:0:0:
384,96,50508,1,8,0:0:0:0:
384,96,50662,1,8,0:0:0:0:
128,96,50815,1,0,0:0:0:0:
384,96,50969,1,8,0:0:0:0:
128,96,51123,1,0,0:0:0:0:
128,96,51431,1,0,0:0:0:0:
384,96,51738,1,8,0:0:0:0:
128,96,51892,1,0,0:0:0:0:
128,96,52046,1,0,0:0:0:0:
384,96,52199,1,8,0:0:0:0:
128,96,52353,1,0,0:0:0:0:
128,96,52815,1,0,0:0:0:0:
384,96,52968,1,8,0:0:0:0:
384,96,53276,1,0,0:0:0:0:
384,96,53430,1,8,0:0:0:0:
128,96,53584,1,0,0:0:0:0:
128,96,53891,1,0,0:0:0:0:
128,96,54045,1,0,0:0:0:0:
384,96,54199,1,8,0:0:0:0:
384,96,54506,1,8,0:0:0:0:
128,96,54660,1,0,0:0:0:0:
128,96,54814,1,0,0:0:0:0:
384,96,54968,1,8,0:0:0:0:
128,96,55122,1,0,0:0:0:0:
128,96,55275,1,0,0:0:0:0:
384,96,55429,1,8,0:0:0:0:
384,96,55583,1,8,0:0:0:0:
128,96,55737,1,0,0:0:0:0:
128,288,56044,1,4,0:0:0:0:
384,96,56352,1,8,0:0:0:0:
128,96,56506,1,0,0:0:0:0:
384,96,56660,1,8,0:0:0:0:
384,96,56813,1,8,0:0:0:0:
128,96,56967,1,0,0:0:0:0:
128,96,57275,1,0,0:0:0:0:
384,96,57582,1,8,0:0:0:0:
128,96,57736,1,0,0:0:0:0:
384,96,57890,1,8,0:0:0:0:
384,96,58044,1,8,0:0:0:0:
128,96,58198,1,0,0:0:0:0:
384,96,58505,1,8,0:0:0:0:
128,96,58813,1,0,0:0:0:0:
128,96,58967,1,0,0:0:0:0:
384,96,59120,1,8,0:0:0:0:
128,96,59428,1,0,0:0:0:0:
384,96,59736,1,8,0:0:0:0:
128,96,59889,1,0,0:0:0:0:
128,96,60197,1,0,0:0:0:0:
384,96,60351,1,8,0:0:0:0:
384,96,60505,1,8,0:0:0:0:
128,96,60658,1,0,0:0:0:0:
384,96,60966,1,8,0:0:0:0:
128,96,61274,1,0,0:0:0:0:
128,96,61427,1,0,0:0:0:0:
384,96,61581,1,8,0:0:0:0:
384,96,61889,1,8,0:0:0:0:
128,96,62196,1,0,0:0:0:0:
128,96,62504,1,0,0:0:0:0:
128,96,62658,1,0,0:0:0:0:
384,96,62812,1,8,0:0:0:0:
384,96,62965,1,8,0:0:0:0:
128,96,63119,1,0,0:0:0:0:
128,96,63427,1,0,0:0:0:0:
128,96,63888,1,0,0:0:0:0:
384,96,64042,1,8,0:0:0:0:
128,96,64350,1,0,0:0:0:0:
128,96,64657,1,0,0:0:0:0:
384,96,64811,1,8,0:0:0:0:
128,96,64965,1,0,0:0:0:0:
128,96,65119,1,0,0:0:0:0:
384,96,65272,1,8,0:0:0:0:
128,96,65426,1,0,0:0:0:0:
384,96,65580,1,8,0:0:0:0:
128,96,65888,1,0,0:0:0:0:
128,96,66195,1,0,0:0:0:0:
128,96,66349,1,0,0:0:0:0:
384,96,66503,1,8,0:0:0:0:
128,96,66810,1,0,0:0:0:0:
384,96,67118,1,8,0:0:0:0:
128,96,67426,1,0,0:0:0:0:
128,96,67579,1,0,0:0:0:0:
384,96,67733,1,8,0:0:0:0:
384,96,67887,1,8,0:0:0:0:
128,96,68041,1,0,0:0:0:0:
128,96,68348,1,0,0:0:0:0:
128,96,68656,1,0,0:0:0:0:
384,96,68964,1,8,0:0:0:0:
128,96,69117,1,0,0:0:0:0:
128,96,69425,1,0,0:0:0:0:
384,96,69579,1,8,0:0:0:0:
384,96,69733,1,8,0:0:0:0:
128,96,69886,1,0,0:0:0:0:
128,96,70040,1,0,0:0:0:0:
384,96,70194,1,8,0:0:0:0:
128,96,70348,1,0,0:0:0:0:
128,96,70502,1,0,0:0:0:0:
384,96,70809,1,8,0:0:0:0:
128,96,71117,1,0,0:0:0:0:
384,96,71424,1,8,0:0:0:0:
128,96,71578,1,0,0:0:0:0:
128,96,71886,1,0,0:0:0:0:
384,96,72040,1,8,0:0:0:0:
384,96,72193,1,8,0:0:0:0:
128,96,72347,1,0,0:0:0:0:
128,96,72501,1,0,0:0:0:0:
384,96,72655,1,8,0:0:0:0:
128,96,72809,1,0,0:0:0:0:
128,96,72962,1,0,0:0:0:0:
128,96,73270,1,0,0:0:0:0:
128,96,73731,1,0,0:0:0:0:
384,96,73885,1,8,0:0:0:0:
128,96,74193,1,0,0:0:0:0:
128,96,74500,1,0,0:0:0:0:
384,96,74654,1,8,0:0:0:0:
128,96,74808,1,0,0:0:0:0:
128,96,74962,1,0,0:0:0:0:
384,96,75116,1,8,0:0:0:0:
128,96,75269,1,0,0:0:0:0:
384,96,75423,1,8,0:0:0:0:
128,96,75731,1,0,0:0:0:0:
128,96,76038,1,0,0:0:0:0:
128,96,76192,1,0,0:0:0:0:
384,96,76346,1,8,0:0:0:0:
128,96,76654,1,0,0:0:0:0:
384,96,76961,1,8,0:0:0:0:
128,96,77269,1,0,0:0:0:0:
128,96,77423,1,0,0:0:0:0:
384,96,77576,1,8,0:0:0:0:
384,96,77730,1,8,0:0:0:0:
128,96,77884,1,0,0:0:0:0:
128,288,78192,1,4,0:0:0:0:
128,96,78499,1,0,0:0:0:0:
384,96,78807,1,8,0:0:0:0:
384,96,79114,1,8,0:0:0:0:
128,96,79268,1,0,0:0:0:0:
128,96,79422,1,0,0:0:0:0:
128,96,79729,1,0,0:0:0:0:
128,96,79883,1,0,0:0:0:0:
384,96,80037,1,8,0:0:0:0:
384,96,80191,1,8,0:0:0:0:
128,96,80345,1,0,0:0:0:0:
384,96,80652,1,8,0:0:0:0:
128,96,80960,1,0,0:0:0:0:
128,96,81114,1,0,0:0:0:0:
384,96,81267,1,8,0:0:0:0:
384,96,81575,1,8,0:0:0:0:
128,96,81883,1,0,0:0:0:0:
128,96,82036,1,0,0:0:0:0:
384,96,82190,1,8,0:0:0:0:
384,96,82498,1,8,0:0:0:0:
384,96,82652,1,8,0:0:0:0:
128,96,82805,1,0,0:0:0:0:
128,96,82959,1,0,0:0:0:0:
384,96,83113,1,8,0:0:0:0:
128,96,83421,1,0,0:0:0:0:
128,96,83574,1,0,0:0:0:0:
384,96,83728,1,8,0:0:0:0:
128,96,83882,1,0,0:0:0:0:
128,96,84190,1,0,0:0:0:0:
384,96,84343,1,8,0:0:0:0:
384,96,84497,1,8,0:0:0:0:
128,96,84651,1,0,0:0:0:0:
128,96,84805,1,0,0:0:0:0:
384,96,84959,1,8,0:0:0:0:
128,96,85112,1,0,0:0:0:0:
128,96,85266,1,0,0:0:0:0:
384,96,85574,1,8,0:0:0:0:
384,96,85728,1,8,0:0:0:0:
128,96,85881,1,0,0:0:0:0:
384,96,86035,1,8,0:0:0:0:
128,96,86189,1,0,0:0:0:0:
128,96,86343,1,0,0:0:0:0:
384,96,86497,1,8,0:0:0:0:
384,96,86650,1,8,0:0:0:0:
128,96,86804,1,0,0:0:0:0:
128,96,86958,1,0,0:0:0:0:
384,96,87112,1,8,0:0:0:0:
128,96,87266,1,0,0:0:0:0:
384,96,87419,1,8,0:0:0:0:
384,96,87573,1,8,0:0:0:0:
128,96,87727,1,0,0:0:0:0:
384,288,88035,1,12,0:0:0:0:
128,96,88342,1,0,0:0:0:0:
128,96,88496,1,0,0:0:0:0:
384,96,88650,1,8,0:0:0:0:
384,96,88957,1,8,0:0:0:0:
128,96,89111,1,0,0:0:0:0:
384,96,89265,1,8,0:0:0:0:
384,96,89419,1,8,0:0:0:0:
128,96,89573,1,0,0:0:0:0:
128,96,89726,1,0,0:0:0:0:
384,96,89880,1,8,0:0:0:0:
384,96,90188,1,8,0:0:0:0:
384,96,90342,1,8,0:0:0:0:
128,96,90495,1,0,0:0:0:0:
128,96,90803,1,0,0:0:0:0:
384,96,91111,1,8,0:0:0:0:
384,96,91264,1,8,0:0:0:0:
128,96,91418,1,0,0:0:0:0:
384,96,91572,1,8,0:0:0:0:
128,96,91726,1,0,0:0:0:0:
128,96,92033,1,0,0:0:0:0:
128,96,92187,1,0,0:0:0:0:
384,96,92341,1,8,0:0:0:0:
128,96,92495,1,0,0:0:0:0:
384,96,92649,1,8,0:0:0:0:
384,96,92802,1,8,0:0:0:0:
128,96,92956,1,0,0:0:0:0:
128,96,93264,1,0,0:0:0:0:
384,96,93571,1,8,0:0:0:0:
384,96,93879,1,8,0:0:0:0:
384,96,94033,1,8,0:0:0:0:
128,96,94187,1,0,0:0:0:0:
384,96,94340,1,8,0:0:0:0:
128,96,94494,1,0,0:0:0:0:
128,96,94648,1,0,0:0:0:0:
384,96,94802,1,8,0:0:0:0:
128,96,94956,1,0,0:0:0:0:
128,96,95109,1,0,0:0:0:0:
384,96,95417,1,8,0:0:0:0:
128,96,95725,1,0,0:0:0:0:
128,96,95878,1,0,0:0:0:0:
384,96,96032,1,8,0:0:0:0:
384,96,96340,1,8,0:0:0:0:
128,96,96494,1,0,0:0:0:0:
384,96,96647,1,8,0:0:0:0:
384,96,96801,1,8,0:0:0:0:
128,96,96955,1,0,0:0:0:0:
128,96,97109,1,0,0:0:0:0:
384,96,97263,1,8,0:0:0:0:
128,96,97570,1,0,0:0:0:0:
384,96,97724,1,8,0:0:0:0:
128,96,97878,1,0,0:0:0:0:
128,96,98185,1,0,0:0:0:0:
384,96,98493,1,8,0:0:0:0:
384,96,98801,1,8,0:0:0:0:
384,96,98954,1,8,0:0:0:0:
128,96,99108,1,0,0:0:0:0:
128,96,99416,1,0,0:0:0:0:
128,96,99570,1,0,0:0:0:0:
384,96,99723,1,8,0:0:0:0:
384,96,99877,1,8,0:0:0:0:
128,96,100031,1,0,0:0:0:0:
384,96,100185,1,8,0:0:0:0:
128,96,100339,1,0,0:0:0:0:
128,96,100646,1,0,0:0:0:0:
384,96,100954,1,8,0:0:0:0:
128,96,101261,1,0,0:0:0:0:
128,96,101569,1,0,0:0:0:0:
128,96,101723,1,0,0:0:0:0:
384,96,101877,1,8,0:0:0:0:
128,96,102030,1,0,0:0:0:0:
384,96,102184,1,8,0:0:0:0:
384,96,102492,1,8,0:0:0:0:
128,96,102799,1,0,0:0:0:0:
128,96,103107,1,0,0:0:0:0:
128,96,103261,1,0,0:0:0:0:
384,96,103415,1,8,0:0:0:0:
384,96,103722,1,8,0:0:0:0:
128,96,103876,1,0,0:0:0:0:
384,96,104030,1,8,0:0:0:0:
384,96,104184,1,8,0:0:0:0:
128,96,104337,1,0,0:0:0:0:
128,96,104491,1,0,0:0:0:0:
384,96,104645,1,8,0:0:0:0:
384,96,104799,1,8,0:0:0:0:
128,96,104952,1,0,0:0:0:0:
384,96,105106,1,8,0:0:0:0:
128,96,105260,1,0,0:0:0:0:
128,96,105568,1,0,0:0:0:0:
384,96,105875,1,8,0:0:0:0:
128,96,106183,1,0,0:0:0:0:
128,96,106337,1,0,0:0:0:0:
384,96,106490,1,8,0:0:0:0:
384,96,106798,1,8,0:0:0:0:
128,96,106952,1,0,0:0:0:0:
384,96,107106,1,8,0:0:0:0:
384,96,107259,1,8,0:0:0:0:
128,96,107413,1,0,0:0:0:0:
384,96,107567,1,8,0:0:0:0:
128,96,107721,1,0,0:0:0:0:
128,96,108028,1,0,0:0:0:0:
384,96,108336,1,8,0:0:0:0:
128,96,108644,1,0,0:0:0:0:
384,96,108797,1,8,0:0:0:0:
128,96,108951,1,0,0:0:0:0:
128,96,109105,1,0,0:0:0:0:
384,96,109259,1,8,0:0:0:0:
384,96,109566,1,8,0:0:0:0:
384,96,109720,1,8,0:0:0:0:
128,96,109874,1,0,0:0:0:0:
128,288,110182,1,4,0:0:0:0:
384,96,110797,1,8,0:0:0:0:
128,96,111104,1,0,0:0:0:0:
128,96,111258,1,0,0:0:0:0:
128,96,111566,1,0,0:0:0:0:
128,96,111720,1,0,0:0:0:0:
384,96,112027,1,8,0:0:0:0:
128,96,112335,1,0,0:0:0:0:
384,96,112489,1,8,0:0:0:0:
128,96,112642,1,0,0:0:0:0:
128,96,112950,1,0,0:0:0:0:
384,96,113258,1,8,0:0:0:0:
128,96,113719,1,0,0:0:0:0:
384,96,113873,1,8,0:0:0:0:
128,96,114027,1,0,0:0:0:0:
128,96,114180,1,0,0:0:0:0:
128,96,114334,1,0,0:0:0:0:
384,96,114488,1,8,0:0:0:0:
384,96,114642,1,8,0:0:0:0:
128,96,114796,1,0,0:0:0:0:
384,288,115103,1,12,0:0:0:0:
128,96,115411,1,0,0:0:0:0:
128,96,115565,1,0,0:0:0:0:
384,96,115718,1,8,0:0:0:0:
384,96,116026,1,8,0:0:0:0:
128,96,116180,1,0,0:0:0:0:
384,96,116487,1,8,0:0:0:0:
128,96,116641,1,0,0:0:0:0:
128,96,116795,1,0,0:0:0:0:
384,96,116949,1,8,0:0:0:0:
384,96,117256,1,8,0:0:0:0:
128,96,117410,1,0,0:0:0:0:
128,96,117564,1,0,0:0:0:0:
128,96,117872,1,0,0:0:0:0:
128,96,118025,1,0,0:0:0:0:
384,96,118179,1,8,0:0:0:0:
384,96,118487,1,8,0:0:0:0:
128,96,118794,1,0,0:0:0:0:
128,96,118948,1,0,0:0:0:0:
384,96,119102,1,8,0:0:0:0:
128,96,119256,1,0,0:0:0:0:
384,96,119410,1,8,0:0:0:0:
384,96,119717,1,8,0:0:0:0:
128,96,119871,1,0,0:0:0:0:
128,96,120025,1,0,0:0:0:0:
384,96,120332,1,8,0:0:0:0:
128,96,120486,1,0,0:0:0:0:
384,96,120640,1,8,0:0:0:0:
384,96,120948,1,8,0:0:0:0:
128,96,121255,1,0,0:0:0:0:
384,96,121409,1,8,0:0:0:0:
128,96,121563,1,0,0:0:0:0:
128,96,121717,1,0,0:0:0:0:
384,96,121870,1,8,0:0:0:0:
128,96,122024,1,0,0:0:0:0:
384,96,122178,1,8,0:0:0:0:
128,96,122486,1,0,0:0:0:0:
128,96,122793,1,0,0:0:0:0:
128,96,122947,1,0,0:0:0:0:
384,96,123101,1,8,0:0:0:0:
384,96,123408,1,8,0:0:0:0:
128,96,123562,1,0,0:0:0:0:
384,96,123870,1,8,0:0:0:0:
128,96,124024,1,0,0:0:0:0:
128,96,124177,1,0,0:0:0:0:
384,96,124331,1,8,0:0:0:0:
384,96,124639,1,8,0:0:0:0:
128,96,124793,1,0,0:0:0:0:
128,96,124946,1,0,0:0:0:0:
384,96,125254,1,8,0:0:0:0:
128,96,125408,1,0,0:0:0:0:
384,96,125562,1,8,0:0:0:0:
384,96,125869,1,8,0:0:0:0:
128,96,126023,1,0,0:0:0:0:
128,96,126177,1,0,0:0:0:0:
128,96,126484,1,0,0:0:0:0:
128,96,126638,1,0,0:0:0:0:
384,96,126792,1,8,0:0:0:0:
128,96,126946,1,0,0:0:0:0:
384,96,127100,1,8,0:0:0:0:
128,96,127407,1,0,0:0:0:0:
128,96,127715,1,0,0:0:0:0:
128,96,127869,1,0,0:0:0:0:
384,96,128022,1,8,0:0:0:0:
384,96,128330,1,8,0:0:0:0:
128,96,128638,1,0,0:0:0:0:
384,96,128791,1,8,0:0:0:0:
128,96,128945,1,0,0:0:0:0:
128,96,129099,1,0,0:0:0:0:
384,96,129253,1,8,0:0:0:0:
128,96,129407,1,0,0:0:0:0:
384,96,129560,1,8,0:0:0:0:
384,96,129714,1,8,0:0:0:0:
128,96,129868,1,0,0:0:0:0:
384,96,130176,1,8,0:0:0:0:
128,96,130329,1,0,0:0:0:0:
384,96,130483,1,8,0:0:0:0:
384,96,130791,1,8,0:0:0:0:
128,96,130945,1,0,0:0:0:0:
384,96,131252,1,8,0:0:0:0:
128,96,131406,1,0,0:0:0:0:
128,96,131560,1,0,0:0:0:0:
384,96,131713,1,8,0:0:0:0:
384,96,131867,1,8,0:0:0:0:
128,96,132021,1,0,0:0:0:0:
128,288,132329,1,4,0:0:0:0:
