osu file format v11

[General]
AudioFilename: Doctor P - Tetris Cut Version.mp3
AudioLeadIn: 1500
PreviewTime: 27056
Countdown: 0
SampleSet: Normal
StackLeniency: 0.7
Mode: 0
LetterboxInBreaks: 1

[Editor]
Bookmarks: 29627
DistanceSpacing: 2
BeatDivisor: 4
GridSize: 4

[Metadata]
Title:Tetris
TitleUnicode:Tetris
Artist:Doctor P
ArtistUnicode:Doctor P
Creator:Deni
Version:TETRIS
Source:
Tags:
BeatmapID:220646
BeatmapSetID:78995

[Difficulty]
HPDrainRate:7
CircleSize:4
OverallDifficulty:7
ApproachRate:9
SliderMultiplier:2.7
SliderTickRate:1

[Events]
//Background and Video events
0,0,"background.jpg"
//Break Periods
2,43863,53456
//Storyboard Layer 0 (Background)
//Storyboard Layer 1 (Fail)
//Storyboard Layer 2 (Pass)
//Storyboard Layer 3 (Foreground)
//Storyboard Sound Samples
//Background Colour Transformations
3,100,163,162,255

[TimingPoints]
56,428.571428571429,4,1,0,100,1,0
56,-100,4,1,1,70,0,0
22770,-100,4,1,1,5,0,0
22984,-100,4,1,1,70,0,0
30806,-100,4,1,1,5,0,0
30913,-100,4,1,1,70,0,0
34234,-100,4,1,1,5,0,0
34341,-100,4,1,1,70,0,0
37663,-100,4,1,1,5,0,0
37770,-100,4,1,1,70,0,0
40770,-100,4,1,1,5,0,0
40877,-100,4,1,1,70,0,0

[Colours]
Combo1 : 255,128,255
Combo2 : 0,128,192
Combo3 : 0,255,0

[HitObjects]
152,80,56,1,2,0:0:0
360,120,484,1,0,0:0:0
440,184,698,1,0,0:0:0
368,264,913,1,2,0:0:0
248,160,1127,1,0,0:0:0
232,176,1234,1,0,0:0:0
216,192,1341,1,0,0:0:0
144,264,1556,1,0,0:0:0
56,128,1770,5,2,0:0:0
256,48,2198,1,0,0:0:0
348,96,2413,1,0,0:0:0
356,200,2627,1,2,0:0:0
172,300,3056,1,0,0:0:0
84,244,3270,1,0,0:0:0
76,140,3484,1,2,0:0:0
240,176,4127,5,0,0:0:0
440,260,4341,1,2,0:0:0
412,60,4770,1,0,0:0:0
288,324,5198,1,2,0:0:0
288,324,5627,1,0,0:0:0
288,324,6056,1,0,0:0:0
104,256,6484,5,0,0:0:0
76,156,6698,1,0,0:0:0
148,80,6913,1,0,0:0:0
260,192,7127,5,0,0:0:0
424,72,7556,1,0,0:0:0
464,244,7770,1,2,0:0:0
344,292,7984,1,0,0:0:0
344,292,8091,1,0,0:0:0
344,292,8198,1,0,0:0:0
252,104,8413,1,0,0:0:0
152,268,8627,1,2,0:0:0
104,48,9270,5,0,0:0:0
252,104,9484,1,2,0:0:0
152,184,9698,1,0,0:0:0
128,200,9806,1,0,0:0:0
108,216,9913,1,0,0:0:0
276,232,10127,1,0,0:0:0
396,108,10341,5,2,0:0:0
368,288,10770,1,0,0:0:0
284,352,10984,1,0,0:0:0
196,292,11198,1,2,0:0:0
284,100,11627,1,0,0:0:0
76,128,12056,1,2,0:0:0
76,128,12484,1,0,0:0:0
76,128,12913,1,0,0:0:0
344,272,13770,5,6,0:0:0
216,112,14198,2,0,P|176:68|104:72,1,135
144,144,14627,2,0,P|184:188|256:184,1,135,2|0,0:0|0:0,0:0:0
296,160,14948,1,0,0:0:0
332,128,15056,1,0,0:0:0
448,56,15270,1,0,0:0:0
452,216,15484,5,2,0:0:0
208,56,15698,2,0,P|157:69|122:157,1,135
128,224,16127,2,0,P|178:210|213:122,1,135,0|2,0:0|0:0,0:0:0
392,160,16556,1,0,0:0:0
392,160,16770,2,0,P|362:116|267:114,1,135
316,176,17198,5,2,0:0:0
348,248,17413,2,0,P|270:236|240:193,1,135
232,76,17841,1,0,0:0:0
352,40,18056,2,0,P|396:44|396:44|480:108,1,135,2|0,0:0|0:0,0:0:0
432,268,18484,1,0,0:0:0
168,184,18913,5,2,0:0:0
320,296,19341,1,0,0:0:0
400,124,19770,1,0,0:0:0
240,28,20198,5,0,0:0:0
116,84,20413,1,0,0:0:0
104,220,20627,1,0,0:0:0
372,216,20841,5,0,0:0:0
152,336,21270,1,0,0:0:0
184,124,21484,1,2,0:0:0
324,108,21698,2,0,P|412:72,2,67.5
84,232,22127,1,0,0:0:0
308,312,22341,2,0,P|391:339|376:184,1,270,2|0,0:0|0:0,2:0:0
324,108,22984,5,0,0:0:0
128,60,23198,1,2,0:0:0
224,220,23413,1,0,0:0:0
252,240,23520,1,0,0:0:0
280,256,23627,1,0,0:0:0
440,240,23841,1,0,0:0:0
324,108,24056,5,2,0:0:0
88,224,24270,2,0,P|112:296|200:296,2,135
160,240,24913,1,2,0:0:0
440,128,25341,1,0,0:0:0
240,28,25770,1,2,0:0:0
372,320,26198,1,0,0:0:0
160,240,26627,1,0,0:0:0
240,52,27484,5,12,0:0:0
428,308,27913,2,0,P|372:248,1,67.5
248,272,28127,2,0,P|324:304,1,67.5
272,96,28341,5,12,0:0:0
64,280,28770,2,0,P|32:200,1,67.5
120,112,28984,2,0,P|32:152,1,67.5
248,220,29198,5,12,0:0:0
380,112,29627,2,0,P|308:76,1,67.5
428,32,29841,2,0,P|460:108,1,67.5
356,188,30056,2,2,P|412:240|400:300,1,135
272,288,30377,1,0,0:0:0
148,232,30484,2,2,P|167:158|289:156,1,202.5
364,332,30913,5,12,0:0:0
80,120,31341,2,2,P|120:56|208:96,1,135
332,276,31770,5,12,0:0:0
110,69,32198,2,2,P|168:20|240:85,1,135
268,304,32627,5,12,0:0:0
164,25,33056,2,2,P|235:0|279:87,1,135,0|0,0:3|0:3,2:3:0
208,296,33484,1,8,0:0:0
456,188,33698,1,0,0:0:0
408,68,33913,2,0,P|347:32|260:132,1,202.5
376,272,34341,5,12,0:0:0
76,96,34770,2,0,P|176:68,1,67.5
256,152,34984,2,0,P|348:120,1,67.5
152,244,35198,5,12,0:0:0
392,52,35627,2,0,P|440:112,1,67.5
428,240,35841,2,0,P|348:232,1,67.5,0|0,0:0|0:0,0:0:0
200,104,36056,5,12,0:0:0
72,344,36484,2,0,P|159:311,1,67.5
272,272,36698,2,0,P|184:239,1,67.5
276,56,36913,2,2,P|352:53|386:104,1,135
416,296,37234,1,0,0:0:0
232,336,37341,2,2,P|196:268|296:200,1,202.5
424,96,37770,5,8,0:0:0
148,48,38198,2,2,P|82:84|75:153,1,135
328,232,38627,1,0,0:0:0
76,328,38841,2,2,P|88:260,1,67.5
256,232,39056,2,2,P|292:168|364:168,1,135
472,348,39484,1,8,0:0:0
116,48,39913,5,0,0:0:0
284,320,40127,1,0,0:0:0
352,72,40341,2,2,P|460:156|344:180,1,270
164,164,41198,6,2,P|80:233|180:296,1,202.5,12|0,0:0|0:0,0:0:0
152,232,41627,2,0,P|241:229,1,67.5
376,256,41841,2,0,P|288:272,1,67.5
448,124,42056,6,2,P|416:52|300:92,1,202.5,12|0,0:0|0:0,0:0:0
372,112,42484,2,0,P|312:160,1,67.5
400,184,42698,2,0,P|456:228,1,67.5
356,324,42913,6,2,P|264:344|232:252,1,202.5,12|0,0:0|0:0,0:0:0
300,276,43341,2,0,P|300:192,1,67.5
404,120,43556,2,0,P|312:160,1,67.5
256,192,54056,12,4,54913,0:0:0
