osu file format v14

[General]
AudioFilename: Doctor P - Big Boss.mp3
AudioLeadIn: 0
PreviewTime: -1
Countdown: 0
SampleSet: Normal
StackLeniency: 0.7
Mode: 1
LetterboxInBreaks: 0
WidescreenStoryboard: 0

[Editor]
DistanceSpacing: 1
BeatDivisor: 6
GridSize: 8
TimelineZoom: 3.199999

[Metadata]
Title:Big Boss
TitleUnicode:Big Boss
Artist:Doctor P
ArtistUnicode:Doctor P
Creator:Parkz
Version:Jungle Call
Source:Dubstep
Tags:dubstep
BeatmapID:357546
BeatmapSetID:143797

[Difficulty]
HPDrainRate:5
CircleSize:4
OverallDifficulty:5
ApproachRate:5
SliderMultiplier:1.6
SliderTickRate:1

[Events]
//Background and Video events
//Break Periods
//Storyboard Layer 0 (Background)
//Storyboard Layer 1 (Fail)
//Storyboard Layer 2 (Pass)
//Storyboard Layer 3 (Foreground)
//Storyboard Sound Samples

[TimingPoints]
5.78987168699103,352.941176470588,4,1,0,80,1,0
5652,-100,4,1,0,80,0,0
11299,-100,4,1,0,80,0,0
22594,-133.333333333333,4,2,0,55,0,0
33888,-133.333333333333,4,1,0,80,0,0
34241,-133.333333333333,4,2,0,15,0,0
34594,-133.333333333333,4,2,0,20,0,0
34946,-133.333333333333,4,2,0,25,0,0
35299,-133.333333333333,4,2,0,30,0,0
35652,-133.333333333333,4,2,0,35,0,0
36711,-133.333333333333,4,2,0,40,0,0
37770,-133.333333333333,4,2,0,45,0,0
39535,-133.333333333333,4,2,0,50,0,0
40064,-133.333333333333,4,2,0,55,0,0
45182,-100,4,1,0,100,0,0
45535,-100,4,1,0,100,0,1
45623,-100,4,1,0,100,0,0
45711,-100,4,1,0,100,0,1
45799,-100,4,1,0,100,0,0
46770,-100,4,1,0,100,0,1
46858,-100,4,1,0,100,0,0
48005,-100,4,1,0,100,0,0
48358,-100,4,1,0,100,0,1
49329,-100,4,1,0,100,0,0
49770,-100,4,1,0,100,0,1
50388,-100,4,1,0,100,0,0
50652,-100,4,1,0,100,0,1
50741,-100,4,1,0,100,0,0
51182,-100,4,1,0,100,0,1
51446,-100,4,1,0,100,0,0
53388,-100,4,1,0,100,0,1
53652,-100,4,1,0,100,0,0
54005,-100,4,1,0,100,0,1
56476,-100,4,1,0,100,0,0
58594,-100,4,1,0,100,0,0
58946,-100,4,1,0,100,0,0
59123,-100,4,1,0,100,0,1
59299,-100,4,1,0,100,0,0
59476,-100,4,1,0,100,0,1
62123,-100,4,1,0,100,0,0
62476,-100,4,1,0,100,0,1
62741,-100,4,1,0,100,0,0
64682,-100,4,1,0,100,0,1
64946,-100,4,1,0,100,0,0
65123,-100,4,1,0,100,0,1
66358,-100,4,1,0,100,0,0
66535,-100,4,1,0,100,0,1
66623,-100,4,1,0,100,0,0
66711,-100,4,1,0,100,0,1
66799,-100,4,1,0,100,0,0
66888,-100,4,1,0,100,0,1
66976,-100,4,1,0,100,0,0
67064,-100,4,1,0,100,0,1
67152,-100,4,1,0,100,0,0
67329,-100,4,1,0,100,0,1
67417,-100,4,1,0,100,0,0
67594,-100,4,1,0,100,0,1
67770,-100,4,1,0,100,0,1
70241,-100,4,1,0,100,0,1
79064,-100,4,1,0,100,0,1
81535,-100,4,1,0,100,0,1
90358,-100,4,1,0,80,0,0
107299,-142.857142857143,4,2,0,60,0,0
110123,-100,4,2,0,100,0,0
112946,-100,4,1,0,100,0,1
146829,-142.857142857143,4,1,0,100,0,0

[Colours]
Combo1 : 18,124,255
Combo2 : 255,0,0

[HitObjects]
256,192,5,5,4,0:0:0:0:
256,192,270,1,0,0:0:0:0:
256,192,358,1,2,0:0:0:0:
256,192,535,1,0,0:0:0:0:
256,192,623,1,0,0:0:0:0:
248,192,799,1,0,0:0:0:0:
248,192,888,1,0,0:0:0:0:
256,192,976,1,0,0:0:0:0:
256,192,1064,1,2,0:0:0:0:
256,192,1241,1,0,0:0:0:0:
256,192,1329,1,2,0:0:0:0:
256,192,1417,1,0,0:0:0:0:
248,192,1594,1,0,0:0:0:0:
256,192,1682,1,0,0:0:0:0:
256,192,1770,1,2,0:0:0:0:
256,192,1946,1,0,0:0:0:0:
256,192,2035,1,0,0:0:0:0:
248,192,2211,1,2,0:0:0:0:
248,192,2299,1,0,0:0:0:0:
248,192,2388,1,0,0:0:0:0:
248,184,2476,1,2,0:0:0:0:
248,192,2652,1,0,0:0:0:0:
256,192,2741,1,2,0:0:0:0:
256,192,2829,1,0,0:0:0:0:
256,192,3094,1,0,0:0:0:0:
256,192,3182,1,2,0:0:0:0:
256,192,3359,1,0,0:0:0:0:
256,192,3447,1,0,0:0:0:0:
248,192,3623,1,0,0:0:0:0:
248,192,3712,1,0,0:0:0:0:
256,192,3800,1,0,0:0:0:0:
256,192,3888,1,2,0:0:0:0:
256,192,4065,1,0,0:0:0:0:
256,192,4153,1,2,0:0:0:0:
256,192,4241,1,0,0:0:0:0:
256,192,4417,1,0,0:0:0:0:
256,192,4506,1,0,0:0:0:0:
256,192,4594,1,2,0:0:0:0:
256,192,4770,1,0,0:0:0:0:
256,192,4859,1,0,0:0:0:0:
248,192,5035,1,2,0:0:0:0:
248,192,5123,1,0,0:0:0:0:
248,192,5212,1,0,0:0:0:0:
248,184,5300,1,2,0:0:0:0:
248,192,5476,1,0,0:0:0:0:
256,192,5565,1,2,0:0:0:0:
256,192,5652,1,0,0:0:0:0:
256,192,5917,1,0,0:0:0:0:
256,192,6005,1,2,0:0:0:0:
256,192,6182,1,0,0:0:0:0:
256,192,6270,1,0,0:0:0:0:
248,192,6446,1,0,0:0:0:0:
248,192,6535,1,0,0:0:0:0:
256,192,6623,1,0,0:0:0:0:
256,192,6711,1,2,0:0:0:0:
256,192,6888,1,0,0:0:0:0:
256,192,6976,1,2,0:0:0:0:
256,192,7064,1,0,0:0:0:0:
256,192,7241,1,0,0:0:0:0:
256,192,7329,1,0,0:0:0:0:
256,192,7417,1,2,0:0:0:0:
256,192,7593,1,0,0:0:0:0:
256,192,7682,1,0,0:0:0:0:
248,192,7858,1,2,0:0:0:0:
248,192,7946,1,0,0:0:0:0:
248,192,8035,1,0,0:0:0:0:
248,184,8123,1,2,0:0:0:0:
248,192,8299,1,0,0:0:0:0:
256,192,8388,1,2,0:0:0:0:
256,192,8476,1,0,0:0:0:0:
256,192,8741,1,0,0:0:0:0:
256,192,8829,1,2,0:0:0:0:
256,192,9006,1,0,0:0:0:0:
256,192,9094,1,0,0:0:0:0:
248,192,9270,1,0,0:0:0:0:
248,192,9359,1,0,0:0:0:0:
256,192,9447,1,0,0:0:0:0:
256,192,9535,1,2,0:0:0:0:
256,192,9712,1,0,0:0:0:0:
256,192,9800,1,2,0:0:0:0:
256,192,9888,1,0,0:0:0:0:
256,192,10064,1,0,0:0:0:0:
256,192,10153,1,0,0:0:0:0:
256,192,10241,1,2,0:0:0:0:
256,192,10417,1,0,0:0:0:0:
256,192,10506,1,0,0:0:0:0:
256,192,10594,1,0,0:0:0:0:
248,192,10682,1,2,0:0:0:0:
256,192,10770,1,0,0:0:0:0:
248,192,10859,1,0,0:0:0:0:
248,184,10947,1,2,0:0:0:0:
248,192,11123,1,0,0:0:0:0:
256,192,11212,1,2,0:0:0:0:
256,192,11299,1,0,0:0:0:0:
256,192,11476,1,2,0:0:0:0:
256,192,11564,1,2,0:0:0:0:
256,192,11652,1,0,0:0:0:0:
248,192,11829,1,2,0:0:0:0:
256,192,11917,1,2,0:0:0:0:
248,192,12005,1,0,0:0:0:0:
256,192,12182,1,2,0:0:0:0:
256,192,12270,1,2,0:0:0:0:
248,192,12358,1,0,0:0:0:0:
256,192,12535,1,2,0:0:0:0:
256,192,12623,1,2,0:0:0:0:
256,192,12711,1,0,0:0:0:0:
256,200,12888,1,2,0:0:0:0:
256,192,12976,1,2,0:0:0:0:
256,192,13064,1,0,0:0:0:0:
256,192,13241,1,2,0:0:0:0:
256,192,13329,1,2,0:0:0:0:
256,192,13417,1,0,0:0:0:0:
256,192,13594,1,2,0:0:0:0:
256,192,13682,1,2,0:0:0:0:
256,192,13770,1,0,0:0:0:0:
256,200,13946,1,0,0:0:0:0:
264,200,14035,1,2,0:0:0:0:
256,192,14123,1,0,0:0:0:0:
256,192,14388,1,0,0:0:0:0:
256,192,14476,1,2,0:0:0:0:
256,192,14653,1,0,0:0:0:0:
256,192,14741,1,0,0:0:0:0:
256,192,14829,1,2,0:0:0:0:
256,192,14917,1,0,0:0:0:0:
248,192,15006,1,0,0:0:0:0:
256,192,15094,1,0,0:0:0:0:
256,192,15182,1,2,0:0:0:0:
256,192,15359,1,0,0:0:0:0:
256,192,15447,1,2,0:0:0:0:
256,192,15535,1,0,0:0:0:0:
256,192,15800,1,0,0:0:0:0:
256,192,15888,1,2,0:0:0:0:
256,192,16064,1,0,0:0:0:0:
256,192,16153,1,0,0:0:0:0:
256,192,16241,1,2,0:0:0:0:
248,192,16329,1,0,0:0:0:0:
248,192,16417,1,0,0:0:0:0:
248,192,16506,1,0,0:0:0:0:
248,184,16594,1,2,0:0:0:0:
248,192,16770,1,0,0:0:0:0:
256,192,16859,1,2,0:0:0:0:
256,192,16946,1,0,0:0:0:0:
256,200,17123,1,0,0:0:0:0:
256,200,17211,1,2,0:0:0:0:
256,192,17299,1,0,0:0:0:0:
256,200,17476,1,0,0:0:0:0:
256,192,17564,1,2,0:0:0:0:
264,192,17652,1,0,0:0:0:0:
256,200,17829,1,0,0:0:0:0:
256,200,17917,1,2,0:0:0:0:
264,200,18005,1,0,0:0:0:0:
256,200,18182,1,0,0:0:0:0:
264,200,18270,1,2,0:0:0:0:
264,200,18358,1,0,0:0:0:0:
256,200,18535,1,0,0:0:0:0:
264,200,18623,1,2,0:0:0:0:
264,200,18711,1,0,0:0:0:0:
256,200,18888,1,0,0:0:0:0:
264,200,18976,1,2,0:0:0:0:
264,200,19064,1,0,0:0:0:0:
256,200,19241,1,0,0:0:0:0:
264,200,19329,1,2,0:0:0:0:
272,192,19417,1,0,0:0:0:0:
256,192,19594,1,0,0:0:0:0:
272,200,19682,1,2,0:0:0:0:
264,200,19770,1,0,0:0:0:0:
272,200,19946,1,0,0:0:0:0:
272,200,20035,1,0,0:0:0:0:
264,200,20123,1,2,0:0:0:0:
272,192,20299,1,0,0:0:0:0:
272,200,20388,1,0,0:0:0:0:
272,200,20476,1,0,0:0:0:0:
280,200,20652,1,0,0:0:0:0:
280,200,20741,1,0,0:0:0:0:
280,200,20829,1,2,0:0:0:0:
272,200,21005,1,0,0:0:0:0:
272,200,21094,1,2,0:0:0:0:
272,200,21182,1,0,0:0:0:0:
272,200,21358,1,0,0:0:0:0:
272,200,21446,1,0,0:0:0:0:
272,200,21535,1,2,0:0:0:0:
272,200,21711,1,0,0:0:0:0:
272,200,21799,1,0,0:0:0:0:
272,200,21888,1,0,0:0:0:0:
272,200,21976,1,2,0:0:0:0:
272,200,22064,1,0,0:0:0:0:
272,200,22152,1,0,0:0:0:0:
272,200,22241,1,2,0:0:0:0:
272,200,22417,1,0,0:0:0:0:
272,200,22505,1,2,0:0:0:0:
272,200,22594,1,0,0:0:0:0:
280,208,22770,1,0,0:0:0:0:
272,200,22946,1,2,0:0:0:0:
280,208,23123,1,2,0:0:0:0:
264,200,23299,1,2,0:0:0:0:
264,200,23476,1,0,0:0:0:0:
264,200,23652,1,2,0:0:0:0:
264,200,23829,1,0,0:0:0:0:
264,200,24005,1,0,0:0:0:0:
264,200,24182,1,0,0:0:0:0:
264,200,24358,1,2,0:0:0:0:
264,200,24535,1,2,0:0:0:0:
264,200,24711,1,2,0:0:0:0:
264,200,24888,1,0,0:0:0:0:
264,200,25064,1,2,0:0:0:0:
264,200,25241,1,0,0:0:0:0:
264,200,25417,1,4,0:0:0:0:
264,200,25594,1,0,0:0:0:0:
264,200,25770,1,0,0:0:0:0:
264,200,25946,1,2,0:0:0:0:
264,192,26123,1,0,0:0:0:0:
256,192,26299,1,0,0:0:0:0:
256,192,26476,1,2,0:0:0:0:
264,200,26652,1,0,0:0:0:0:
256,192,26829,1,4,0:0:0:0:
256,200,27005,1,0,0:0:0:0:
256,192,27182,1,0,0:0:0:0:
264,200,27358,1,2,0:0:0:0:
256,192,27535,1,0,0:0:0:0:
256,200,27711,1,0,0:0:0:0:
256,192,27888,1,2,0:0:0:0:
264,200,28064,1,0,0:0:0:0:
272,200,28241,1,4,0:0:0:0:
264,200,28417,1,2,0:0:0:0:
272,200,28594,1,0,0:0:0:0:
256,200,28770,1,2,0:0:0:0:
264,200,28946,1,0,0:0:0:0:
264,192,29123,1,2,0:0:0:0:
264,200,29299,1,0,0:0:0:0:
272,192,29476,1,2,0:0:0:0:
264,200,29652,1,0,0:0:0:0:
264,192,29829,1,2,0:0:0:0:
264,200,30005,1,0,0:0:0:0:
264,192,30182,1,2,0:0:0:0:
264,200,30358,1,0,0:0:0:0:
264,192,30535,1,2,0:0:0:0:
264,200,30711,1,0,0:0:0:0:
264,192,30888,1,2,0:0:0:0:
264,200,31064,1,0,0:0:0:0:
272,208,31417,1,0,0:0:0:0:
272,208,31770,1,0,0:0:0:0:
272,208,32123,1,0,0:0:0:0:
264,184,32476,1,0,0:0:0:0:
264,184,32829,1,0,0:0:0:0:
264,184,33182,1,0,0:0:0:0:
264,184,33535,1,0,0:0:0:0:
264,184,33888,1,4,0:0:0:0:
256,192,34241,1,0,0:0:0:0:
256,184,34329,1,0,0:0:0:0:
256,184,34417,1,0,0:0:0:0:
256,184,34505,1,0,0:0:0:0:
264,184,34594,1,0,0:0:0:0:
256,192,34682,1,0,0:0:0:0:
256,184,34770,1,0,0:0:0:0:
256,184,34858,1,0,0:0:0:0:
256,184,34946,1,0,0:0:0:0:
264,184,35035,1,0,0:0:0:0:
256,192,35123,1,0,0:0:0:0:
256,184,35211,1,0,0:0:0:0:
256,184,35299,1,0,0:0:0:0:
256,184,35387,1,0,0:0:0:0:
264,184,35476,1,0,0:0:0:0:
256,192,35564,1,0,0:0:0:0:
256,184,35652,1,0,0:0:0:0:
256,184,35740,1,0,0:0:0:0:
256,184,35828,1,0,0:0:0:0:
264,184,35917,1,0,0:0:0:0:
256,192,36005,1,0,0:0:0:0:
256,184,36093,1,0,0:0:0:0:
256,184,36181,1,0,0:0:0:0:
256,184,36269,1,0,0:0:0:0:
264,184,36358,1,0,0:0:0:0:
256,192,36446,1,0,0:0:0:0:
256,184,36534,1,0,0:0:0:0:
256,184,36622,1,0,0:0:0:0:
256,184,36710,1,2,0:0:0:0:
264,184,36799,1,0,0:0:0:0:
256,192,36888,1,0,0:0:0:0:
256,184,36976,1,0,0:0:0:0:
256,184,37064,1,0,0:0:0:0:
256,184,37152,1,0,0:0:0:0:
264,184,37241,1,2,0:0:0:0:
256,192,37329,1,0,0:0:0:0:
256,184,37417,1,0,0:0:0:0:
256,184,37505,1,0,0:0:0:0:
256,184,37593,1,0,0:0:0:0:
264,184,37682,1,0,0:0:0:0:
256,192,37770,1,2,0:0:0:0:
256,184,37858,1,0,0:0:0:0:
256,184,37946,1,0,0:0:0:0:
256,184,38034,1,0,0:0:0:0:
264,184,38123,1,0,0:0:0:0:
256,192,38211,1,0,0:0:0:0:
256,184,38299,1,2,0:0:0:0:
256,184,38387,1,0,0:0:0:0:
256,184,38475,1,0,0:0:0:0:
264,184,38564,1,0,0:0:0:0:
256,192,38652,1,0,0:0:0:0:
256,184,38740,1,0,0:0:0:0:
256,184,38828,1,2,0:0:0:0:
256,184,38916,1,0,0:0:0:0:
264,184,39005,1,0,0:0:0:0:
256,192,39093,1,0,0:0:0:0:
256,184,39181,1,0,0:0:0:0:
256,184,39269,1,0,0:0:0:0:
256,184,39357,1,0,0:0:0:0:
264,184,39446,1,0,0:0:0:0:
256,192,39535,1,2,0:0:0:0:
256,184,39623,1,2,0:0:0:0:
256,184,39711,1,0,0:0:0:0:
256,184,39799,1,0,0:0:0:0:
264,184,39888,1,0,0:0:0:0:
256,192,39976,1,0,0:0:0:0:
256,184,40064,1,2,0:0:0:0:
256,184,40152,1,0,0:0:0:0:
256,184,40240,1,0,0:0:0:0:
264,184,40329,1,0,0:0:0:0:
256,192,40417,1,0,0:0:0:0:
256,192,40505,1,0,0:0:0:0:
256,192,40594,1,2,0:0:0:0:
272,200,40682,1,0,0:0:0:0:
272,200,40770,1,0,0:0:0:0:
272,200,40858,1,0,0:0:0:0:
272,200,40946,1,0,0:0:0:0:
272,200,41035,1,0,0:0:0:0:
272,200,41123,1,2,0:0:0:0:
272,200,41211,1,0,0:0:0:0:
272,200,41299,1,0,0:0:0:0:
272,200,41388,1,0,0:0:0:0:
272,200,41476,1,0,0:0:0:0:
272,200,41564,1,0,0:0:0:0:
272,200,41652,1,2,0:0:0:0:
272,200,41741,1,0,0:0:0:0:
272,200,41829,1,0,0:0:0:0:
272,200,41917,1,0,0:0:0:0:
272,200,42005,1,0,0:0:0:0:
272,200,42094,1,0,0:0:0:0:
272,200,42182,1,2,0:0:0:0:
272,200,42270,1,2,0:0:0:0:
272,200,42358,1,0,0:0:0:0:
256,192,43241,1,0,0:0:0:0:
256,192,43682,1,0,0:0:0:0:
256,192,44123,1,0,0:0:0:0:
256,192,44476,1,6,0:0:0:0:
256,192,44652,1,4,0:0:0:0:
256,208,45182,1,0,0:0:0:0:
256,192,45241,1,0,0:0:0:0:
264,200,45299,1,0,0:0:0:0:
264,200,45358,1,0,0:0:0:0:
264,200,45417,1,0,0:0:0:0:
264,200,45476,1,0,0:0:0:0:
256,192,45535,1,2,0:0:0:0:
256,192,45711,1,2,0:0:0:0:
248,208,45888,1,2,0:0:0:0:
264,208,46064,1,0,0:0:0:0:
264,208,46594,1,0,0:0:0:0:
256,192,46770,1,2,0:0:0:0:
272,200,46946,1,0,0:0:0:0:
256,184,47299,1,2,0:0:0:0:
256,192,47652,1,2,0:0:0:0:
256,216,47711,1,0,0:0:0:0:
264,200,47770,1,0,0:0:0:0:
256,216,47829,1,0,0:0:0:0:
256,192,48005,1,0,0:0:0:0:
264,200,48064,1,0,0:0:0:0:
264,200,48123,1,0,0:0:0:0:
264,200,48182,1,2,0:0:0:0:
248,200,48358,1,2,0:0:0:0:
248,200,48446,1,2,0:0:0:0:
248,200,48535,1,2,0:0:0:0:
264,208,48711,1,2,0:0:0:0:
264,208,48799,1,2,0:0:0:0:
264,208,48888,1,2,0:0:0:0:
256,192,49064,1,2,0:0:0:0:
256,192,49241,1,2,0:0:0:0:
264,200,49417,1,0,0:0:0:0:
264,200,49476,1,0,0:0:0:0:
264,200,49535,1,0,0:0:0:0:
264,200,49594,1,2,0:0:0:0:
264,200,49770,1,2,0:0:0:0:
256,192,49858,1,2,0:0:0:0:
256,192,49946,1,2,0:0:0:0:
256,192,50123,1,2,0:0:0:0:
256,192,50211,1,2,0:0:0:0:
256,192,50299,1,2,0:0:0:0:
272,200,50476,1,0,0:0:0:0:
272,200,50652,1,2,0:0:0:0:
256,208,50829,1,0,0:0:0:0:
256,208,50888,1,0,0:0:0:0:
256,208,50946,1,0,0:0:0:0:
256,208,51005,1,2,0:0:0:0:
264,200,51182,1,2,0:0:0:0:
264,200,51270,1,2,0:0:0:0:
264,200,51358,1,2,0:0:0:0:
264,200,51446,1,0,0:0:0:0:
264,208,51535,1,2,0:0:0:0:
264,208,51888,1,6,0:0:0:0:
264,200,52241,1,4,0:0:0:0:
264,200,52594,1,6,0:0:0:0:
264,208,52858,1,0,0:0:0:0:
256,192,52946,1,2,0:0:0:0:
256,208,53299,1,0,0:0:0:0:
264,200,53388,1,2,0:0:0:0:
264,200,53476,1,2,0:0:0:0:
264,200,53564,1,2,0:0:0:0:
264,200,53652,1,0,0:0:0:0:
256,208,53711,1,0,0:0:0:0:
264,208,53770,1,0,0:0:0:0:
256,200,53829,1,2,0:0:0:0:
256,200,54005,1,2,0:0:0:0:
256,200,54094,1,2,0:0:0:0:
256,200,54182,1,0,0:0:0:0:
264,216,54270,1,0,0:0:0:0:
264,192,54358,1,2,0:0:0:0:
264,200,54446,1,2,0:0:0:0:
256,200,54535,1,0,0:0:0:0:
264,192,54711,1,2,0:0:0:0:
264,200,54799,1,2,0:0:0:0:
256,200,54888,1,0,0:0:0:0:
288,200,54976,1,0,0:0:0:0:
264,192,55064,1,0,0:0:0:0:
272,192,55123,1,0,0:0:0:0:
280,192,55182,1,0,0:0:0:0:
264,192,55241,1,2,0:0:0:0:
280,176,55417,1,2,0:0:0:0:
280,176,55476,1,2,0:0:0:0:
272,176,55535,1,2,0:0:0:0:
256,200,55594,1,0,0:0:0:0:
272,192,55682,1,0,0:0:0:0:
272,176,55770,1,2,0:0:0:0:
272,184,55829,1,2,0:0:0:0:
272,184,55888,1,2,0:0:0:0:
272,184,55946,1,0,0:0:0:0:
272,184,56123,1,2,0:0:0:0:
272,184,56182,1,2,0:0:0:0:
272,184,56241,1,0,0:0:0:0:
272,184,56299,1,2,0:0:0:0:
264,192,56388,1,2,0:0:0:0:
272,184,56476,1,0,0:0:0:0:
264,192,57182,1,2,0:0:0:0:
264,192,57535,1,0,0:0:0:0:
256,192,57888,1,2,0:0:0:0:
264,192,57946,1,0,0:0:0:0:
272,200,58005,1,0,0:0:0:0:
264,192,58064,1,0,0:0:0:0:
272,200,58241,1,0,0:0:0:0:
256,192,58594,1,2,0:0:0:0:
248,184,58946,1,2,0:0:0:0:
264,184,59005,1,0,0:0:0:0:
256,192,59064,1,0,0:0:0:0:
256,184,59123,1,2,0:0:0:0:
256,184,59211,1,2,0:0:0:0:
264,192,59476,1,2,0:0:0:0:
264,192,59564,1,2,0:0:0:0:
264,192,59652,1,2,0:0:0:0:
264,192,59741,1,2,0:0:0:0:
264,192,59829,1,2,0:0:0:0:
264,192,59917,1,0,0:0:0:0:
264,192,60005,1,2,0:0:0:0:
264,192,60094,1,2,0:0:0:0:
264,184,60182,1,2,0:0:0:0:
264,192,60270,1,2,0:0:0:0:
264,192,60358,1,2,0:0:0:0:
264,192,60446,1,2,0:0:0:0:
264,192,60535,1,2,0:0:0:0:
264,192,60623,1,2,0:0:0:0:
264,192,60711,1,0,0:0:0:0:
264,192,60888,1,2,0:0:0:0:
264,192,60976,1,2,0:0:0:0:
264,192,61064,1,2,0:0:0:0:
264,192,61152,1,2,0:0:0:0:
264,192,61241,1,2,0:0:0:0:
264,192,61329,1,0,0:0:0:0:
264,192,61417,1,2,0:0:0:0:
264,192,61505,1,2,0:0:0:0:
264,192,61594,1,2,0:0:0:0:
264,192,61682,1,2,0:0:0:0:
264,192,61770,1,0,0:0:0:0:
264,192,61858,1,2,0:0:0:0:
264,192,61946,1,2,0:0:0:0:
264,192,62035,1,2,0:0:0:0:
264,192,62123,1,0,0:0:0:0:
264,200,62476,1,2,0:0:0:0:
264,200,62564,1,2,0:0:0:0:
264,200,62652,1,2,0:0:0:0:
264,200,62741,1,0,0:0:0:0:
264,200,62829,1,2,0:0:0:0:
264,192,63182,1,6,0:0:0:0:
256,192,63535,1,4,0:0:0:0:
256,192,63888,1,6,0:0:0:0:
256,200,64152,1,0,0:0:0:0:
256,192,64241,1,2,0:0:0:0:
248,192,64594,1,0,0:0:0:0:
248,192,64682,1,2,0:0:0:0:
248,192,64770,1,2,0:0:0:0:
248,192,64858,1,2,0:0:0:0:
248,192,64946,1,0,0:0:0:0:
256,192,65123,1,2,0:0:0:0:
256,184,65211,1,2,0:0:0:0:
256,184,65299,1,2,0:0:0:0:
256,184,65388,1,2,0:0:0:0:
248,192,65476,1,2,0:0:0:0:
248,184,65564,1,0,0:0:0:0:
248,192,65652,1,2,0:0:0:0:
248,192,65741,1,2,0:0:0:0:
248,192,65829,1,2,0:0:0:0:
248,192,65917,1,2,0:0:0:0:
248,192,66005,1,2,0:0:0:0:
248,192,66094,1,2,0:0:0:0:
248,192,66182,1,2,0:0:0:0:
248,184,66270,1,2,0:0:0:0:
248,184,66358,1,0,0:0:0:0:
248,200,66535,1,2,0:0:0:0:
248,200,66711,1,2,0:0:0:0:
248,200,66888,1,2,0:0:0:0:
256,192,66976,1,0,0:0:0:0:
248,200,67064,1,2,0:0:0:0:
248,200,67329,1,2,0:0:0:0:
248,192,67417,1,0,0:0:0:0:
248,200,67594,1,2,0:0:0:0:
264,208,67770,1,0,0:0:0:0:
256,192,67829,1,0,0:0:0:0:
264,200,67887,1,0,0:0:0:0:
264,200,67946,1,0,0:0:0:0:
264,200,68005,1,0,0:0:0:0:
264,200,68064,1,0,0:0:0:0:
256,192,68123,1,2,0:0:0:0:
256,192,68299,1,2,0:0:0:0:
248,208,68476,1,2,0:0:0:0:
264,208,68652,1,0,0:0:0:0:
264,208,69182,1,0,0:0:0:0:
256,192,69358,1,2,0:0:0:0:
272,200,69534,1,0,0:0:0:0:
256,184,69887,1,2,0:0:0:0:
256,192,70240,1,2,0:0:0:0:
256,216,70299,1,0,0:0:0:0:
264,200,70358,1,0,0:0:0:0:
256,216,70417,1,0,0:0:0:0:
256,192,70593,1,0,0:0:0:0:
264,200,70652,1,0,0:0:0:0:
264,200,70711,1,0,0:0:0:0:
264,200,70770,1,2,0:0:0:0:
248,200,70946,1,2,0:0:0:0:
248,200,71034,1,2,0:0:0:0:
248,200,71123,1,2,0:0:0:0:
264,208,71299,1,2,0:0:0:0:
264,208,71387,1,2,0:0:0:0:
264,208,71476,1,2,0:0:0:0:
256,192,71652,1,2,0:0:0:0:
256,192,71829,1,2,0:0:0:0:
264,200,72005,1,0,0:0:0:0:
264,200,72064,1,0,0:0:0:0:
264,200,72123,1,0,0:0:0:0:
264,200,72182,1,2,0:0:0:0:
264,200,72358,1,2,0:0:0:0:
256,192,72446,1,2,0:0:0:0:
256,192,72534,1,2,0:0:0:0:
256,192,72711,1,2,0:0:0:0:
256,192,72799,1,2,0:0:0:0:
256,192,72887,1,2,0:0:0:0:
272,200,73064,1,0,0:0:0:0:
272,200,73240,1,2,0:0:0:0:
256,208,73417,1,0,0:0:0:0:
256,208,73476,1,0,0:0:0:0:
256,208,73534,1,0,0:0:0:0:
256,208,73593,1,2,0:0:0:0:
264,200,73770,1,2,0:0:0:0:
264,200,73858,1,2,0:0:0:0:
264,200,73946,1,2,0:0:0:0:
264,200,74034,1,0,0:0:0:0:
264,208,74123,1,2,0:0:0:0:
264,208,74476,1,6,0:0:0:0:
264,200,74829,1,4,0:0:0:0:
264,200,75182,1,6,0:0:0:0:
264,208,75446,1,0,0:0:0:0:
256,192,75534,1,2,0:0:0:0:
256,208,75887,1,0,0:0:0:0:
264,200,75976,1,2,0:0:0:0:
264,200,76064,1,2,0:0:0:0:
264,200,76152,1,2,0:0:0:0:
264,200,76240,1,0,0:0:0:0:
256,200,76299,1,0,0:0:0:0:
272,200,76358,1,0,0:0:0:0:
256,200,76417,1,2,0:0:0:0:
256,200,76593,1,2,0:0:0:0:
256,200,76682,1,2,0:0:0:0:
256,200,76770,1,0,0:0:0:0:
256,200,76858,1,0,0:0:0:0:
264,192,76946,1,2,0:0:0:0:
264,200,77035,1,2,0:0:0:0:
256,200,77123,1,0,0:0:0:0:
264,192,77299,1,2,0:0:0:0:
264,200,77388,1,2,0:0:0:0:
256,200,77476,1,0,0:0:0:0:
288,200,77564,1,0,0:0:0:0:
264,192,77652,1,0,0:0:0:0:
272,192,77711,1,0,0:0:0:0:
280,192,77770,1,0,0:0:0:0:
264,192,77829,1,2,0:0:0:0:
280,176,78005,1,2,0:0:0:0:
280,176,78064,1,2,0:0:0:0:
272,176,78123,1,2,0:0:0:0:
256,200,78182,1,0,0:0:0:0:
256,184,78270,1,0,0:0:0:0:
272,176,78358,1,2,0:0:0:0:
272,184,78417,1,2,0:0:0:0:
272,184,78476,1,2,0:0:0:0:
272,184,78534,1,0,0:0:0:0:
272,184,78711,1,2,0:0:0:0:
272,184,78770,1,2,0:0:0:0:
272,184,78829,1,0,0:0:0:0:
272,184,78887,1,2,0:0:0:0:
264,192,78976,1,2,0:0:0:0:
256,192,79064,1,0,0:0:0:0:
248,176,79652,1,0,0:0:0:0:
264,184,79770,1,2,0:0:0:0:
256,192,80123,1,0,0:0:0:0:
248,184,80476,1,0,0:0:0:0:
272,192,80652,1,0,0:0:0:0:
264,192,80829,1,0,0:0:0:0:
256,192,81182,1,2,0:0:0:0:
264,192,81535,1,0,0:0:0:0:
264,192,81888,1,0,0:0:0:0:
264,192,82064,1,2,0:0:0:0:
264,192,82152,1,2,0:0:0:0:
264,192,82240,1,2,0:0:0:0:
264,192,82329,1,2,0:0:0:0:
264,192,82417,1,2,0:0:0:0:
264,192,82505,1,0,0:0:0:0:
264,192,82593,1,2,0:0:0:0:
264,192,82682,1,2,0:0:0:0:
264,184,82770,1,2,0:0:0:0:
264,192,82858,1,2,0:0:0:0:
264,192,82946,1,2,0:0:0:0:
264,192,83034,1,2,0:0:0:0:
264,192,83123,1,2,0:0:0:0:
264,192,83211,1,2,0:0:0:0:
264,192,83299,1,0,0:0:0:0:
264,192,83476,1,2,0:0:0:0:
264,192,83564,1,2,0:0:0:0:
264,192,83652,1,2,0:0:0:0:
264,192,83740,1,2,0:0:0:0:
264,192,83829,1,2,0:0:0:0:
264,192,83917,1,0,0:0:0:0:
264,192,84005,1,2,0:0:0:0:
264,192,84093,1,2,0:0:0:0:
264,192,84182,1,2,0:0:0:0:
264,192,84270,1,2,0:0:0:0:
264,192,84358,1,0,0:0:0:0:
264,192,84446,1,2,0:0:0:0:
264,192,84534,1,2,0:0:0:0:
264,192,84623,1,2,0:0:0:0:
264,192,84711,1,0,0:0:0:0:
264,200,85064,1,2,0:0:0:0:
264,200,85152,1,2,0:0:0:0:
264,200,85240,1,2,0:0:0:0:
264,200,85329,1,0,0:0:0:0:
264,200,85417,1,2,0:0:0:0:
264,192,85770,1,6,0:0:0:0:
256,192,86123,1,4,0:0:0:0:
256,192,86476,1,6,0:0:0:0:
256,200,86740,1,0,0:0:0:0:
256,192,86829,1,2,0:0:0:0:
248,192,87182,1,0,0:0:0:0:
248,192,87270,1,2,0:0:0:0:
248,192,87358,1,2,0:0:0:0:
248,192,87446,1,2,0:0:0:0:
248,192,87534,1,0,0:0:0:0:
256,192,87711,1,2,0:0:0:0:
264,200,87799,1,0,0:0:0:0:
256,192,87888,1,2,0:0:0:0:
256,192,87976,1,2,0:0:0:0:
264,200,88064,1,0,0:0:0:0:
256,192,88152,1,2,0:0:0:0:
256,192,88241,1,2,0:0:0:0:
256,192,88329,1,2,0:0:0:0:
232,200,88417,1,0,0:0:0:0:
248,192,88505,1,2,0:0:0:0:
240,184,88594,1,2,0:0:0:0:
248,192,88682,1,2,0:0:0:0:
256,184,88770,1,2,0:0:0:0:
256,184,88858,1,2,0:0:0:0:
240,200,88946,1,0,0:0:0:0:
256,176,89123,1,2,0:0:0:0:
240,200,89211,1,0,0:0:0:0:
248,176,89299,1,2,0:0:0:0:
256,192,89388,1,0,0:0:0:0:
248,176,89476,1,2,0:0:0:0:
248,192,89564,1,0,0:0:0:0:
256,192,89652,1,2,0:0:0:0:
256,192,89741,1,0,0:0:0:0:
240,200,89829,1,0,0:0:0:0:
248,192,89917,1,2,0:0:0:0:
248,192,90005,1,2,0:0:0:0:
240,200,90094,1,0,0:0:0:0:
240,176,90182,1,2,0:0:0:0:
272,192,90270,1,2,0:0:0:0:
256,192,90358,1,0,0:0:0:0:
256,192,90535,1,2,0:0:0:0:
256,192,90623,1,2,0:0:0:0:
256,192,90711,1,0,0:0:0:0:
248,192,90888,1,2,0:0:0:0:
256,192,90976,1,2,0:0:0:0:
248,192,91064,1,0,0:0:0:0:
256,192,91241,1,2,0:0:0:0:
256,192,91329,1,2,0:0:0:0:
248,192,91417,1,0,0:0:0:0:
256,192,91594,1,2,0:0:0:0:
256,192,91682,1,2,0:0:0:0:
256,192,91770,1,0,0:0:0:0:
256,200,91947,1,2,0:0:0:0:
256,192,92035,1,2,0:0:0:0:
256,192,92123,1,0,0:0:0:0:
256,192,92300,1,2,0:0:0:0:
256,192,92388,1,2,0:0:0:0:
256,192,92476,1,0,0:0:0:0:
256,192,92652,1,2,0:0:0:0:
256,192,92741,1,2,0:0:0:0:
256,192,92829,1,0,0:0:0:0:
256,200,93005,1,2,0:0:0:0:
264,200,93094,1,2,0:0:0:0:
256,192,93182,1,0,0:0:0:0:
256,192,93447,1,0,0:0:0:0:
256,192,93535,1,2,0:0:0:0:
256,192,93712,1,0,0:0:0:0:
256,192,93800,1,0,0:0:0:0:
256,192,93888,1,2,0:0:0:0:
256,192,93976,1,0,0:0:0:0:
248,192,94065,1,0,0:0:0:0:
256,192,94153,1,0,0:0:0:0:
256,192,94241,1,2,0:0:0:0:
256,192,94418,1,0,0:0:0:0:
256,192,94506,1,2,0:0:0:0:
256,192,94594,1,0,0:0:0:0:
256,192,94859,1,0,0:0:0:0:
256,192,94947,1,2,0:0:0:0:
256,192,95123,1,0,0:0:0:0:
256,192,95212,1,0,0:0:0:0:
256,192,95300,1,2,0:0:0:0:
248,192,95388,1,0,0:0:0:0:
248,192,95476,1,0,0:0:0:0:
248,192,95565,1,0,0:0:0:0:
248,184,95653,1,2,0:0:0:0:
248,192,95829,1,0,0:0:0:0:
256,192,95918,1,2,0:0:0:0:
256,192,96005,1,0,0:0:0:0:
256,200,96182,1,0,0:0:0:0:
256,200,96270,1,2,0:0:0:0:
256,192,96358,1,0,0:0:0:0:
256,200,96535,1,0,0:0:0:0:
256,192,96623,1,2,0:0:0:0:
264,192,96711,1,0,0:0:0:0:
256,200,96888,1,0,0:0:0:0:
256,200,96976,1,2,0:0:0:0:
264,200,97064,1,0,0:0:0:0:
256,200,97241,1,0,0:0:0:0:
264,200,97329,1,2,0:0:0:0:
264,200,97417,1,0,0:0:0:0:
256,200,97594,1,0,0:0:0:0:
264,200,97682,1,2,0:0:0:0:
264,200,97770,1,0,0:0:0:0:
256,200,97947,1,0,0:0:0:0:
264,200,98035,1,2,0:0:0:0:
264,200,98123,1,0,0:0:0:0:
256,200,98300,1,0,0:0:0:0:
264,200,98388,1,2,0:0:0:0:
272,192,98476,1,0,0:0:0:0:
256,192,98653,1,0,0:0:0:0:
272,200,98741,1,2,0:0:0:0:
264,200,98829,1,0,0:0:0:0:
272,200,99005,1,0,0:0:0:0:
272,200,99094,1,0,0:0:0:0:
264,200,99182,1,2,0:0:0:0:
272,192,99358,1,0,0:0:0:0:
272,200,99447,1,0,0:0:0:0:
272,200,99535,1,0,0:0:0:0:
280,200,99711,1,0,0:0:0:0:
280,200,99800,1,0,0:0:0:0:
280,200,99888,1,2,0:0:0:0:
272,200,100064,1,0,0:0:0:0:
272,200,100153,1,2,0:0:0:0:
272,200,100241,1,0,0:0:0:0:
272,200,100417,1,0,0:0:0:0:
272,200,100505,1,0,0:0:0:0:
272,200,100594,1,2,0:0:0:0:
272,200,100770,1,0,0:0:0:0:
272,200,100858,1,0,0:0:0:0:
272,200,100947,1,0,0:0:0:0:
272,200,101035,1,2,0:0:0:0:
272,200,101123,1,0,0:0:0:0:
272,200,101211,1,0,0:0:0:0:
272,200,101300,1,2,0:0:0:0:
272,200,101476,1,0,0:0:0:0:
272,200,101564,1,2,0:0:0:0:
256,192,101652,1,0,0:0:0:0:
256,192,101829,1,2,0:0:0:0:
256,192,101917,1,2,0:0:0:0:
256,192,102005,1,0,0:0:0:0:
248,192,102182,1,2,0:0:0:0:
256,192,102270,1,2,0:0:0:0:
248,192,102358,1,0,0:0:0:0:
256,192,102535,1,2,0:0:0:0:
256,192,102623,1,2,0:0:0:0:
248,192,102711,1,0,0:0:0:0:
256,192,102888,1,2,0:0:0:0:
256,192,102976,1,2,0:0:0:0:
256,192,103064,1,0,0:0:0:0:
256,200,103241,1,2,0:0:0:0:
256,192,103329,1,2,0:0:0:0:
256,192,103417,1,0,0:0:0:0:
256,192,103594,1,2,0:0:0:0:
256,192,103682,1,2,0:0:0:0:
256,192,103770,1,0,0:0:0:0:
256,192,103947,1,2,0:0:0:0:
256,192,104035,1,2,0:0:0:0:
256,192,104123,1,0,0:0:0:0:
256,200,104299,1,2,0:0:0:0:
264,200,104388,1,2,0:0:0:0:
256,192,104476,1,0,0:0:0:0:
256,192,104741,1,0,0:0:0:0:
256,192,104829,1,2,0:0:0:0:
256,192,105006,1,0,0:0:0:0:
256,192,105094,1,0,0:0:0:0:
256,192,105182,1,2,0:0:0:0:
256,192,105270,1,0,0:0:0:0:
248,192,105359,1,0,0:0:0:0:
256,192,105447,1,0,0:0:0:0:
256,192,105535,1,2,0:0:0:0:
256,192,105712,1,0,0:0:0:0:
256,192,105800,1,2,0:0:0:0:
256,192,105888,1,0,0:0:0:0:
256,192,106153,1,0,0:0:0:0:
256,192,106241,1,2,0:0:0:0:
256,192,106417,1,0,0:0:0:0:
256,192,106506,1,0,0:0:0:0:
256,192,106594,1,2,0:0:0:0:
248,192,106682,1,0,0:0:0:0:
248,192,106770,1,0,0:0:0:0:
248,192,106859,1,0,0:0:0:0:
248,184,106947,1,2,0:0:0:0:
248,192,107123,1,0,0:0:0:0:
256,192,107212,1,2,0:0:0:0:
264,192,107299,1,0,0:0:0:0:
256,192,107564,1,0,0:0:0:0:
256,200,107652,1,2,0:0:0:0:
256,192,107829,1,0,0:0:0:0:
256,200,107917,1,0,0:0:0:0:
256,200,108094,1,2,0:0:0:0:
256,200,108182,1,0,0:0:0:0:
256,200,108270,1,0,0:0:0:0:
256,200,108358,1,2,0:0:0:0:
256,192,108535,1,0,0:0:0:0:
256,192,108623,1,2,0:0:0:0:
256,192,108711,1,0,0:0:0:0:
264,192,108976,1,0,0:0:0:0:
264,192,109064,1,2,0:0:0:0:
264,192,109241,1,0,0:0:0:0:
264,192,109329,1,0,0:0:0:0:
264,192,109505,1,2,0:0:0:0:
264,192,109594,1,0,0:0:0:0:
264,192,109682,1,0,0:0:0:0:
264,192,109770,1,2,0:0:0:0:
264,192,109946,1,0,0:0:0:0:
264,192,110035,1,2,0:0:0:0:
264,192,110123,1,0,0:0:0:0:
248,192,110476,1,2,0:0:0:0:
248,192,110829,1,2,0:0:0:0:
248,208,111005,1,4,0:0:0:0:
240,168,111182,1,2,0:0:0:0:
264,208,111417,1,4,0:0:0:0:
256,216,111888,1,4,0:0:0:0:
264,224,112241,1,6,0:0:0:0:
264,216,112417,1,4,0:0:0:0:
256,208,112946,1,0,0:0:0:0:
256,192,113005,1,0,0:0:0:0:
264,200,113063,1,0,0:0:0:0:
264,200,113122,1,0,0:0:0:0:
264,200,113181,1,0,0:0:0:0:
264,200,113240,1,0,0:0:0:0:
256,192,113299,1,2,0:0:0:0:
256,192,113475,1,2,0:0:0:0:
248,208,113652,1,2,0:0:0:0:
264,208,113828,1,0,0:0:0:0:
264,176,113888,1,2,0:0:0:0:
248,184,113946,1,2,0:0:0:0:
256,184,114005,1,2,0:0:0:0:
256,184,114064,1,2,0:0:0:0:
256,184,114123,1,2,0:0:0:0:
256,184,114182,1,2,0:0:0:0:
256,184,114241,1,2,0:0:0:0:
256,184,114299,1,2,0:0:0:0:
264,208,114358,1,0,0:0:0:0:
256,184,114417,1,2,0:0:0:0:
256,184,114476,1,2,0:0:0:0:
256,192,114534,1,2,0:0:0:0:
272,200,114710,1,0,0:0:0:0:
256,184,114770,1,2,0:0:0:0:
256,184,114829,1,2,0:0:0:0:
256,184,114888,1,2,0:0:0:0:
256,184,114946,1,2,0:0:0:0:
256,184,115005,1,2,0:0:0:0:
256,184,115063,1,2,0:0:0:0:
264,192,115123,1,2,0:0:0:0:
264,192,115182,1,2,0:0:0:0:
256,192,115241,1,2,0:0:0:0:
256,192,115416,1,2,0:0:0:0:
256,216,115475,1,0,0:0:0:0:
264,200,115534,1,0,0:0:0:0:
256,216,115593,1,0,0:0:0:0:
256,192,115769,1,0,0:0:0:0:
264,200,115828,1,0,0:0:0:0:
264,200,115887,1,0,0:0:0:0:
264,200,115946,1,2,0:0:0:0:
248,200,116122,1,2,0:0:0:0:
248,200,116210,1,2,0:0:0:0:
248,200,116299,1,2,0:0:0:0:
264,208,116475,1,2,0:0:0:0:
264,208,116563,1,2,0:0:0:0:
264,208,116652,1,2,0:0:0:0:
256,192,116828,1,2,0:0:0:0:
256,192,117005,1,2,0:0:0:0:
264,200,117181,1,0,0:0:0:0:
264,200,117240,1,0,0:0:0:0:
264,200,117299,1,0,0:0:0:0:
264,200,117358,1,2,0:0:0:0:
264,200,117534,1,2,0:0:0:0:
256,192,117622,1,2,0:0:0:0:
256,192,117710,1,2,0:0:0:0:
256,192,117887,1,2,0:0:0:0:
256,192,117975,1,2,0:0:0:0:
256,192,118063,1,2,0:0:0:0:
272,200,118240,1,0,0:0:0:0:
272,200,118416,1,2,0:0:0:0:
256,208,118593,1,0,0:0:0:0:
256,208,118652,1,0,0:0:0:0:
256,208,118710,1,0,0:0:0:0:
256,208,118769,1,2,0:0:0:0:
264,200,118946,1,2,0:0:0:0:
264,200,119034,1,2,0:0:0:0:
264,200,119122,1,2,0:0:0:0:
264,200,119210,1,0,0:0:0:0:
264,208,119299,1,2,0:0:0:0:
264,208,119358,1,2,0:0:0:0:
264,208,119417,1,2,0:0:0:0:
264,208,119476,1,2,0:0:0:0:
264,208,119652,1,2,0:0:0:0:
264,208,119711,1,2,0:0:0:0:
264,208,119770,1,2,0:0:0:0:
264,208,119829,1,2,0:0:0:0:
264,200,120005,1,0,0:0:0:0:
256,208,120064,1,2,0:0:0:0:
256,208,120123,1,2,0:0:0:0:
256,208,120182,1,2,0:0:0:0:
264,200,120358,1,2,0:0:0:0:
264,200,120417,1,0,0:0:0:0:
264,200,120476,1,0,0:0:0:0:
264,200,120535,1,0,0:0:0:0:
264,208,120622,1,0,0:0:0:0:
256,192,120710,1,2,0:0:0:0:
264,200,120770,1,2,0:0:0:0:
264,192,120829,1,2,0:0:0:0:
264,192,120888,1,2,0:0:0:0:
264,192,120946,1,2,0:0:0:0:
264,184,121005,1,2,0:0:0:0:
256,208,121063,1,0,0:0:0:0:
264,200,121152,1,2,0:0:0:0:
264,200,121240,1,2,0:0:0:0:
264,200,121328,1,2,0:0:0:0:
264,200,121416,1,0,0:0:0:0:
264,192,121476,1,0,0:0:0:0:
264,192,121535,1,0,0:0:0:0:
256,200,121593,1,2,0:0:0:0:
256,200,121769,1,2,0:0:0:0:
240,200,121829,1,2,0:0:0:0:
256,200,121888,1,2,0:0:0:0:
256,200,121946,1,0,0:0:0:0:
256,200,122035,1,0,0:0:0:0:
264,192,122122,1,2,0:0:0:0:
256,192,122182,1,2,0:0:0:0:
264,192,122241,1,2,0:0:0:0:
256,200,122299,1,0,0:0:0:0:
264,192,122475,1,2,0:0:0:0:
240,192,122535,1,2,0:0:0:0:
264,192,122594,1,2,0:0:0:0:
256,200,122652,1,0,0:0:0:0:
288,200,122740,1,0,0:0:0:0:
264,192,122828,1,0,0:0:0:0:
272,192,122887,1,0,0:0:0:0:
280,192,122946,1,0,0:0:0:0:
264,192,123005,1,2,0:0:0:0:
280,176,123181,1,2,0:0:0:0:
280,176,123240,1,2,0:0:0:0:
272,176,123299,1,2,0:0:0:0:
256,200,123358,1,0,0:0:0:0:
264,184,123446,1,0,0:0:0:0:
272,176,123534,1,2,0:0:0:0:
272,184,123593,1,2,0:0:0:0:
272,184,123652,1,2,0:0:0:0:
272,184,123710,1,0,0:0:0:0:
272,184,123887,1,2,0:0:0:0:
272,184,123946,1,2,0:0:0:0:
272,184,124005,1,0,0:0:0:0:
272,184,124063,1,2,0:0:0:0:
264,192,124152,1,2,0:0:0:0:
272,184,124240,1,0,0:0:0:0:
264,200,124299,1,0,0:0:0:0:
264,192,124358,1,0,0:0:0:0:
264,192,124417,1,0,0:0:0:0:
264,192,124476,1,0,0:0:0:0:
264,192,124535,1,0,0:0:0:0:
264,192,124594,1,0,0:0:0:0:
264,176,124652,1,0,0:0:0:0:
264,176,124711,1,0,0:0:0:0:
264,176,124770,1,0,0:0:0:0:
264,192,124946,1,2,0:0:0:0:
256,168,125005,1,2,0:0:0:0:
256,160,125064,1,2,0:0:0:0:
256,160,125123,1,2,0:0:0:0:
248,168,125182,1,2,0:0:0:0:
256,160,125241,1,2,0:0:0:0:
264,192,125299,1,0,0:0:0:0:
248,192,125358,1,2,0:0:0:0:
240,184,125417,1,2,0:0:0:0:
248,192,125476,1,2,0:0:0:0:
256,192,125652,1,2,0:0:0:0:
264,192,125710,1,0,0:0:0:0:
272,200,125769,1,0,0:0:0:0:
264,192,125828,1,0,0:0:0:0:
272,200,126005,1,0,0:0:0:0:
264,184,126064,1,2,0:0:0:0:
264,184,126123,1,2,0:0:0:0:
264,184,126182,1,2,0:0:0:0:
264,184,126241,1,2,0:0:0:0:
264,184,126299,1,2,0:0:0:0:
256,192,126358,1,2,0:0:0:0:
264,184,126417,1,2,0:0:0:0:
264,184,126476,1,2,0:0:0:0:
264,184,126535,1,2,0:0:0:0:
248,184,126710,1,2,0:0:0:0:
264,184,126769,1,0,0:0:0:0:
256,192,126828,1,0,0:0:0:0:
256,184,126887,1,2,0:0:0:0:
256,184,126975,1,2,0:0:0:0:
264,192,127064,1,0,0:0:0:0:
264,192,127123,1,0,0:0:0:0:
264,184,127182,1,0,0:0:0:0:
264,192,127240,1,2,0:0:0:0:
264,192,127328,1,2,0:0:0:0:
264,192,127416,1,2,0:0:0:0:
264,192,127505,1,2,0:0:0:0:
264,192,127593,1,2,0:0:0:0:
264,192,127681,1,0,0:0:0:0:
264,192,127769,1,2,0:0:0:0:
264,192,127858,1,2,0:0:0:0:
264,184,127946,1,2,0:0:0:0:
264,192,128034,1,2,0:0:0:0:
264,192,128122,1,2,0:0:0:0:
264,192,128210,1,2,0:0:0:0:
264,192,128299,1,2,0:0:0:0:
264,192,128387,1,2,0:0:0:0:
264,192,128475,1,0,0:0:0:0:
264,192,128652,1,2,0:0:0:0:
264,192,128740,1,2,0:0:0:0:
264,192,128828,1,2,0:0:0:0:
264,192,128916,1,2,0:0:0:0:
264,192,129005,1,2,0:0:0:0:
264,192,129093,1,0,0:0:0:0:
264,192,129181,1,2,0:0:0:0:
264,192,129269,1,2,0:0:0:0:
264,192,129358,1,2,0:0:0:0:
264,192,129446,1,2,0:0:0:0:
264,192,129534,1,0,0:0:0:0:
264,192,129622,1,2,0:0:0:0:
264,192,129710,1,2,0:0:0:0:
264,192,129799,1,2,0:0:0:0:
264,192,129887,1,0,0:0:0:0:
272,192,129946,1,0,0:0:0:0:
264,192,130005,1,0,0:0:0:0:
264,192,130064,1,0,0:0:0:0:
264,200,130240,1,2,0:0:0:0:
264,200,130328,1,2,0:0:0:0:
264,200,130416,1,2,0:0:0:0:
264,200,130505,1,0,0:0:0:0:
264,200,130593,1,2,0:0:0:0:
272,200,130652,1,2,0:0:0:0:
272,200,130711,1,2,0:0:0:0:
272,200,130770,1,2,0:0:0:0:
264,192,130946,1,2,0:0:0:0:
264,200,131005,1,2,0:0:0:0:
264,200,131064,1,2,0:0:0:0:
264,200,131123,1,2,0:0:0:0:
256,192,131299,1,0,0:0:0:0:
264,192,131358,1,2,0:0:0:0:
264,192,131417,1,2,0:0:0:0:
264,192,131476,1,2,0:0:0:0:
256,192,131652,1,2,0:0:0:0:
264,200,131711,1,0,0:0:0:0:
264,192,131770,1,0,0:0:0:0:
272,192,131829,1,0,0:0:0:0:
256,200,131916,1,0,0:0:0:0:
256,192,132005,1,2,0:0:0:0:
264,192,132064,1,2,0:0:0:0:
264,192,132123,1,2,0:0:0:0:
264,192,132182,1,2,0:0:0:0:
248,192,132358,1,0,0:0:0:0:
248,192,132446,1,2,0:0:0:0:
248,192,132534,1,2,0:0:0:0:
248,192,132622,1,2,0:0:0:0:
248,192,132710,1,0,0:0:0:0:
256,184,132770,1,0,0:0:0:0:
256,192,132829,1,0,0:0:0:0:
256,192,132887,1,2,0:0:0:0:
256,184,132975,1,2,0:0:0:0:
256,184,133063,1,2,0:0:0:0:
256,184,133152,1,2,0:0:0:0:
248,192,133240,1,2,0:0:0:0:
248,184,133328,1,0,0:0:0:0:
248,192,133416,1,2,0:0:0:0:
248,192,133505,1,2,0:0:0:0:
248,192,133593,1,2,0:0:0:0:
248,192,133681,1,2,0:0:0:0:
248,192,133769,1,2,0:0:0:0:
248,192,133858,1,2,0:0:0:0:
248,192,133946,1,2,0:0:0:0:
248,184,134034,1,2,0:0:0:0:
248,184,134122,1,0,0:0:0:0:
248,200,134299,1,2,0:0:0:0:
248,200,134475,1,2,0:0:0:0:
248,200,134652,1,2,0:0:0:0:
256,192,134740,1,0,0:0:0:0:
248,200,134828,1,2,0:0:0:0:
248,200,135093,1,2,0:0:0:0:
248,192,135181,1,0,0:0:0:0:
248,200,135358,1,2,0:0:0:0:
264,208,135534,1,0,0:0:0:0:
256,192,135593,1,0,0:0:0:0:
264,200,135651,1,0,0:0:0:0:
264,200,135710,1,0,0:0:0:0:
264,200,135769,1,0,0:0:0:0:
264,200,135828,1,0,0:0:0:0:
256,192,135887,1,2,0:0:0:0:
256,192,136063,1,2,0:0:0:0:
248,208,136240,1,2,0:0:0:0:
264,208,136416,1,0,0:0:0:0:
264,200,136476,1,2,0:0:0:0:
240,192,136535,1,2,0:0:0:0:
264,200,136594,1,2,0:0:0:0:
272,208,136652,1,2,0:0:0:0:
240,192,136711,1,2,0:0:0:0:
272,208,136770,1,2,0:0:0:0:
272,208,136829,1,2,0:0:0:0:
264,200,136888,1,2,0:0:0:0:
264,208,136946,1,0,0:0:0:0:
280,200,137005,1,2,0:0:0:0:
280,200,137064,1,2,0:0:0:0:
256,192,137122,1,2,0:0:0:0:
272,200,137298,1,0,0:0:0:0:
272,216,137358,1,2,0:0:0:0:
272,208,137417,1,2,0:0:0:0:
272,208,137476,1,2,0:0:0:0:
264,200,137535,1,2,0:0:0:0:
272,200,137594,1,2,0:0:0:0:
256,184,137651,1,2,0:0:0:0:
264,200,137711,1,2,0:0:0:0:
264,200,137770,1,2,0:0:0:0:
264,200,137829,1,2,0:0:0:0:
256,192,138005,1,2,0:0:0:0:
256,216,138063,1,0,0:0:0:0:
264,200,138123,1,0,0:0:0:0:
256,216,138181,1,0,0:0:0:0:
256,192,138357,1,0,0:0:0:0:
264,200,138416,1,0,0:0:0:0:
264,200,138475,1,0,0:0:0:0:
264,200,138534,1,2,0:0:0:0:
248,200,138710,1,2,0:0:0:0:
248,200,138798,1,2,0:0:0:0:
248,200,138887,1,2,0:0:0:0:
264,208,139063,1,2,0:0:0:0:
264,208,139151,1,2,0:0:0:0:
264,208,139240,1,2,0:0:0:0:
256,192,139416,1,2,0:0:0:0:
256,192,139593,1,2,0:0:0:0:
264,200,139769,1,0,0:0:0:0:
264,200,139828,1,0,0:0:0:0:
264,200,139887,1,0,0:0:0:0:
264,200,139946,1,2,0:0:0:0:
264,200,140122,1,2,0:0:0:0:
256,192,140210,1,2,0:0:0:0:
256,192,140298,1,2,0:0:0:0:
256,192,140475,1,2,0:0:0:0:
256,192,140563,1,2,0:0:0:0:
256,192,140651,1,2,0:0:0:0:
272,200,140828,1,0,0:0:0:0:
272,200,141004,1,2,0:0:0:0:
256,208,141181,1,0,0:0:0:0:
256,208,141240,1,0,0:0:0:0:
256,208,141298,1,0,0:0:0:0:
256,208,141357,1,2,0:0:0:0:
264,200,141534,1,2,0:0:0:0:
264,200,141622,1,2,0:0:0:0:
264,200,141710,1,2,0:0:0:0:
264,200,141798,1,0,0:0:0:0:
264,208,141887,1,2,0:0:0:0:
264,200,141946,1,2,0:0:0:0:
288,208,142005,1,2,0:0:0:0:
264,200,142064,1,2,0:0:0:0:
264,208,142240,1,2,0:0:0:0:
296,208,142299,1,2,0:0:0:0:
296,208,142358,1,2,0:0:0:0:
296,208,142417,1,2,0:0:0:0:
264,200,142593,1,0,0:0:0:0:
296,208,142652,1,2,0:0:0:0:
296,208,142711,1,2,0:0:0:0:
296,208,142770,1,2,0:0:0:0:
264,200,142946,1,2,0:0:0:0:
296,208,143005,1,0,0:0:0:0:
296,208,143064,1,0,0:0:0:0:
296,208,143123,1,0,0:0:0:0:
264,208,143210,1,0,0:0:0:0:
256,192,143298,1,2,0:0:0:0:
288,208,143358,1,2,0:0:0:0:
288,208,143417,1,2,0:0:0:0:
288,208,143476,1,2,0:0:0:0:
264,200,143535,1,2,0:0:0:0:
256,200,143594,1,2,0:0:0:0:
256,208,143651,1,0,0:0:0:0:
264,200,143740,1,2,0:0:0:0:
264,200,143828,1,2,0:0:0:0:
264,200,143916,1,2,0:0:0:0:
264,200,144004,1,0,0:0:0:0:
256,208,144064,1,0,0:0:0:0:
248,208,144123,1,0,0:0:0:0:
256,200,144181,1,2,0:0:0:0:
256,200,144357,1,2,0:0:0:0:
264,184,144417,1,2,0:0:0:0:
256,200,144476,1,2,0:0:0:0:
256,200,144534,1,0,0:0:0:0:
264,200,144623,1,0,0:0:0:0:
264,192,144710,1,2,0:0:0:0:
264,192,144770,1,2,0:0:0:0:
264,192,144829,1,2,0:0:0:0:
256,200,144887,1,0,0:0:0:0:
264,192,145063,1,2,0:0:0:0:
272,192,145123,1,2,0:0:0:0:
264,192,145182,1,2,0:0:0:0:
256,200,145241,1,0,0:0:0:0:
288,200,145328,1,0,0:0:0:0:
264,192,145416,1,0,0:0:0:0:
272,192,145475,1,0,0:0:0:0:
280,192,145534,1,0,0:0:0:0:
264,192,145593,1,2,0:0:0:0:
280,176,145769,1,2,0:0:0:0:
280,176,145828,1,2,0:0:0:0:
272,176,145887,1,2,0:0:0:0:
256,200,145946,1,0,0:0:0:0:
248,192,146035,1,0,0:0:0:0:
272,176,146122,1,2,0:0:0:0:
272,184,146181,1,2,0:0:0:0:
272,184,146240,1,2,0:0:0:0:
272,184,146298,1,0,0:0:0:0:
272,184,146475,1,2,0:0:0:0:
272,184,146534,1,2,0:0:0:0:
272,184,146593,1,0,0:0:0:0:
272,184,146651,1,2,0:0:0:0:
264,192,146740,1,2,0:0:0:0:
256,192,146828,1,0,0:0:0:0:
