osu file format v13

[General]
AudioFilename: Fairy_Tail_Opening_17.mp3
AudioLeadIn: 0
PreviewTime: -1
Countdown: 1
SampleSet: Normal
StackLeniency: 0.7
Mode: 0
LetterboxInBreaks: 1
WidescreenStoryboard: 1

[Editor]
DistanceSpacing: 0.7
BeatDivisor: 4
GridSize: 8
TimelineZoom: 1

[Metadata]
Title:Mysterious Magic
TitleUnicode:Mysterious Magic
Artist:Do as Infinity
ArtistUnicode:Do as Infinity
Creator:boe10
Version:Erza
Source:Fairy Tail
Tags:Fairy Tail
BeatmapID:526449
BeatmapSetID:225648

[Difficulty]
HPDrainRate:5
CircleSize:4
OverallDifficulty:4
ApproachRate:5
SliderMultiplier:1.5
SliderTickRate:2

[Events]
//Background and Video events
Video,0,"Fairy_Tail_Opening_17~1.avi"
0,0,"Erza.jpg",0,0
//Break Periods
2,20772,25226
//Storyboard Layer 0 (Background)
//Storyboard Layer 1 (Fail)
//Storyboard Layer 2 (Pass)
//Storyboard Layer 3 (Foreground)
//Storyboard Sound Samples
//Background Colour Transformations
3,100,163,162,255

[TimingPoints]
135,396.8463939891,4,1,1,100,1,0

[Colours]
Combo1 : 183,0,0
Combo2 : 255,0,0
Combo3 : 46,213,28
Combo4 : 0,26,255
Combo5 : 245,216,10

[HitObjects]
136,208,234,6,0,P|136:152|128:144,12,37.5,0|0|0|0|0|0|0|0|0|0|0|0|0,0:0|0:0|0:0|0:0|0:0|0:0|0:0|0:0|0:0|0:0|0:0|0:0|0:0,0:0:0:0:
128,256,1722,2,0,L|208:256,1,75,0|0,0:0|0:0,0:0:0:0:
272,256,2317,2,0,L|352:256,1,75,0|0,0:0|0:0,0:0:0:0:
424,256,2912,2,0,L|504:256,1,75,0|0,0:0|0:0,0:0:0:0:
424,360,4897,2,0,L|424:264,1,75
424,224,5492,2,0,L|424:128,1,75
424,88,6087,2,0,L|424:-8,1,75
40,168,8270,2,0,P|80:240|160:200,1,187.5,0|0,0:0|0:0,0:0:0:0:
208,128,9262,1,0,0:0:0:0:
272,56,9659,2,0,P|360:48|432:48,1,150
384,144,10453,2,0,P|432:224|432:288,2,150,0|0|0,0:0|0:0|0:0,0:0:0:0:
320,56,11643,2,0,P|264:16|160:32,2,150,0|0|0,0:0|0:0|0:0,0:0:0:0:
368,168,12834,2,0,P|368:232|296:240,1,150,0|0,0:0|0:0,0:0:0:0:
256,168,13627,2,0,L|368:72,2,112.5,0|0|0,0:0|0:0|0:0,0:0:0:0:
136,248,14719,2,0,P|200:320|264:336,1,150,0|0,0:0|0:0,0:0:0:0:
328,264,15612,1,0,0:0:0:0:
408,208,16008,1,0,0:0:0:0:
472,152,16405,1,0,0:0:0:0:
424,80,16802,2,0,L|288:16|288:16,2,150,0|0|0,0:0|0:0|0:0,0:0:0:0:
400,184,17993,2,0,P|304:144|240:168,2,150,0|0|0,0:0|0:0|0:0,0:0:0:0:
352,240,19183,2,0,P|272:264|192:232,1,150,0|0,0:0|0:0,0:0:0:0:
136,176,19977,2,0,L|24:176,2,112.5,0|0|0,0:0|0:0|0:0,0:0:0:0:
96,160,26426,6,0,P|104:120|120:128,2,75,0|0|0,0:0|0:0|0:0,0:0:0:0:
128,200,27219,2,0,P|176:208|168:192,2,75,0|0|0,0:0|0:0|0:0,0:0:0:0:
160,160,28013,2,0,P|200:160|184:136,2,75,0|0|0,0:0|0:0|0:0,0:0:0:0:
256,192,28807,12,0,31386,0:0:0:0:
200,296,31783,53,0,0:0:0:0:
304,288,32180,1,0,0:0:0:0:
400,240,32577,1,0,0:0:0:0:
344,96,33767,2,0,P|304:32|136:64,1,262.5,0|0,0:0|0:0,0:0:0:0:
120,176,34759,2,0,P|96:176|40:272,2,150,0|0|0,0:0|0:0|0:0,0:0:0:0:
216,136,35950,2,0,P|256:136|288:152,2,75,0|0|0,0:0|0:0|0:0,0:0:0:0:
120,160,36744,2,0,P|80:160|32:208,2,75,0|0|0,0:0|0:0|0:0,0:0:0:0:
216,184,37537,2,0,P|256:184|288:200,2,75,0|0|0,0:0|0:0|0:0,0:0:0:0:
144,232,38331,1,0,0:0:0:0:
80,280,38728,2,0,P|8:208|56:96,1,225
256,192,39819,12,0,44681,0:0:0:0:
56,80,46466,38,0,P|64:104|112:128,5,75,0|0|0|0|0|0,0:0|0:0|0:0|0:0|0:0|0:0,0:0:0:0:
192,96,47855,1,0,0:0:0:0:
288,144,48252,1,0,0:0:0:0:
400,208,48649,2,0,P|408:160|432:136,2,75,0|0|0,0:0|0:0|0:0,0:0:0:0:
336,200,49443,2,0,P|328:152|328:112,2,75,0|0|0,0:0|0:0|0:0,0:0:0:0:
272,208,50236,2,0,P|248:168|216:136,2,75,0|0|0,0:0|0:0|0:0,0:0:0:0:
320,288,51030,1,0,0:0:0:0:
224,336,51427,2,0,B|176:376|136:392|88:384|40:296,1,225,0|0,0:0|0:0,0:0:0:0:
72,224,52419,53,0,0:0:0:0:
112,144,52816,1,0,0:0:0:0:
184,80,53213,1,0,0:0:0:0:
280,80,53610,1,0,0:0:0:0:
360,136,54006,1,0,0:0:0:0:
384,248,54403,2,0,L|464:312,2,75,0|0|0,0:0|0:0|0:0,0:0:0:0:
296,192,55197,1,0,0:0:0:0:
216,192,55594,2,0,P|144:288|272:288,1,300
376,256,59066,2,0,P|360:144|280:64,1,225
200,24,60058,2,0,L|48:56,2,150,0|0|0,0:0|0:0|0:0,0:0:0:0:
272,72,61249,2,0,P|304:48|304:16,2,75,0|0|0,0:0|0:0|0:0,0:0:0:0:
208,112,62043,2,0,P|168:88|176:56,2,75,0|0|0,0:0|0:0|0:0,0:0:0:0:
264,152,62836,2,0,P|304:104|304:96,2,75,0|0|0,0:0|0:0|0:0,0:0:0:0:
176,240,63630,1,0,0:0:0:0:
64,224,64027,1,0,0:0:0:0:
256,192,65118,12,0,70972,0:0:0:0:
16,184,71765,54,0,P|48:176|96:184,5,75,0|0|0|0|0|0,0:0|0:0|0:0|0:0|0:0|0:0,0:0:0:0:
152,256,73154,1,0,0:0:0:0:
256,304,73551,1,0,0:0:0:0:
352,240,73948,2,0,P|384:208|416:232,2,75,0|0|0,0:0|0:0|0:0,0:0:0:0:
344,272,74742,2,0,P|304:288|264:264,2,75,0|0|0,0:0|0:0|0:0,0:0:0:0:
376,192,75535,2,0,P|376:152|408:48,2,150,0|0|0,0:0|0:0|0:0,0:0:0:0:
328,296,76825,2,0,P|272:312|144:272,1,187.5
96,192,77718,1,0,0:0:0:0:
64,88,78115,1,0,0:0:0:0:
152,16,78512,1,0,0:0:0:0:
272,16,78909,1,0,0:0:0:0:
360,96,79305,1,0,0:0:0:0:
328,192,79702,1,0,0:0:0:0:
256,192,80099,12,0,86250,0:0:0:0:
240,232,87441,6,0,P|192:248|160:216,6,75,0|0|0|0|0|0|0,0:0|0:0|0:0|0:0|0:0|0:0|0:0,0:0:0:0:
