osu file format v13

[General]
AudioFilename: 2g9.mp3
AudioLeadIn: 0
PreviewTime: -1
Countdown: 1
SampleSet: Normal
StackLeniency: 0.7
Mode: 0
LetterboxInBreaks: 1
WidescreenStoryboard: 1

[Editor]
Bookmarks: 1293,69955
DistanceSpacing: 0.8
BeatDivisor: 4
GridSize: 8
TimelineZoom: 1.3

[Metadata]
Title:Gourmet Race (Dj-Jo Remix)
TitleUnicode:Gourmet Race (Dj-Jo Remix)
Artist:Dj-Jo
ArtistUnicode:Dj-Jo
Creator:The_Insane_man
Version:Insane
Source:
Tags:
BeatmapID:526581
BeatmapSetID:225684

[Difficulty]
HPDrainRate:7
CircleSize:4.2
OverallDifficulty:8
ApproachRate:9
SliderMultiplier:1.7
SliderTickRate:2

[Events]
//Background and Video events
0,0,"BG.jpg",0,0
//Break Periods
//Storyboard Layer 0 (Background)
//Storyboard Layer 1 (Fail)
//Storyboard Layer 2 (Pass)
//Storyboard Layer 3 (Foreground)
//Storyboard Sound Samples
//Background Colour Transformations
3,100,0,128,64

[TimingPoints]
3860.08916796038,320.849850363403,4,1,0,100,1,0

[HitObjects]
88,152,1293,6,0,P|124:120|196:84,1,85
236,88,1614,2,0,P|320:72|336:104,1,85
376,112,1934,2,0,P|392:152|380:208,1,85
340,244,2255,2,0,P|308:252|212:216,1,85
260,180,2576,6,0,P|264:148|204:88,1,85,4|0,0:0|0:0,0:0:0:0:
128,124,2897,1,0,0:0:0:0:
200,244,3057,1,0,0:0:0:0:
256,120,3218,1,0,0:0:0:0:
392,112,3378,6,0,P|412:160|384:200,1,85
268,212,3699,2,0,L|360:208,1,85
412,216,4020,2,0,P|448:216|428:280,1,85
320,92,4341,1,2,0:0:0:0:
388,96,4501,1,0,0:0:0:0:
456,92,4662,1,0,0:0:0:0:
384,256,4822,5,0,0:0:0:0:
136,80,4983,2,0,L|124:188,3,85,0|0|0|0,0:0|0:0|0:0|0:0,0:0:0:0:
200,268,5624,2,0,P|280:256|304:228,1,85
260,88,5945,2,0,L|364:92,1,85
456,104,6426,5,0,0:0:0:0:
456,164,6587,1,0,0:0:0:0:
456,224,6747,1,0,0:0:0:0:
460,280,6908,1,0,0:0:0:0:
460,340,7068,1,0,0:0:0:0:
60,336,7389,5,0,0:0:0:0:
64,280,7549,1,0,0:0:0:0:
56,224,7710,1,0,0:0:0:0:
40,168,7870,1,0,0:0:0:0:
52,112,8031,1,0,0:0:0:0:
260,84,8351,6,0,L|260:264,1,170
328,164,8833,2,0,P|416:168|408:204,1,85
196,164,9154,2,0,P|112:168|128:208,1,85
260,84,9474,1,0,0:0:0:0:
260,228,9635,1,0,0:0:0:0:
192,228,9795,2,0,L|116:192,1,85
324,228,10116,2,0,L|400:192,1,85
260,160,10597,5,0,0:0:0:0:
376,44,10918,1,0,0:0:0:0:
116,48,11239,1,0,0:0:0:0:
104,144,11400,1,0,0:0:0:0:
100,240,11560,1,0,0:0:0:0:
192,280,11720,2,0,L|300:248,1,85
344,232,12041,6,4,L|416:164,1,85
424,108,12523,1,0,0:0:0:0:
240,48,12843,1,0,0:0:0:0:
148,116,13004,5,0,0:0:0:0:
88,228,13164,1,0,0:0:0:0:
176,216,13244,1,0,0:0:0:0:
208,208,13325,1,0,0:0:0:0:
240,192,13405,1,0,0:0:0:0:
264,168,13485,1,0,0:0:0:0:
288,144,13565,1,0,0:0:0:0:
336,128,13646,1,0,0:0:0:0:
376,40,13806,1,0,0:0:0:0:
448,32,13966,1,0,0:0:0:0:
392,256,14127,5,0,0:0:0:0:
432,92,14287,1,0,0:0:0:0:
272,124,14448,1,0,0:0:0:0:
372,160,14608,2,0,P|324:196|272:208,1,85
168,272,14929,5,0,0:0:0:0:
48,160,15089,1,0,0:0:0:0:
180,76,15250,1,0,0:0:0:0:
156,160,15410,2,0,B|220:172|272:168|336:136,1,170
420,56,16052,1,0,0:0:0:0:
424,288,16373,1,0,0:0:0:0:
180,312,16694,2,0,L|180:216,1,85
184,152,17014,2,0,P|200:108|240:80,1,85
312,84,17335,2,0,P|356:100|384:160,1,85
392,200,17656,1,0,0:0:0:0:
80,296,17977,1,0,0:0:0:0:
256,40,18298,1,0,0:0:0:0:
428,308,18619,1,0,0:0:0:0:
424,232,18940,2,0,P|404:156|384:128,1,85
188,172,19260,2,0,P|192:228|220:272,1,85
332,92,19581,2,0,P|288:88|248:100,1,85
272,256,19902,2,0,P|320:264|360:240,1,85
428,168,20223,1,0,0:0:0:0:
256,48,20544,1,0,0:0:0:0:
76,176,20865,1,0,0:0:0:0:
256,160,21185,2,0,B|244:220|208:264|156:304,1,170
80,264,21667,1,0,0:0:0:0:
80,232,21747,1,0,0:0:0:0:
80,200,21827,1,0,0:0:0:0:
80,168,21907,1,0,0:0:0:0:
80,136,21988,1,0,0:0:0:0:
152,60,22148,1,0,0:0:0:0:
272,40,22308,1,0,0:0:0:0:
400,48,22469,1,0,0:0:0:0:
440,120,22629,2,0,P|440:192|424:228,1,85
384,260,22950,2,0,P|316:260|272:240,1,85
240,224,23271,5,0,0:0:0:0:
208,200,23351,1,0,0:0:0:0:
184,168,23431,1,0,0:0:0:0:
176,128,23512,1,0,0:0:0:0:
184,88,23592,1,0,0:0:0:0:
208,64,23672,1,0,0:0:0:0:
240,48,23752,1,0,0:0:0:0:
272,40,23832,1,0,0:0:0:0:
312,40,23913,1,0,0:0:0:0:
352,48,23993,1,0,0:0:0:0:
384,64,24073,2,0,P|416:104|416:224,1,170
384,288,24554,1,0,0:0:0:0:
288,296,24715,1,0,0:0:0:0:
200,296,24875,1,0,0:0:0:0:
128,256,25036,1,0,0:0:0:0:
96,184,25196,1,0,0:0:0:0:
112,112,25357,2,0,P|160:72|208:48,1,85
312,168,25677,2,0,P|280:208|224:240,1,85
152,152,25998,2,0,P|184:192|232:200,1,85
288,96,26319,2,0,B|264:72|256:64|192:64,1,85
224,136,26640,1,0,0:0:0:0:
384,56,26800,2,0,P|448:72|480:104,1,85
352,256,27121,2,0,P|304:232|272:184,1,85
224,152,27442,2,0,P|160:136|128:152,1,85
144,304,27763,2,0,P|184:328|240:296,1,85
400,224,28084,1,0,0:0:0:0:
368,120,28244,1,0,0:0:0:0:
296,48,28405,1,0,0:0:0:0:
184,48,28565,1,0,0:0:0:0:
112,88,28645,1,0,0:0:0:0:
104,112,28725,1,0,0:0:0:0:
96,136,28806,1,0,0:0:0:0:
88,160,28886,5,0,0:0:0:0:
80,184,28966,2,0,P|96:224|176:264,1,127.5
256,192,29528,1,0,0:0:0:0:
432,192,29848,2,0,P|424:128|400:88,1,85
112,104,30169,2,0,P|96:168|104:192,1,85
256,192,30490,1,0,0:0:0:0:
256,88,30651,1,0,0:0:0:0:
256,136,30811,1,0,0:0:0:0:
256,248,31132,1,0,0:0:0:0:
256,312,31453,2,0,L|376:272,3,85,0|0|0|0,0:0|0:0|0:0|0:0,0:0:0:0:
408,200,32094,1,0,0:0:0:0:
392,168,32175,1,0,0:0:0:0:
376,144,32255,1,0,0:0:0:0:
360,128,32335,1,0,0:0:0:0:
344,112,32415,1,0,0:0:0:0:
240,48,32576,2,0,P|192:56|144:88,1,85
64,136,32897,1,0,0:0:0:0:
160,256,33057,1,0,0:0:0:0:
256,96,33217,1,0,0:0:0:0:
160,136,33378,2,0,P|224:176|328:216,1,170
448,192,34019,2,0,P|416:240|280:288,1,170
352,64,34661,2,0,P|288:112|208:192,1,170
80,72,35303,1,0,0:0:0:0:
80,272,35624,1,0,0:0:0:0:
360,176,35945,2,0,P|280:144|248:240,1,170
248,256,36426,1,0,0:0:0:0:
304,288,36586,1,0,0:0:0:0:
368,288,36747,1,0,0:0:0:0:
440,232,36907,2,0,P|376:144|288:112,1,170
264,104,37388,1,0,0:0:0:0:
192,88,37549,1,0,0:0:0:0:
128,96,37709,1,0,0:0:0:0:
80,152,37870,2,0,P|104:240|184:296,1,170
232,296,38351,1,0,0:0:0:0:
296,288,38511,1,0,0:0:0:0:
352,264,38672,1,0,0:0:0:0:
400,216,38832,2,0,P|416:144|368:56,1,170
80,56,39474,1,0,0:0:0:0:
