osu file format v5

[General]
AudioFilename: Dj Verstarker - Jump Jump (2008).mp3
AudioLeadIn: 0
PreviewTime: 82861
Countdown: 0
SampleSet: Normal
StackLeniency: 0.3
Mode: 0
LetterboxInBreaks: 1
EditorBookmarks: 163964
EditorDistanceSpacing: 1

[Metadata]
Title:Jump Jump (2008)
Artist:Dj Verstarker
Creator:SeymourLyon
Version:SteRRuM's Jump!
Source:http://streemo.pl/Portal/46397,Artysta,Dj_Verstarker_Muzyka.html
Tags:Verstarker jump jump-jump

[Difficulty]
HPDrainRate:4
CircleSize:5
OverallDifficulty:6
SliderMultiplier:1.3
SliderTickRate:2

[Events]
//Background and Video events
0,0,"techno.jpg"
//Break Periods
2,74578,76845
2,81405,81811
//Storyboard Layer 0 (Background)
//Storyboard Layer 1 (Failing)
//Storyboard Layer 2 (Passing)
//Storyboard Layer 3 (Foreground)
4,3,1,"SteRRuM.png",244,73 M,0,3205,3205,244,73,244,73 F,0,3205,4240,0,1 S,0,3205,3205,0.808,0.808 F,0,4240,5895,1,1 F,0,5895,6930,1,0
//Storyboard Sound Samples
//Background Colour Transformations
3,100,0,0,0

[TimingPoints]
930,413.793103448276,4,1,0,84,1,0
1861,-100,4,1,0,84,0,0
14067,-100,4,1,0,84,0,0
15102,-100,4,1,0,84,0,0
21619,-100,4,1,0,84,0,1
24619,-100,4,1,0,84,0,1
25240,-100,4,1,0,84,0,1
41688,-100,4,1,0,84,0,0
95998,-100,4,1,0,100,0,0
105930,-100,4,1,0,84,0,0
109343,-100,4,1,0,100,0,1
122378,-100,4,1,0,21,0,0

[Colours]
Combo1 : 145,34,255
Combo2 : 19,251,19
Combo3 : 32,32,251
Combo4 : 64,214,225
Combo5 : 239,5,5

[HitObjects]
72,320,929,2,0,B|176:264|176:264|112:120,1,260
176,112,1964,2,0,B|152:48,2,65
240,104,2585,2,0,B|208:16,2,65
304,104,3205,2,0,B|336:32,2,65
272,160,3826,2,0,B|304:240,2,65,0|0|0
336,152,4447,1,0
360,208,4654,1,0
384,264,4861,2,0,B|240:264,1,130
192,264,5481,5,0
128,264,5688,1,0
128,200,5895,1,0
192,200,6102,1,0
192,136,6309,2,0,B|112:136,2,65
192,136,6930,1,0
192,136,7136,2,0,B|280:136,1,65
320,136,7550,2,0,B|432:192|448:224,1,130
432,264,8171,5,0
368,264,8378,1,0
328,312,8585,1,0
280,264,8792,1,0
216,264,8998,2,0,B|136:264,2,65
216,200,9619,1,0
216,200,9826,1,0
216,200,10033,1,0
296,152,10447,5,4
408,152,12516,6,0,B|408:200,4,32.5,0|0|0|0|0
408,216,13136,2,0,B|408:256,2,32.5,0|0|4
408,280,13550,2,4,B|408:360,1,65
408,345,13964,1,4
344,344,14171,2,0,B|272:344|272:344|272:208|272:208|352:208,1,260,0|4
324,208,15205,5,4
324,208,15412,1,4
104,88,16654,5,4
104,88,16861,1,4
104,88,17067,1,4
424,304,18309,6,4,B|496:304,2,65
320,88,19964,5,4
320,88,20171,1,4
320,88,20378,1,4
320,152,20585,2,0,B|320:208,2,32.5
104,296,21619,6,0,B|184:296,1,65,4|0
168,232,22033,2,0,B|96:232,1,65
96,168,22447,2,0,B|168:120,1,65
216,136,22861,2,0,B|296:184,1,65
312,120,23274,2,0,B|248:80,1,65
296,32,23688,2,0,B|360:72,1,65
400,104,24102,2,0,B|304:216,1,130
360,248,24723,2,0,B|264:360,1,130,0|4
275,346,25343,1,4
208,344,25550,5,0
144,344,25757,1,0
104,296,25964,1,0
144,248,26171,1,0
104,200,26378,1,0
144,152,26585,2,4,B|216:152,1,65
272,152,26998,2,4,B|368:152,2,65
400,300,28240,6,0,B|304:300,1,65,0|2
272,300,28654,1,0
208,300,28861,1,2
144,300,29067,1,0
112,244,29274,1,2
176,244,29481,1,0
240,244,29688,1,2
240,244,29895,1,0
240,244,30102,2,0,B|240:156,2,65,2|0|2
304,244,30723,6,0,B|368:204,2,65,0|2|0
304,308,31343,2,0,B|368:348,2,65
240,308,31964,2,0,B|88:308,1,130
112,244,32585,2,0,B|256:244,2,130
112,180,33619,2,0,B|112:100,1,65,0|4
112,115,34033,1,4
176,116,34240,6,0,B|328:116,1,130
306,116,34861,1,0
306,116,35067,1,0
306,116,35274,1,0
312,180,35481,2,0,B|160:180,1,130
182,180,36102,1,0
182,180,36309,1,0
182,180,36516,2,0,B|176:252|280:244,1,130
272,180,37136,2,0,B|266:108|370:116,1,130
424,116,37757,6,0,B|430:188|326:180,1,130,0|0
336,244,38378,1,0
336,308,38585,1,0
272,308,38792,2,0,B|272:396|24:292,1,260,0|0
40,236,39826,1,0
40,172,40033,1,0
40,108,40240,6,0,B|120:108,1,65
168,108,40654,2,0,B|240:108,1,65
296,108,41067,2,2,B|344:108,4,32.5
296,172,41688,6,0,B|440:172,1,130,0|0
424,236,42309,2,0,B|272:236,1,130,0|0
296,300,42930,2,0,B|152:300,1,130
104,300,43550,2,0,B|104:204,1,65
104,172,43964,2,0,B|192:172,1,65
168,108,44378,2,0,B|88:108,1,65
168,108,44792,5,0
232,108,44998,1,0
296,108,45205,2,0,B|448:108,2,130
296,172,46240,5,0
232,172,46447,1,0
168,172,46654,1,2
168,236,46861,2,0,B|312:236,2,130
168,300,47895,6,0,B|320:300,1,130
360,300,48516,2,0,B|360:164,1,130
360,108,49136,1,0
360,108,49343,1,0
296,108,49550,1,0
232,108,49757,1,0
168,108,49964,1,0
104,108,50171,1,0
104,44,50378,2,0,B|248:44,2,130
40,44,51412,6,0,B|40:124,1,65
40,172,51826,2,0,B|40:244,1,65
40,300,52240,2,0,B|40:380,1,65
104,364,52654,2,0,B|104:284,1,65
104,236,53067,2,0,B|104:156,1,65
104,108,53481,2,0,B|104:36,1,65
168,44,53895,2,0,B|168:124,1,65
168,172,54309,2,0,B|168:244,1,65
168,237,54723,1,0
168,300,54930,6,0,B|208:300|280:300|368:284|360:84,1,325
360,36,56171,2,0,B|320:36|248:36|160:52|168:252,1,325
104,236,57412,2,0,B|16:236,1,65
40,300,57826,2,0,B|504:300,1,455
495,300,59481,1,0
496,236,59688,2,0,B|8:236,1,455
40,172,61343,5,0
104,172,61550,1,0
168,172,61757,1,0
232,172,61964,2,0,B|376:172,1,130
360,108,62585,1,0
296,108,62792,1,0
232,108,62998,1,0
168,108,63205,2,0,B|24:108,1,130
40,40,63826,2,0,B|232:40|232:40|232:112,1,260
232,168,64861,6,0,B|432:168,1,195
424,232,65688,1,0
376,280,65895,1,0
328,328,66102,1,0
264,328,66309,2,0,B|152:240,1,130
120,296,66930,2,0,B|16:208,1,130
64,160,67550,2,0,B|112:112,1,65
152,160,67964,6,0,B|240:184,1,65,0|0
264,136,68378,2,0,B|248:56,1,65
312,56,68792,2,0,B|392:88,1,65
384,144,69205,2,0,B|360:224,1,65
432,216,69619,6,0,B|400:304|328:352|240:352|128:344|64:296|72:136,1,520,0|2
71,158,71481,5,0
71,158,71688,2,0,B|72:80,1,65,2|0
136,96,72102,2,0,B|136:192,1,65,2|0
200,160,72516,2,2,B|200:80,1,65
264,96,72930,2,0,B|264:176,1,65,0|2
328,160,73343,2,0,B|328:88,1,65,0|2
392,96,73757,2,0,B|392:168,2,65,0|2|0
392,96,74378,1,6
64,192,77895,6,0,B|120:192,1,32.5
96,160,78102,2,0,B|144:160,1,32.5
128,128,78309,2,0,B|184:128,1,32.5
160,96,78516,2,0,B|216:96,3,32.5
192,64,78930,2,0,B|240:64,1,32.5
224,32,79136,2,0,B|264:32,2,32.5
328,32,79550,6,0,B|352:40|352:40|328:48|328:48|352:56|352:56|328:64|328:64|352:72|352:72|328:80|328:80|352:88|352:88|328:96|328:96|352:104|352:104|328:112|328:112|352:120|352:120|328:128|328:128|352:136|352:136|328:144|328:144|352:152|352:152|328:160|328:160|352:168|352:168|328:176|328:176|352:184|352:184|328:192|328:192|352:200,1,520,0|4
48,40,82861,6,0,B|48:136,1,65
112,104,83274,2,0,B|112:184,1,65
176,168,83688,2,0,B|176:240,1,65
240,232,84102,2,0,B|240:320,1,65
304,296,84516,6,0,B|304:208,1,65
368,232,84930,2,0,B|368:144,1,65
432,168,85343,2,0,B|432:96,1,65
368,96,85757,2,0,B|368:24,1,65
304,32,86171,6,0,B|232:32,1,65
240,96,86585,2,0,B|168:96,1,65
176,160,86998,2,0,B|88:160,1,65
112,224,87412,2,0,B|32:224,1,65
112,224,87826,6,0,B|184:224,1,65
176,288,88240,2,0,B|248:288,1,65
240,352,88654,2,0,B|328:352,1,65
304,288,89067,2,0,B|384:288,1,65
432,288,89481,6,0,B|432:200,1,65,2|0
368,224,89895,2,0,B|368:144,1,65,2|0
304,160,90309,2,0,B|304:88,1,65,2|0
240,96,90723,2,0,B|240:24,1,65,2|0
176,32,91136,6,0,B|272:32,1,65,2|0
240,96,91550,2,0,B|152:96,1,65,2|0
176,160,91964,2,0,B|256:160,1,65,2|0
240,224,92378,2,0,B|160:224,1,65,2|0
240,224,92792,6,0,B|240:296,1,65,2|0
304,288,93205,2,0,B|304:216,1,65,2|0
368,224,93619,2,0,B|368:304,1,65,2|0
432,288,94033,2,0,B|432:208,1,65,2|0
432,223,94447,6,0,B|360:224,1,65
368,160,94861,2,0,B|448:160,1,65
432,96,95274,2,0,B|360:96,1,65
368,32,95688,2,0,B|448:32,1,65
296,32,96102,5,4
232,32,96309,2,0,B|176:32,2,32.5
232,96,96723,2,0,B|192:96,2,32.5
296,96,97136,2,0,B|336:96,2,32.5
296,160,97550,6,0,B|208:160,1,65
232,224,97964,2,0,B|232:264,2,32.5
296,224,98378,2,0,B|296:272,2,32.5
296,160,98792,2,0,B|296:96,2,32.5
232,160,99205,5,0
168,160,99412,1,0
104,160,99619,2,0,B|64:160,2,32.5
104,96,100033,2,0,B|64:96,2,32.5
104,32,100447,2,0,B|64:32,1,32.5
104,32,100654,2,0,B|184:32,1,65,0|0
232,32,101067,5,4
296,32,101274,2,4,B|360:32,2,32.5
296,96,101688,2,4,B|336:96,2,32.5
296,160,102102,2,4,B|296:248,1,65
232,224,102516,5,4
168,224,102723,1,4
104,224,102930,2,4,B|56:224,2,32.5
136,280,103343,2,4,B|136:328,2,32.5
168,224,103757,2,4,B|216:224,2,32.5
136,168,104171,5,4
136,104,104378,1,4
200,104,104585,2,4,B|200:184,1,65
264,168,104998,2,4,B|264:88,1,65
328,104,105412,2,4,B|328:184,1,65
392,168,105826,5,4
392,232,106033,6,0,B|304:232,1,65
264,232,106447,2,0,B|184:232,1,65
200,168,106861,5,0
240,120,107067,1,0
288,72,107274,1,0
336,24,107481,1,0
336,88,107688,1,0
336,152,107895,1,0
336,216,108102,1,0
256,192,108309,12,0,109343
48,192,109550,5,0
112,192,109757,2,0,B|200:192,1,65,2|0
240,192,110171,1,2
240,192,110378,1,0
240,192,110585,2,0,B|320:192,1,65
304,128,110998,6,0,B|224:128,1,65
176,128,111412,1,2
176,128,111619,1,0
112,128,111826,2,0,B|40:128,1,65,2|0
47,128,112240,1,0
47,128,112447,1,0
48,64,112654,6,0,B|48:16,2,32.5,2|0|0
112,64,113067,1,2
112,64,113274,1,0
176,64,113481,2,0,B|272:64,1,65,2|0
304,64,113895,1,2
304,64,114102,1,2
368,64,114309,6,0,B|416:88|416:88|368:112|368:112|416:136|416:136|368:152|368:152|408:176,1,260
408,240,115343,1,0
408,304,115550,1,0
344,304,115757,6,0,B|344:216,1,65,0|2
280,240,116171,2,0,B|280:320,1,65,0|2
216,304,116585,2,0,B|216:224,1,65,0|2
152,240,116998,2,0,B|152:320,1,65,0|2
88,304,117412,5,0
88,240,117619,1,0
152,240,117826,1,0
152,176,118033,1,2
216,176,118240,1,0
216,112,118447,1,2
280,112,118654,1,0
280,48,118861,1,2
344,48,119067,6,0,B|440:48,1,65
408,112,119481,1,0
344,112,119688,1,2
344,176,119895,2,0,B|424:176,1,65,0|2
408,240,120309,1,0
344,240,120516,1,2
344,304,120723,5,0
280,304,120930,1,0
216,304,121136,2,0,B|216:216,1,65,0|2
216,104,121757,2,2,B|216:8,2,65
256,192,122378,12,0,123412
