osu file format v5

[General]
AudioFilename: Dj Verstarker - Jump Jump (2008).mp3
AudioLeadIn: 1985
PreviewTime: 82861
Countdown: 1
SampleSet: Normal
StackLeniency: 0.4
Mode: 0
LetterboxInBreaks: 1
EditorDistanceSpacing: 0.899999976158142

[Metadata]
Title:Jump Jump (2008)
Artist:Dj Verstarker
Creator:SeymourLyon
Version:Jump like CRAZY!!!
Source:http://streemo.pl/Portal/46397,Artysta,Dj_Verstarker_Muzyka.html
Tags:Verstarker jump jump-jump

[Difficulty]
HPDrainRate:6
CircleSize:4
OverallDifficulty:7
SliderMultiplier:1.8
SliderTickRate:2

[Events]
//Background and Video events
0,0,"techno.jpg"
//Break Periods
2,74577,81810
2,102094,108442
//Storyboard Layer 0 (Background)
//Storyboard Layer 1 (Failing)
//Storyboard Layer 2 (Passing)
//Storyboard Layer 3 (Foreground)
4,3,1,"Seymour.png",320,240 M,0,1861,1861,220,242,220,242 F,0,1861,2895,0,1 S,0,1861,1861,0.7823999,0.7823999 F,0,2895,4343,1,1 F,0,4343,5171,1,0
//Storyboard Sound Samples
//Background Colour Transformations
3,100,0,0,0

[TimingPoints]
930,413.793103448276,4,1,1,84,1,0
21619,-50,4,1,1,84,0,0
28239,-50,4,1,1,84,0,1
28292,-50,4,1,1,100,0,0
41274,-50,4,1,1,100,0,1
41480,-50,4,1,1,100,0,0
82860,-100,4,1,1,84,0,0
109342,-50,4,1,1,84,0,1
109395,-50,4,1,1,100,0,0
135824,-100,4,1,1,84,0,0

[Colours]
Combo1 : 145,34,255
Combo2 : 19,251,19
Combo3 : 32,32,251
Combo4 : 64,214,225
Combo5 : 239,5,5

[HitObjects]
48,296,929,2,2,B|432:296,1,360
408,216,1964,5,0
408,136,2171,2,0,B|408:40,2,90
408,216,2792,1,0
328,216,2998,1,0
328,136,3205,6,0,B|328:32,2,90
248,136,3826,2,0,B|248:40,2,90
248,216,4447,1,0
168,216,4653,1,0
168,136,4860,6,0,B|168:32,2,90
168,46,5481,1,0
88,48,5688,2,0,B|88:144,1,90
88,216,6102,2,0,B|88:312,1,90
168,312,6516,6,0,B|264:312,1,90
256,232,6930,1,0
176,232,7136,1,0
256,232,7343,1,4
416,232,7757,5,4
416,72,8171,1,4
416,152,8378,6,0,B|320:152,1,90
320,72,8792,2,0,B|224:72,1,90
232,152,9205,2,0,B|136:152,1,90
144,72,9619,1,0
64,72,9826,1,0
64,152,10033,6,0,B|136:224,1,90
64,264,10447,2,0,B|136:336,1,90
208,328,10861,2,0,B|280:256,1,90
208,216,11274,2,0,B|280:144,1,90
208,88,11688,1,4
440,312,12516,5,0
360,312,12723,1,0
280,312,12930,1,0
200,312,13136,1,8
160,312,13240,1,8
120,312,13343,1,8
40,312,13550,2,0,B|40:216,1,90
120,224,13964,1,0
80,152,14171,6,0,B|256:80|464:160,1,360,0|4
80,152,15412,1,4
480,352,16654,5,4
32,32,17067,1,4
32,352,18309,5,4
256,192,18516,1,4
480,352,18723,1,4
32,32,19964,5,4
256,192,20171,1,4
480,32,20378,1,4
256,192,20585,1,4
256,152,20688,1,4
256,112,20791,1,4
76,312,21619,6,8,B|460:312,1,360,0|0
76,72,23274,6,8,B|460:72,1,360
464,192,24929,5,8
256,192,25136,1,8
48,192,25343,1,8
408,80,26584,5,8
408,224,26791,1,8
264,224,26998,1,8
264,80,27205,1,4
192,80,27308,1,4
120,80,27412,1,4
56,328,28239,6,0,B|-8:240|72:144,1,180
200,160,28653,2,0,B|264:248|200:344,1,180
128,208,29067,1,0
128,64,29274,2,0,B|216:16|320:72,1,180
304,208,29687,1,0
392,320,29894,6,0,B|464:232|376:128,1,180,2|0
295,48,30308,2,0,B|373:117|461:45,1,180,2|0
488,192,30722,1,2
344,192,30929,2,0,B|256:120|152:208,1,180,0|2
32,192,31343,1,0
144,280,31550,6,0,B|216:192|128:88,1,180,0|0
288,112,31963,2,0,B|216:200|304:304,1,180
432,280,32377,2,0,B|504:192|416:88,1,180
288,112,32791,2,0,B|200:40|96:128,1,180
232,200,33205,2,0,B|320:272|424:184,1,180,0|2
440,64,33619,5,0
440,64,33825,1,2
304,320,34239,1,2
160,320,34446,1,2
64,208,34653,1,2
152,88,34860,6,0,B|230:20|318:92,1,180
192,168,35274,2,0,B|277:238|354:169,1,180
440,56,35687,2,0,B|509:134|437:222,1,180
328,312,36101,1,0
184,312,36308,1,0
80,208,36515,6,0,B|11:130|83:42,1,180,2|0
192,136,36929,1,2
304,48,37136,2,0,B|373:126|301:214,1,180,0|2
160,216,37550,1,0
280,144,37756,6,0,B|349:222|277:310,2,180,2|0|0
160,64,38377,1,0
72,176,38584,1,0
152,296,38791,1,0
296,296,38998,2,0,B|374:227|462:299,1,180
456,152,39412,2,0,B|372:83|294:152,1,180
152,184,39825,5,2
200,48,40032,1,0
56,48,40239,1,2
464,336,40653,1,2
48,336,41274,5,0
48,336,41377,1,0
48,336,41481,1,0
192,328,41687,2,0,B|56:192,1,180
168,104,42101,2,0,B|304:240,1,180,0|0
400,328,42515,2,0,B|400:144,1,180
256,128,42929,6,0,B|112:272,1,180,2|0
56,128,43343,1,2
176,48,43550,1,0
320,48,43756,1,2
432,136,43963,1,0
472,272,44170,1,2
352,344,44377,1,0
224,272,44584,5,0
224,272,44687,1,0
224,272,44791,1,0
288,144,44998,1,0
144,136,45205,2,0,B|16:272,2,180
264,56,45825,2,0,B|448:56,2,180
344,176,46446,1,0
264,296,46652,6,0,B|264:120|64:120|64:320,2,360,2|2|2
408,296,47687,1,0
440,152,47894,2,0,B|440:40|320:40,1,180
184,40,48308,2,0,B|72:40|72:160,1,180
72,296,48722,2,0,B|184:296|184:176,1,180
328,184,49136,2,0,B|328:296|448:296,1,180
328,80,49550,6,0,B|248:-16|168:96,1,180,2|0
432,264,49963,2,0,B|528:184|416:104,1,180,2|0
184,304,50377,2,0,B|264:400|344:288,1,180,2|0
80,120,50791,2,0,B|-16:200|96:280,1,180,2|0
472,40,51412,5,0
40,344,51825,1,0
472,344,52239,1,0
40,40,52653,1,0
168,40,52860,1,0
168,344,53274,1,0
472,192,53687,1,0
40,192,54101,1,0
256,192,54515,1,4
336,270,54722,6,0,B|416:192|336:112,1,180
176,271,55136,2,0,B|255:351|335:271,1,180
176,112,55550,2,0,B|97:191|177:271,1,180
335,111,55963,2,0,B|257:32|177:112,1,180
338,270,56377,2,0,B|416:191|337:113,1,180,2|0
176,272,56790,2,0,B|255:351|333:273,1,180,2|0
176,112,57204,2,0,B|97:191|176:269,1,180,2|0
176,111,57618,2,0,B|254:191|333:112,1,180
337,113,58033,1,0
208,48,58239,6,0,B|130:127|51:47,1,180
48,192,58653,1,0
48,336,58860,2,0,B|126:257|205:337,1,180
192,192,59274,2,0,B|328:328,1,180
192,192,59687,2,0,B|376:192,1,180,0|2
192,192,60101,2,0,B|328:56,1,180,0|2
408,336,60722,5,0
112,336,60929,1,0
256,336,61136,1,0
256,192,61343,1,8
256,192,61446,1,8
256,192,61550,1,8
400,192,61756,2,0,B|264:56,1,180
136,104,62169,2,0,B|136:296,1,180
272,320,62583,2,0,B|408:184,1,180
392,48,62998,6,0,B|208:48,1,180,2|0
64,48,63412,2,0,B|64:232,1,180,2|0
208,232,63825,2,0,B|392:232,1,180,2|0
464,112,64239,2,0,B|464:304,1,180,2|0
320,328,64653,6,0,B|136:328,1,180
64,200,65067,1,0
144,80,65274,2,0,B|232:24|336:96,1,180,0|0
200,176,65687,1,0
344,176,65894,1,0
272,296,66101,1,0
128,296,66308,1,0
272,296,66515,1,2
432,56,66929,5,2
144,56,67343,1,2
288,56,67550,1,2
400,144,67756,2,0,B|400:328,2,180
112,144,68584,2,0,B|112:328,2,180
400,144,69412,2,0,B|328:248|240:128,2,180,2|0|2
104,144,70239,2,0,B|176:48|256:152,2,180,2|0|2
40,344,71274,5,0
472,40,71687,1,0
40,40,72101,1,0
472,344,72515,1,0
344,344,72722,1,0
344,40,73136,1,0
40,192,73549,1,0
472,192,73963,1,0
256,192,74377,1,4
72,304,82860,5,0
344,304,83273,2,0,B|160:304,1,180
432,304,84101,1,0
432,80,84515,5,0
164,80,84930,2,0,B|344:80,1,180
72,80,85756,1,0
344,80,86170,5,0
344,352,86584,2,0,B|344:168,1,180
144,352,87411,1,0
144,80,87825,6,0,B|144:264,1,180
408,192,88653,1,0
136,192,89066,2,0,B|328:192,1,180,0|2
256,72,89687,5,0
120,72,89894,1,2
56,192,90101,1,0
120,312,90308,1,2
256,312,90515,1,0
312,192,90722,2,0,B|408:192,1,90,2|0
336,72,91135,5,2
200,72,91342,1,0
136,192,91549,1,2
200,312,91756,1,0
336,312,91963,1,2
400,192,92170,2,0,B|304:192,2,90,0|2|0
336,312,92791,5,2
200,312,92998,1,0
136,192,93205,1,2
200,72,93412,1,0
336,72,93619,1,2
400,192,93825,2,0,B|304:192,2,90,0|2|0
280,264,94446,5,0
280,128,94653,1,0
160,192,94860,1,2
392,56,95273,5,0
392,192,95480,1,0
392,328,95687,1,0
392,192,95894,1,0
120,192,96101,5,0
256,192,96308,1,4
256,192,96411,1,4
256,192,96515,1,4
256,56,97756,5,0
256,192,97963,1,4
256,192,98066,1,4
256,192,98170,1,4
392,192,99411,5,0
256,192,99618,1,4
256,192,99722,1,4
256,192,99825,1,4
256,328,101066,5,0
256,192,101273,1,0
256,192,101377,1,0
256,192,101480,1,0
256,192,101687,1,4
256,192,101791,1,4
256,192,101894,1,4
64,192,109342,5,0
160,296,109548,1,0
232,296,109652,1,0
304,296,109755,1,2
240,168,109962,1,0
312,168,110066,1,0
384,168,110169,1,2
312,40,110376,6,0,B|128:40,2,180,0|2|0
456,40,110997,1,0
456,184,111204,1,0
456,256,111307,1,0
456,328,111410,1,2
328,264,111617,1,0
272,216,111721,1,0
224,160,111824,2,0,B|88:24,2,180,2|0|2
192,296,112445,6,0,B|56:160,1,180
168,72,112859,1,0
240,72,112962,1,0
312,72,113066,1,2
464,312,113479,1,0
320,312,113686,1,2
320,168,113893,1,0
464,168,114100,1,2
336,240,114307,5,0
192,240,114514,1,0
120,240,114617,1,0
48,240,114721,1,2
256,40,115135,1,2
368,128,115342,1,0
256,216,115548,1,2
144,128,115755,1,0
72,256,115962,5,0
184,344,116169,1,0
184,344,116273,1,0
184,344,116376,1,2
328,344,116583,1,0
328,344,116686,1,0
328,344,116790,1,2
472,344,116997,2,0,B|472:160,1,180
376,56,117410,1,0
376,200,117617,5,2
232,200,117824,1,0
232,200,117928,1,0
232,200,118031,1,2
104,128,118238,1,0
104,128,118342,1,0
104,128,118445,1,2
232,56,118652,2,0,B|48:56,2,180
376,56,119273,5,0
376,200,119479,1,0
376,272,119583,1,0
376,344,119686,1,2
88,344,120100,1,2
208,264,120307,1,0
208,120,120514,1,2
88,40,120721,1,0
88,192,120928,5,0
232,192,121135,1,0
232,192,121238,1,0
232,192,121342,1,2
472,344,121755,2,2,B|472:160,1,180
392,40,122169,2,2,B|392:224,1,180
280,312,122583,5,0
136,312,122790,1,0
280,312,122997,1,0
152,240,123204,1,0
296,240,123410,1,4
328,96,123617,5,0
184,96,123824,1,4
312,168,124031,1,0
168,168,124238,1,0
208,304,124445,6,0,B|256:104,1,180
88,40,125066,5,4
88,40,125169,1,0
88,40,125273,1,0
88,184,125479,1,4
88,184,125583,1,0
88,184,125686,1,0
232,184,125893,1,0
232,40,126100,1,0
376,40,126307,1,0
376,328,126721,5,4
376,328,126824,1,0
376,328,126928,1,0
376,184,127135,1,4
376,184,127238,1,0
376,184,127342,1,0
256,256,127548,2,0,B|178:335|99:255,1,180
96,112,127962,2,0,B|174:33|253:113,1,180
376,184,128376,5,0
376,184,128479,1,0
376,184,128583,1,4
472,72,128790,2,0,B|394:-7|316:72,1,180
232,192,129204,5,2
160,192,129307,1,0
88,192,129410,1,0
88,336,129617,1,2
368,336,130031,5,2
368,336,130135,1,0
368,336,130238,1,0
368,48,130445,1,2
368,48,130549,1,0
368,48,130652,1,0
224,48,130859,5,2
224,192,131066,1,0
224,336,131273,1,2
368,48,131686,5,2
368,48,131790,1,0
368,48,131893,1,0
368,336,132100,1,2
368,336,132204,1,0
368,336,132307,1,0
224,336,132514,5,0
80,336,132721,1,0
80,264,132824,1,0
80,192,132928,1,0
368,192,133342,6,0,B|184:192,1,180,2|0
184,48,133755,2,0,B|376:48,1,180,2|0
256,144,134169,1,0
256,288,134376,1,0
256,288,134479,1,0
256,288,134583,1,0
256,80,134997,5,2
144,184,135204,1,0
256,288,135410,1,2
360,184,135617,1,0
256,184,135824,5,0
200,232,136030,1,0
144,280,136237,1,0
88,232,136444,1,0
40,176,136651,1,2
88,120,136858,1,0
144,72,137065,1,2
200,120,137272,1,0
296,224,137479,5,0
352,272,137686,1,0
408,224,137892,1,0
456,168,138099,1,0
400,120,138306,1,2
344,72,138513,1,0
296,120,138720,1,2
200,232,138927,5,0
144,280,139134,1,0
88,232,139341,1,0
40,176,139548,1,0
88,120,139755,1,0
144,72,139962,1,2
200,120,140169,1,0
248,176,140375,2,0,B|344:176,1,90,2|0
408,176,140789,5,0
408,176,140996,1,0
408,176,141099,1,0
408,176,141203,1,2
320,64,141617,6,0,B|320:176,1,90,2|0
320,224,142030,2,0,B|320:328,1,90,2|0
248,328,142444,1,0
168,328,142651,2,0,B|168:232,1,90,0|2
248,240,143065,1,0
248,160,143272,6,0,B|152:160,1,90,2|0
72,160,143686,1,2
72,200,143789,1,0
72,240,143892,1,0
72,320,144099,1,0
72,240,144306,1,0
152,240,144513,1,0
152,160,144720,1,0
152,80,144927,5,2
112,80,145030,1,0
72,80,145134,1,0
152,80,145341,1,2
232,80,145548,2,0,B|328:80,1,90
320,160,145961,5,0
280,160,146065,1,0
240,160,146168,1,2
240,240,146375,1,0
280,240,146479,1,0
320,240,146582,1,2
320,320,146789,1,0
280,320,146892,1,0
240,320,146996,1,2
184,56,147410,5,0
256,56,147617,1,0
328,56,147824,1,2
328,128,148030,1,0
328,128,148134,1,0
328,128,148237,1,0
328,200,148444,1,2
328,272,148651,1,0
288,328,148858,1,0
216,336,149065,2,4,B|136:312|136:232|224:216,1,180
256,192,149686,12,4,150720
256,192,151134,5,4
256,192,151341,12,4,152375
256,192,152582,5,4
256,192,152789,1,4
256,192,152996,12,4,154030
256,192,154237,5,4
256,192,154444,1,4
256,192,154651,1,4
256,192,154755,1,4
256,192,154858,1,4
256,192,155065,12,0,162306
