osu file format v5

[General]
AudioFilename: Dj Verstarker - Jump Jump (2008).mp3
AudioLeadIn: 1996
PreviewTime: 82861
Countdown: 1
SampleSet: Normal
StackLeniency: 0.4
Mode: 0
LetterboxInBreaks: 1
EditorDistanceSpacing: 1

[Metadata]
Title:Jump Jump (2008)
Artist:Dj Verstarker
Creator:SeymourLyon
Version:Jump!
Source:http://streemo.pl/Portal/46397,Artysta,Dj_Verstarker_Muzyka.html
Tags:Verstarker jump jump-jump

[Difficulty]
HPDrainRate:6
CircleSize:4
OverallDifficulty:6
SliderMultiplier:1
SliderTickRate:1

[Events]
//Background and Video events
0,0,"techno.jpg"
//Break Periods
2,74577,81810
2,106646,108292
//Storyboard Layer 0 (Background)
//Storyboard Layer 1 (Failing)
//Storyboard Layer 2 (Passing)
//Storyboard Layer 3 (Foreground)
4,3,1,"Seymour.png",320,240 M,0,2378,2378,252,222,252,222 F,0,2378,3412,0,1 S,0,2378,2378,0.8080002,0.8080002 F,0,3412,3516,1,1 F,0,3516,5067,1,1 F,0,5067,6102,1,0
//Storyboard Sound Samples
//Background Colour Transformations
3,100,0,0,0

[TimingPoints]
930,413.793103448276,4,1,0,68,1,0
21619,-50,4,1,0,68,0,0
28239,-50,4,1,0,100,0,1
51204,-50,4,1,0,100,0,0
68376,-50,4,1,0,100,0,0
82860,-100,4,1,0,68,0,0
109342,-50,4,1,0,68,0,1
121342,-50,4,1,0,100,0,0

[Colours]
Combo1 : 145,34,255
Combo2 : 19,251,19
Combo3 : 32,32,251
Combo4 : 64,214,225
Combo5 : 239,5,5

[HitObjects]
80,304,1757,2,0,B|192:304,1,100
256,304,2585,2,0,B|368:304,1,100
432,304,3412,1,0
432,224,3826,1,0
432,144,4240,1,0
432,64,4654,1,0
352,64,5067,6,0,B|240:64,1,100
168,64,5895,2,0,B|56:64,1,100
72,144,6723,2,0,B|72:224,1,50
152,192,7343,1,2
232,192,7757,1,4
272,192,7964,1,4
312,192,8171,1,4
352,192,8378,1,4
352,272,8792,6,0,B|232:272,1,100
208,272,9412,1,0
168,272,9619,2,0,B|48:272,1,100
72,232,10240,1,0
72,192,10447,1,0
72,152,10654,2,0,B|152:72,1,100
184,80,11274,1,0
224,80,11481,1,0
264,80,11688,1,0
424,296,12516,5,0
384,296,12723,1,0
344,296,12930,1,0
304,296,13136,1,4
280,296,13240,1,4
256,296,13343,1,4
216,296,13550,1,0
176,296,13757,1,0
136,296,13964,1,0
96,296,14171,6,0,B|96:88,1,200,0|4
96,96,15412,1,4
176,96,15826,2,0,B|392:96,1,200,0|4
376,96,17067,1,4
296,96,17481,6,0,B|296:312,1,200,0|4
296,296,18516,1,4
296,296,18723,2,0,B|80:80,1,300,4|0
83,83,20171,1,0
83,83,20378,1,0
83,83,20584,1,0
83,83,20688,1,0
83,83,20792,1,4
400,88,21619,6,8,B|400:296,1,200
120,88,23274,6,8,B|120:296,1,200,8|8
256,80,24929,6,8,B|256:184,1,100
256,180,25343,1,12
304,320,26584,6,0,B|200:320,4,100
96,72,28239,5,0
96,152,28446,1,0
96,232,28653,1,0
96,312,28860,2,0,B|216:312,1,100
200,232,29274,5,0
200,152,29481,1,0
200,72,29687,2,0,B|312:72,1,100,0|4
304,152,30101,5,2
304,232,30308,1,4
304,312,30515,2,0,B|408:312,1,100,2|4
400,232,30929,5,2
400,152,31136,1,0
400,72,31343,2,0,B|296:72,1,100,2|0
216,72,31756,6,0,B|136:144,1,100
88,200,32170,2,0,B|168:280,1,100
216,208,32584,1,0
272,152,32791,2,0,B|344:224,1,100,0|2
288,280,33205,1,4
208,280,33412,2,8,B|96:280,2,100
368,280,34239,5,8
288,280,34446,1,8
288,200,34653,1,8
368,200,34860,2,0,B|368:96,1,100
288,112,35274,2,0,B|288:8,1,100
368,16,35687,2,0,B|472:16,1,100
472,96,36101,6,0,B|472:208,1,100
472,272,36515,2,0,B|352:272,1,100,0|2
368,192,36929,2,0,B|264:192,1,100,0|2
272,272,37343,1,0
192,272,37550,1,2
192,192,37756,2,0,B|72:192,2,100,0|2|0
272,192,38377,2,0,B|352:272,1,100
424,264,38791,1,0
424,344,38998,6,0,B|320:344,1,100
320,264,39412,2,0,B|208:264,1,100
224,344,39825,1,0
144,344,40032,2,0,B|56:256,1,100,0|4
368,40,40653,6,0,B|456:128,1,100,4|0
438,110,41067,1,0
440,192,41274,1,0
440,192,41377,1,0
440,192,41481,1,0
360,192,41687,1,2
280,192,41894,6,0,B|176:192,1,100,4|2
96,192,42308,2,0,B|8:104,1,100,4|2
80,64,42722,2,4,B|160:144,1,100,4|2
232,136,43136,2,0,B|232:32,1,100,4|2
312,40,43550,2,0,B|312:152,1,100,4|2
392,152,43963,2,4,B|472:232,1,100,4|2
408,280,44377,2,0,B|336:208,1,100
256,208,44791,5,0
176,208,44998,1,0
96,208,45205,1,0
96,288,45412,1,0
176,288,45619,1,0
176,208,45825,1,0
176,128,46032,6,0,B|176:24,2,100
176,208,46653,1,0
176,288,46860,1,0
96,288,47067,1,2
96,208,47274,1,0
176,208,47481,1,0
256,208,47687,5,0
336,208,47894,1,0
416,208,48101,1,0
416,128,48308,1,0
336,128,48515,1,0
336,208,48722,1,0
336,288,48929,5,0
416,288,49136,1,0
336,288,49343,2,0,B|232:288,2,100
336,208,49963,2,0,B|224:208,1,100
232,128,50377,2,0,B|344:128,1,100
408,128,50791,2,0,B|408:232,2,100
408,48,51412,5,4
104,48,51825,5,4
104,336,52239,5,4
408,336,52653,5,4
408,336,52860,1,4
336,192,53274,5,4
176,192,53687,5,4
256,328,54101,5,4
256,168,54515,6,0,B|256:56,1,100
176,72,54929,2,0,B|64:72,1,100
72,152,55343,2,0,B|72:272,1,100
72,328,55756,2,0,B|184:328,1,100
248,328,56170,2,0,B|248:224,2,100,2|0|2
328,328,56791,6,0,B|432:328,1,100,4|2
424,248,57205,2,0,B|424:136,1,100,4|2
344,152,57619,2,0,B|344:48,2,100,4|2|4
344,232,58239,1,2
264,232,58446,2,0,B|152:232,2,100,0|2|0
264,152,59067,5,2
264,72,59274,2,0,B|368:72,2,100,0|2|0
184,72,59894,1,2
104,72,60101,1,0
104,152,60308,2,0,B|104:256,1,100,2|0
184,256,60722,2,0,B|184:360,2,100,2|0|2
264,256,61343,5,0
264,176,61550,1,0
184,176,61756,2,0,B|184:72,1,100
264,80,62170,1,0
344,80,62377,1,0
344,160,62584,2,0,B|344:264,1,100
424,264,62998,5,0
424,344,63205,1,0
344,344,63412,2,0,B|232:344,1,100
240,264,63825,2,0,B|344:264,1,100
336,184,64239,2,0,B|232:184,2,100
336,104,64860,2,0,B|232:104,1,100,2|0
232,24,65274,5,2
312,24,65481,2,0,B|416:24,1,100,0|2
416,104,65894,1,0
416,184,66101,2,0,B|416:296,1,100,2|0
336,288,66515,1,2
336,208,66722,2,0,B|336:104,1,100,0|2
176,104,67343,5,4
256,104,67550,1,4
256,184,67756,2,4,B|152:184,1,100
336,184,68377,1,4
256,184,69412,6,4,B|360:184,1,100
176,184,70033,1,4
104,336,71274,5,4
408,336,71687,5,4
408,48,72101,5,4
104,48,72515,5,4
104,48,72722,1,4
176,192,73136,5,4
336,192,73549,5,4
256,56,73963,5,4
256,240,74377,5,4
120,192,82860,5,0
208,192,83274,1,2
296,192,83687,1,0
384,192,84101,1,2
400,280,84515,6,0,B|296:280,1,100,0|2
208,280,85343,2,0,B|104:280,1,100,0|2
104,232,85963,5,0
104,184,86170,1,4
104,136,86377,1,0
104,88,86584,6,0,B|216:88,1,100,2|0
248,88,87204,1,0
296,88,87411,2,0,B|408:88,1,100,2|0
408,176,88239,6,0,B|408:280,1,100,2|0
320,280,89066,1,0
320,192,89480,5,2
320,144,89687,1,0
320,96,89894,1,2
232,96,90307,5,2
232,144,90514,1,0
232,192,90721,1,2
232,280,91135,5,2
184,280,91342,1,0
136,280,91549,1,2
88,280,91756,1,0
88,232,91963,1,2
88,184,92170,1,0
88,136,92377,1,2
88,88,92584,1,0
136,88,92791,6,8,B|248:88,1,100
328,88,93618,6,8,B|328:192,1,100
328,280,94446,5,8
280,280,94653,1,0
232,280,94859,1,8
152,280,95273,5,8
96,280,95480,1,4
96,280,95584,1,4
96,280,95687,1,4
96,176,96101,5,0
168,176,96308,1,4
168,176,96411,1,4
168,176,96515,1,4
304,176,96928,1,4
416,296,97756,5,0
344,296,97963,1,4
344,296,98066,1,4
344,296,98170,1,4
200,296,98584,1,4
256,192,99411,6,4,B|256:128,2,50
408,88,101066,6,0,B|408:152,1,50
408,208,101480,1,0
336,208,101687,1,4
336,208,101790,1,4
336,208,101894,1,4
256,192,102722,12,4,106032
256,192,106446,5,4
72,192,109342,5,0
160,192,109548,1,0
160,192,109652,1,0
160,192,109755,1,0
248,192,109962,2,0,B|352:192,2,100
348,192,110583,2,0,B|464:192,1,100
448,104,110997,6,0,B|344:104,1,100
348,104,111307,1,0
348,104,111411,1,0
168,104,111824,2,0,B|44:104,1,100
68,104,112135,1,0
68,104,112238,1,0
64,280,112652,6,0,B|168:280,1,100
164,280,112962,1,0
164,280,113066,1,0
348,280,113479,2,0,B|448:280,1,100
448,280,113789,1,0
448,280,113893,1,0
448,96,114307,6,0,B|448:200,1,100
360,200,114721,2,0,B|360:96,1,100
272,104,115135,2,0,B|272:216,1,100
184,208,115548,2,0,B|184:96,1,100
96,112,115962,2,0,B|96:216,1,100,2|0
96,212,116273,1,0
96,212,116376,1,0
96,304,116583,6,0,B|208:304,1,100,2|0
288,304,116997,2,0,B|416:304,2,100,2|0|2
388,304,117617,1,0
384,216,117824,1,2
384,216,117928,1,0
384,216,118031,1,0
296,216,118238,6,0,B|296:112,1,100,2|0
384,120,118652,2,0,B|488:120,2,100,2|0|2
296,120,119273,2,0,B|192:120,1,100,0|2
196,120,119583,1,0
196,120,119686,1,0
192,32,119893,1,2
104,32,120100,6,0,B|104:136,1,100,0|2
104,224,120514,2,0,B|216:224,1,100,0|2
296,224,120928,2,0,B|400:224,1,100,0|2
396,224,121238,1,0
396,224,121342,1,0
216,224,121755,5,0
216,136,121962,1,2
304,136,122169,2,0,B|304:344,2,200,8|0|8
304,48,123410,6,0,B|96:48,1,200,0|8
104,136,124238,6,0,B|104:352,1,200,0|8
192,336,125066,6,0,B|400:336,1,200,0|8
392,248,125893,6,0,B|392:40,1,200,0|8
208,56,126721,6,0,B|88:56,3,100,0|2|0|2
112,144,127548,1,0
112,232,127755,1,2
112,232,127859,1,0
112,232,127962,1,0
112,320,128169,1,2
200,320,128376,5,0
200,232,128583,1,2
288,232,128790,1,0
288,320,128997,1,2
376,320,129204,1,0
376,232,129411,1,2
376,232,129514,1,0
376,232,129617,1,0
80,72,130031,6,0,B|296:72,1,200
456,72,130859,1,0
368,72,131066,1,0
368,72,131169,1,0
368,72,131273,1,0
432,312,131686,6,0,B|216:312,1,200
56,312,132514,1,0
144,312,132721,1,0
144,312,132824,1,0
144,312,132928,1,0
208,136,133342,6,2,B|208:248,1,100
296,240,133755,2,2,B|296:120,1,100
384,136,134169,1,0
384,224,134376,1,0
384,224,134479,1,0
384,224,134583,1,0
256,352,134997,5,2
256,264,135204,1,2
256,176,135410,1,2
256,88,135617,1,2
184,32,135824,6,0,B|184:360,2,300,4|0|4
328,32,137479,6,0,B|328:360,2,300,4|0|4
256,200,139135,6,4,B|256:88,2,100
144,336,139962,6,0,B|24:336,3,100,0|2|0|2
144,336,140790,1,0
232,336,140997,1,0
232,336,141100,1,0
232,336,141204,1,2
208,160,141617,5,12
304,160,141824,1,12
304,248,142031,1,12
208,248,142238,1,12
440,320,143273,5,12
440,232,143480,1,12
440,144,143686,1,12
440,56,143893,1,12
72,320,144928,5,12
72,232,145135,1,12
72,144,145341,1,12
72,56,145548,1,12
256,192,146169,12,4,149066
