osu file format v7

[General]
AudioFilename: DJ VERSTARKER-Darkness.mp3
AudioLeadIn: 0
PreviewTime: 153831
Countdown: 0
SampleSet: Normal
StackLeniency: 0.8
Mode: 0
LetterboxInBreaks: 1

[Editor]
DistanceSpacing: 0.800000011920929
BeatDivisor: 4
GridSize: 8

[Metadata]
Title:Darkness
Artist:Dj Verstarker
Creator:adron zhero
Version:Insane Style
Source:
Tags:Techno Hard Style

[Difficulty]
HPDrainRate:6
CircleSize:5
OverallDifficulty:7
SliderMultiplier:1.4
SliderTickRate:1

[Events]
//Background and Video events
0,0,"Divine_Darkness-436213.jpg"
//Break Periods
2,49826,50326
2,139420,149519
//Storyboard Layer 0 (Background)
//Storyboard Layer 1 (Fail)
//Storyboard Layer 2 (Pass)
//Storyboard Layer 3 (Foreground)
//Storyboard Sound Samples
//Background Colour Transformations
3,100,163,162,255

[TimingPoints]
30,399.973335110993,4,2,0,51,1,0
51017,-50,4,1,0,41,0,0
77441,-50,4,2,0,51,0,0
81341,-50,4,1,0,51,0,0
111812,-50,4,1,0,0,0,0
113222,-50,4,1,0,61,0,0
150379,-50,4,1,0,49,0,0
152331,-50,4,1,0,51,0,0

[Colours]
Combo1 : 172,172,172
Combo2 : 70,70,70

[HitObjects]
88,192,25628,2,0,C|128:192,28,35
424,192,28828,6,0,C|376:192,28,35
256,344,32027,6,0,C|256:296,28,35
256,40,35227,6,0,C|256:88,28,35
256,192,38427,5,4
256,192,39527,5,2
200,192,39727,1,2
144,192,39927,1,2
144,192,40027,1,4
256,192,41627,12,0,43227
256,192,44827,5,4
256,192,45926,5,2
312,192,46126,1,2
368,192,46326,1,2
368,192,46426,1,4
256,192,48026,12,0,49626
56,72,51226,5,8
280,72,51626,1,8
152,256,52026,1,8
376,256,52426,1,8
152,256,52826,2,8,C|232:256|192:200|240:128|144:120,1,280
376,256,53626,1,8
456,48,54026,1,8
344,48,54226,1,8
232,48,54426,1,8
408,184,54826,6,8,C|328:184|360:248|328:328|384:304,1,280
136,280,55626,1,8
64,64,56026,1,8
288,96,56426,2,8,C|208:136|336:160|256:208,1,280
88,280,57226,1,8
192,320,57426,1,8
296,280,57626,1,8
144,112,58026,5,8
368,72,58426,2,8,C|432:136|320:176|400:216,1,280
152,256,59226,2,8,C|160:128|96:120|40:240,1,280
256,72,60026,1,8
432,208,60425,1,8
344,280,60625,1,8
248,216,60825,1,8
40,128,61225,5,8
248,56,61625,2,8,C|168:96|224:152|128:200,1,280
352,192,62425,1,8
160,312,62825,2,8,C|256:296|168:256|296:240,1,280
416,280,63525,1,2
312,232,63725,1,2
368,136,63925,1,2
423,136,64025,1,8
344,48,64225,5,2
248,104,64425,2,0,C|192:48|120:120,1,140,8|2
248,144,64825,2,0,C|192:200|136:144,1,140,8|2
96,256,65225,1,8
192,312,65425,1,2
264,232,65625,2,0,C|320:176|384:240,1,140,8|2
456,272,66025,1,8
384,352,66225,2,0,C|320:288|280:368,1,140,2|8
200,256,66625,2,0,C|200:176|128:176,1,140,2|8
184,72,67025,1,8
288,120,67225,1,8
376,56,67425,6,0,C|464:56|464:144,1,140,2|8
464,216,67825,2,0,C|408:160|344:224,1,140,2|8
304,296,68225,2,0,C|248:232|296:184,1,140,2|8
184,152,68625,1,2
176,264,68825,2,0,C|88:264|56:208,1,140,8|2
136,136,69225,1,8
64,224,69425,1,2
48,112,69625,2,0,C|104:48|160:88,1,140,8|2
256,104,70025,1,8
256,104,70125,1,8
256,104,70225,1,8
368,112,70425,6,0,C|448:120|416:184,1,140,8|2
312,176,70825,2,0,C|376:216|328:256,1,140,8|2
216,240,71225,2,0,C|272:288|200:328,1,140,8|2
112,288,71625,2,0,C|48:240|88:184,1,140,8|2
192,192,72025,2,0,C|120:144|176:96,1,140,8|2
272,120,72425,2,0,C|216:72|296:48,1,140,8|2
384,80,72825,1,8
464,160,73025,1,2
352,160,73225,1,8
432,240,73425,1,8
320,240,73625,1,8
400,320,73825,6,0,C|328:336|248:336,1,140,2|8
168,272,74225,2,0,C|248:240|224:192,1,140,2|8
112,176,74625,1,2
216,128,74825,2,0,C|144:88|192:48,1,140,8|2
88,112,75224,2,0,C|32:168|64:232,1,140,8|2
128,312,75624,1,8
208,232,75824,1,2
176,128,76024,1,8
264,56,76224,2,8,C|344:56|352:144,1,140
352,168,76524,1,8
352,168,76624,1,8
352,168,76724,1,8
352,168,76824,1,8
256,352,77624,5,8
32,192,78424,5,8
256,32,79224,5,8
480,192,80024,5,8
256,192,80824,5,8
256,192,81624,5,2
144,272,82724,5,2
256,272,82924,1,2
368,272,83124,1,2
368,272,83224,1,8
424,272,83424,6,0,C|488:216|424:160,1,140,2|8
336,200,83824,1,2
368,96,84024,1,8
264,128,84224,2,0,C|272:56|192:56,1,140,2|8
160,160,84624,2,0,C|216:240|128:248,1,140,2|8
72,224,85024,1,2
80,112,85224,1,8
72,224,85424,1,2
136,320,85624,2,0,C|232:320|272:272,1,140,8|2
360,344,86024,1,8
328,296,86124,1,8
384,296,86224,1,8
464,224,86424,6,0,C|368:224|408:160,1,140,8|2
480,128,86824,2,0,C|392:96|336:136,1,140,8|2
264,184,87224,1,8
256,72,87424,1,2
168,136,87624,2,0,C|112:80|64:136,1,140,8|2
136,216,88024,2,0,C|64:272|128:312,1,140,8|2
208,272,88424,2,0,C|272:320|296:256,1,140,8|2
376,344,88824,1,8
448,256,89024,1,2
408,152,89224,1,8
312,96,89424,1,8
408,40,89624,1,8
312,96,89824,6,0,B|384:136|240:168,1,140,2|8
216,56,90223,1,2
216,168,90423,2,0,B|192:32|144:96,1,140,8|2
48,152,90823,1,8
144,216,91023,2,0,C|64:208|72:280,1,140,2|8
168,312,91423,1,2
248,240,91623,2,0,C|304:176|344:216,1,140,8|2
320,104,92023,2,0,C|384:56|448:112,1,140,8|2
440,200,92423,1,8
408,248,92523,1,8
368,288,92623,1,8
320,312,92723,1,8
264,320,92823,1,8
304,216,93023,6,0,C|288:144|224:120,1,140,2|8
216,232,93423,1,2
104,216,93623,2,0,C|112:144|184:104,1,140,8|2
280,104,94023,2,0,C|360:96|440:136,1,140,8|2
448,224,94423,1,8
392,320,94623,1,2
280,336,94823,1,8
168,320,95023,2,0,C|176:240|80:240,1,140,2|8
72,336,95423,2,0,C|40:256|48:192,1,140,2|8
72,96,95823,1,8
72,96,96023,1,8
184,112,96223,6,0,C|160:184|232:208,1,140,2|8
280,112,96623,2,0,C|296:200|352:208,1,140,2|8
384,104,97023,2,0,C|408:192|480:192,1,140,2|8
376,280,97423,1,2
272,328,97623,1,8
160,312,97823,1,2
248,248,98023,1,8
136,240,98223,2,0,C|200:168|144:144,1,140,2|8
88,72,98623,2,0,C|40:128|48:208,1,140,2|8
40,248,98923,1,8
40,304,99023,2,8,C|128:336|208:336,1,140
192,224,99423,5,2
208,112,99623,2,0,C|312:72|328:144,1,140,8|2
408,168,100023,1,8
304,208,100223,1,2
408,256,100423,2,0,C|344:304|264:296,1,140,8|2
176,336,100823,1,8
192,224,101023,1,2
96,272,101223,2,0,C|48:208|104:152,1,140,8|2
200,136,101623,2,0,C|120:88|168:56,1,140,8|2
264,40,102023,1,8
320,40,102123,1,8
376,40,102223,1,8
432,40,102323,1,8
488,40,102423,1,8
440,144,102623,6,0,C|336:184|376:232,1,140,2|8
448,264,103023,2,0,C|392:312|336:280,1,140,2|8
272,192,103423,2,0,C|256:272|192:272,1,140,2|8
160,168,103823,1,2
96,256,104023,1,8
31,164,104223,1,2
104,80,104423,2,0,C|184:96|224:48,1,140,8|2
320,104,104823,1,8
240,176,105023,2,0,C|336:224|360:176,1,140,2|8
384,152,105322,1,8
416,104,105422,2,8,C|472:176|448:224,1,140
416,320,105822,5,2
352,224,106022,2,0,C|304:160|280:104,1,140,8|2
184,160,106422,1,8
168,48,106622,2,0,C|80:88|64:136,1,140,2|8
56,240,107022,1,2
128,328,107222,2,0,C|208:280|264:328,1,140,8|2
160,232,107622,1,10
80,152,107822,2,0,C|176:120|208:184,1,140,2|8
240,256,108222,2,0,C|296:312|344:248,1,140,2|8
392,176,108622,1,8
392,176,108822,1,4
256,192,109022,12,4,110422
256,192,112022,12,0,113222
40,344,113622,5,0
152,344,113822,1,0
40,344,114022,1,0
40,344,114422,1,0
40,344,114822,1,0
472,40,115222,5,2
360,40,115422,1,0
472,40,115622,1,8
472,40,116022,1,2
472,40,116222,1,0
360,40,116422,1,8
472,344,116822,5,0
360,344,117022,1,0
472,344,117222,1,0
472,344,117622,1,0
472,344,118022,1,0
40,40,118422,5,2
152,40,118622,1,0
40,40,118822,1,8
40,40,119222,1,2
40,40,119422,1,0
152,40,119622,1,8
72,248,120022,5,0
168,192,120221,1,0
72,136,120421,1,0
288,192,120821,1,0
64,192,121221,1,0
288,192,121621,5,2
176,192,121821,1,0
64,192,122021,1,8
64,192,122421,1,2
176,192,122621,1,0
288,192,122821,1,8
104,304,123221,5,0
216,304,123421,2,0,C|360:304,1,140
128,304,124021,1,0
352,304,124421,1,0
128,304,124821,6,0,C|288:304,1,140,2|0
384,304,125221,1,8
168,256,125621,2,0,C|336:256,1,140,2|0
360,160,126021,1,8
152,80,126421,6,0,C|304:80,1,140
408,80,126821,1,0
184,80,127221,1,0
408,80,127621,1,0
184,80,128021,6,0,C|328:80,1,140,2|0
432,80,128421,1,8
216,128,128821,2,0,C|360:128,1,140,2|0
360,240,129221,1,8
40,192,129621,6,0,C|192:192,1,140
296,192,130021,1,0
296,192,130421,1,0
296,192,130821,1,0
472,192,131221,6,0,C|320:192,1,140,2|0
216,192,131621,1,8
216,192,132021,1,2
216,192,132221,1,0
216,192,132421,1,8
256,344,132821,6,0,C|256:200,1,140
256,88,133221,1,0
256,88,133621,1,0
256,88,134021,1,0
256,312,134421,6,0,C|256:160,1,140,2|0
256,56,134821,1,8
256,280,135220,1,2
200,184,135420,1,0
312,184,135620,1,8
256,192,136020,5,4
256,192,137120,1,8
256,192,137320,1,8
256,192,137520,1,4
256,192,137620,1,4
256,192,137720,12,4,139220
256,192,150419,5,4
256,192,151519,1,0
256,192,151719,1,0
256,192,151919,1,0
256,192,152019,1,4
256,192,152119,12,8,155219
432,72,155619,5,8
352,280,156019,1,8
216,96,156419,1,8
424,176,156819,2,8,C|328:224|280:240|280:128|312:112,1,280
136,296,157619,1,8
72,80,158019,1,8
136,296,158419,6,8,C|64:200|160:152|192:200,1,280
368,320,159219,1,8
424,104,159619,1,8
272,272,160019,1,8
472,168,160419,2,8,C|352:216|304:160|312:112|344:96,1,280
160,248,161219,1,8
368,328,161619,5,8
464,272,161819,1,8
368,224,162019,1,8
240,40,162419,1,8
112,224,162819,1,8
320,312,163219,2,8,C|240:280|224:216,1,140
336,248,163619,2,8,C|272:200|272:128,1,140
376,192,164019,2,8,C|320:128|344:64,1,140
440,128,164419,1,8
376,344,164819,5,8
264,344,165019,1,8
320,248,165218,1,8
120,320,165618,1,8
56,104,166018,1,8
272,56,166418,2,8,C|368:64|376:160,1,140
272,144,166818,2,8,C|352:144|360:208,1,140
312,304,167218,1,8
312,304,167518,5,8
312,304,167718,1,2
312,304,167918,1,2
312,304,168018,1,8
184,304,168218,6,0,B|80:200,1,140,0|8
248,304,168618,2,0,B|248:152,1,140,2|8
312,304,169018,2,0,B|424:192,1,140,0|8
416,96,169418,2,0,B|416:248,1,140,2|8
352,96,169818,2,0,B|224:224,1,140,0|8
352,32,170218,2,2,B|200:32,1,140,2|8
212,144,170618,1,8
215,255,170818,1,8
40,120,171218,6,0,B|40:264,1,140,8|0
104,120,171618,2,0,B|216:232,1,140,8|2
104,56,172018,2,0,B|256:56,1,140,8|0
256,168,172418,2,0,B|376:288,1,140,8|2
192,168,172818,2,0,B|192:336,1,140,8|0
128,168,173218,2,0,B|24:272,1,140,8|2
136,280,173618,1,8
247,283,173818,1,8
136,280,174018,1,8
216,72,174418,6,0,B|64:72,1,140,8|0
72,184,174818,2,0,B|232:184,1,140,8|2
328,184,175218,2,0,B|448:64,1,140,8|0
312,80,175618,2,0,B|208:184,1,140,8|2
208,288,176018,2,0,B|352:288,1,140,8|0
464,288,176418,2,0,B|392:288|392:288|392:232|392:232|360:232,1,140,8|2
264,232,176818,2,8,B|120:232,1,140
109,343,177218,1,8
312,120,177618,5,8
200,120,177818,1,0
120,40,178018,1,8
40,120,178218,1,2
120,200,178418,1,8
192,288,178618,1,0
272,208,178818,1,8
352,288,179018,1,2
432,208,179218,1,8
352,128,179418,1,8
272,56,179618,1,8
96,192,180018,5,8
264,192,180317,1,2
376,192,180517,1,2
264,192,180717,1,2
208,192,180817,1,8
152,288,181017,6,0,B|48:184,1,140,2|8
104,288,181417,2,0,B|208:184,1,140,2|8
88,184,181817,2,0,B|192:80,1,140,2|8
136,184,182217,2,0,B|32:80,1,140,2|8
152,88,182617,2,0,B|304:88,1,140,2|8
408,88,183017,2,0,B|288:208,1,140,2|8
304,296,183417,2,0,B|392:296|392:296|392:240,1,140,2|8
392,184,183717,1,8
423,137,183817,1,8
454,94,184017,1,8
352,140,184217,5,2
240,140,184417,1,8
240,251,184617,1,2
240,139,184817,1,8
128,138,185017,1,2
239,140,185217,1,8
127,139,185417,1,2
124,250,185617,1,8
128,138,185817,1,2
130,26,186017,1,8
241,28,186217,1,2
239,139,186417,1,8
350,140,186617,1,2
332,29,186817,5,8
348,82,186917,1,8
396,54,187017,1,8
412,107,187117,1,8
457,74,187217,1,8
441,184,187417,6,0,C|417:256|337:200,1,140,2|8
273,161,187817,1,2
184,88,188017,2,0,C|184:200|136:264,1,140,8|2
112,320,188417,1,8
56,224,188617,1,2
48,112,188817,2,0,C|112:72|184:80,1,140,8|2
280,120,189217,1,8
280,120,189317,1,8
280,120,189417,1,8
280,120,189617,1,8
384,168,189817,5,2
416,272,190017,1,8
384,320,190117,1,8
328,319,190217,1,8
301,269,190317,1,8
337,226,190417,1,8
224,192,190617,5,2
192,296,190817,2,0,C|80:288|80:200,1,140,8|2
128,168,191217,1,8
160,64,191417,2,0,C|240:120|288:56,2,140,2|8|2
176,176,192017,1,8
288,176,192217,1,2
400,152,192417,2,0,C|456:80|384:72,1,140,8|2
304,104,192817,1,8
352,208,193017,1,2
416,296,193217,5,8
360,296,193317,1,8
304,296,193417,1,8
248,296,193517,1,8
248,240,193617,1,8
56,160,194017,5,8
160,120,194217,1,0
264,72,194417,1,8
368,120,194617,1,0
472,160,194817,1,8
264,240,195216,1,8
472,160,195616,5,8
368,120,195816,1,0
264,72,196016,1,8
160,120,196216,1,0
56,160,196416,1,8
264,248,196816,6,8,C|264:96,1,140
368,72,197216,1,8
368,184,197416,1,0
368,296,197616,1,8
144,296,198016,1,8
144,184,198216,1,0
144,72,198416,1,8
256,264,198816,1,8
256,40,199216,5,8
256,264,199616,1,8
256,208,199716,1,8
256,152,199816,1,8
256,96,199916,1,8
256,40,200016,1,8
256,264,200416,5,8
144,264,200616,1,0
32,264,200816,1,8
256,264,201216,1,8
368,264,201416,1,0
480,264,201616,1,8
256,264,202016,1,8
256,152,202216,1,0
256,40,202416,1,8
32,40,202816,1,8
256,40,203216,5,8
368,40,203416,1,0
480,40,203616,1,8
256,40,204016,1,8
256,264,204416,1,8
256,264,204616,1,0
256,264,204816,1,8
256,264,205216,1,8
256,264,205616,1,8
256,264,206016,1,8
256,264,206116,1,0
256,264,206216,1,8
256,264,206316,1,0
256,264,206416,1,8
440,128,206816,6,0,C|368:88|336:144,1,140,2|8
400,232,207216,1,2
376,344,207416,2,0,C|328:288|272:344,1,140,8|2
168,336,207816,1,8
208,232,208016,2,0,C|128:232|64:272,1,140,2|8
40,160,208416,1,2
56,48,208616,2,0,C|128:136|176:88,1,140,8|2
232,48,209016,1,8
272,152,209216,2,0,C|352:96|416:96,1,140,2|2
448,192,209616,1,2
448,304,209816,6,0,B|368:304|368:304|368:232,1,140,8|2
256,248,210215,2,0,B|176:248|176:248|176:312,1,140,8|2
288,312,210615,2,0,B|360:312|360:312|360:232,1,140,8|2
360,128,211015,2,0,B|264:128|264:128|264:192,1,140,8|2
152,176,211415,2,0,B|152:88|152:88|88:88,1,140,8|2
208,88,211815,2,0,B|208:168|208:168|280:168,1,140,8|2
384,176,212215,1,8
456,264,212415,2,0,B|360:264|360:264|360:320,1,140,2|2
254,269,212815,1,2
166,199,213015,6,0,C|102:247|70:183,1,140,8|2
98,87,213415,1,8
207,112,213615,2,0,C|255:192|303:136,1,140,2|8
381,103,214015,2,0,C|453:143|429:215,1,140,2|8
339,139,214415,1,2
348,250,214615,2,0,C|316:322|236:330,1,140,8|2
258,217,215015,2,0,C|186:241|186:353,1,140,8|2
148,194,215415,1,8
122,84,215615,1,2
58,175,215815,1,2
110,274,216015,1,2
221,266,216215,6,0,B|301:266|301:266|301:330,1,140,8|2
389,257,216615,1,8
409,146,216815,2,0,B|329:146|329:146|329:66,1,140,2|8
244,159,217215,1,2
231,47,217415,1,2
162,135,217615,1,4
256,192,217715,12,4,219215
