osu file format v7

[General]
AudioFilename: DJ VERSTARKER-Darkness.mp3
AudioLeadIn: 0
PreviewTime: 153831
Countdown: 0
SampleSet: Normal
StackLeniency: 0.8
Mode: 0
LetterboxInBreaks: 1

[Editor]
DistanceSpacing: 0.800000011920929
BeatDivisor: 4
GridSize: 8

[Metadata]
Title:Darkness
Artist:Dj Verstarker
Creator:adron zhero
Version:Easy Style
Source:
Tags:Techno Hard Style

[Difficulty]
HPDrainRate:2
CircleSize:3
OverallDifficulty:2
SliderMultiplier:0.6
SliderTickRate:1

[Events]
//Background and Video events
0,0,"Divine_Darkness-436213.jpg"
//Break Periods
2,110622,112062
//Storyboard Layer 0 (Background)
//Storyboard Layer 1 (Fail)
//Storyboard Layer 2 (Pass)
//Storyboard Layer 3 (Foreground)
//Storyboard Sound Samples
//Background Colour Transformations
3,100,163,162,255

[TimingPoints]
30,399.973335110993,4,2,0,60,1,0
51345,-100,4,1,0,60,0,0
77441,-100,4,2,0,60,0,0
81341,-100,4,1,0,60,0,0

[Colours]
Combo1 : 172,172,172
Combo2 : 45,45,45

[HitObjects]
256,192,38427,5,4
256,192,39627,2,0,B|184:192,1,60,0|4
256,192,41627,12,0,43227
256,192,44827,5,4
256,192,46026,2,0,B|320:192,1,60,0|4
256,192,48026,12,0,49626
440,80,51226,5,4
344,80,52026,1,8
344,176,52826,1,4
248,176,53626,2,8,B|192:176|192:128|128:128,1,120,8|4
72,64,55226,5,8
72,160,56026,2,4,B|72:232|128:232|128:264,1,120,4|8
224,256,57626,5,4
234,160,58426,2,0,B|303:164|334:122|354:125,1,120,8|4
443,127,60026,1,8
443,222,60825,5,4
355,262,61625,1,8
353,166,62425,1,4
257,168,63225,1,8
255,263,64025,5,4
346,232,64825,2,0,B|398:168|393:117,1,120,8|4
324,57,66425,1,8
272,56,66825,1,8
223,56,67225,2,0,B|184:96|185:173,1,120,4|8
158,259,68825,1,4
245,298,69625,1,8
340,290,70425,6,0,B|337:219|386:211|384:171,1,120,4|8
423,93,72025,1,8
376,81,72425,1,8
328,75,72825,2,0,B|328:133|372:171|371:192,1,120,8|4
298,249,74425,5,8
219,304,75224,1,4
210,209,76024,1,8
272,136,76824,5,4
211,210,77624,2,0,B|147:210,1,60
102,209,78424,2,0,B|38:209,1,60
40,160,79224,2,0,B|104:160,1,60
152,160,80024,6,0,B|224:160,1,60
264,160,80824,2,0,B|264:88,1,60
216,96,81624,1,4
80,64,82824,6,0,B|152:64,1,60,0|4
184,64,83624,6,0,B|248:64,1,60
288,64,84424,2,0,B|352:64,1,60
352,112,85224,2,0,B|280:112,1,60
320,152,86024,2,0,B|320:216,1,60
320,256,86824,6,0,B|320:328,1,60
272,312,87624,2,0,B|208:312,1,60
216,264,88424,2,0,B|216:200,1,60
168,184,89224,2,0,B|128:184,2,30,0|0|4
168,136,90024,6,0,B|240:136,1,60
264,168,90823,2,0,B|264:104,1,60
312,112,91623,2,0,B|360:64,1,60
400,72,92423,2,0,B|400:136,1,60
400,184,93223,6,0,B|352:232,1,60
312,232,94023,2,0,B|240:232,1,60
200,232,94823,2,0,B|200:160,1,60
200,120,95623,2,0,B|200:88,2,30,0|0|4
152,120,96423,5,0
120,160,96823,1,0
88,200,97223,2,0,B|88:264,1,60
136,256,98023,1,0
184,256,98423,1,0
184,208,98823,1,0
232,208,99223,5,0
280,208,99623,2,0,B|280:272,1,60
328,264,100423,1,0
376,264,100823,1,0
376,216,101223,1,0
376,168,101623,1,0
424,168,102023,2,0,B|456:168,2,30,0|0|4
424,120,102823,6,0,B|376:72,1,60
336,80,103623,1,0
288,80,104023,1,0
288,128,104423,2,0,B|288:192,1,60
240,192,105222,1,0
240,240,105622,5,0
192,240,106022,1,0
192,192,106422,1,0
144,192,106822,2,0,B|144:128,1,60
144,88,107622,2,0,B|216:88,1,60
248,88,108422,2,0,B|320:88,1,60,0|4
256,192,109022,12,4,110422
400,104,113622,6,0,B|344:144,1,60
304,128,114422,2,0,B|232:120,1,60
240,168,115222,1,2
192,160,115622,1,8
192,208,116022,1,2
144,208,116422,1,8
144,256,116822,6,0,B|176:328,1,60
216,296,117622,1,0
264,288,118022,1,0
264,240,118422,2,0,B|256:168,1,60,2|8
304,192,119222,2,0,B|368:224,1,60,2|8
400,200,120022,6,0,B|456:152,1,60
464,120,120821,1,0
416,112,121221,1,0
368,104,121621,1,2
328,80,122021,1,8
280,96,122421,2,0,B|216:120,1,60,2|8
200,160,123221,5,0
160,184,123621,1,0
112,168,124021,1,0
96,216,124421,1,0
128,256,124821,2,0,B|176:312,1,60,2|8
208,272,125621,1,2
240,232,126021,1,8
288,232,126421,6,0,B|368:232,1,60
400,232,127221,2,0,B|400:304,1,60
448,296,128021,1,2
416,336,128421,1,8
368,336,128821,1,2
336,296,129221,1,8
352,248,129621,5,0
304,248,130021,2,0,B|208:248,1,60
200,248,130821,1,0
200,200,131221,2,0,B|200:128,1,60,2|8
152,136,132021,2,0,B|72:136,1,60,2|8
112,184,132821,5,0
96,232,133221,1,0
144,240,133621,1,0
120,280,134021,1,0
168,280,134421,1,2
216,296,134821,1,8
264,288,135220,1,2
304,256,135620,1,8
304,208,136020,5,0
304,112,137220,2,0,B|224:112,1,60
256,192,137820,12,0,139220
