osu file format v5

[General]
AudioFilename: Dj Shothead - Gates Of Infinity.mp3
AudioLeadIn: 0
PreviewTime: -1
Countdown: 1
SampleSet: Normal
StackLeniency: 0.7
Mode: 0
LetterboxInBreaks: 1

[Metadata]
Title:Gates Of Infinity
Artist:Dj Shothead
Creator:SteRRuM
Version:Hard
Source:
Tags:

[Difficulty]
HPDrainRate:6
CircleSize:5
OverallDifficulty:7
SliderMultiplier:2.6
SliderTickRate:1

[Events]
//Background and Video events
0,0,"Infinity.jpg"
//Break Periods
2,15520,17978
2,67409,69867
2,98238,100566
//Storyboard Layer 0 (Background)
//Storyboard Layer 1 (Failing)
//Storyboard Layer 2 (Passing)
//Storyboard Layer 3 (Foreground)
//Storyboard Sound Samples
//Background Colour Transformations
3,100,0,0,0

[TimingPoints]
2467,428.571428571429,4,2,0,70,1
17902,-100,4,1,0,60,0
68571,-100,4,2,0,71,0
101357,-100,4,1,0,80,0

[Colours]
Combo1 : 106,64,0
Combo2 : 149,0,74
Combo3 : 0,145,145
Combo4 : 0,0,113

[HitObjects]
256,192,324,12,4,2038
128,128,2467,5,0
192,240,2895,1,8
256,128,3324,1,0
432,312,4181,5,0
376,192,4609,1,8
328,312,5038,1,0
128,144,5895,5,0
248,96,6324,1,8
368,144,6752,1,0
248,96,7181,2,0,B|248:160|216:192|152:224|88:224|24:224,3,260,8|0|8|0
232,224,8895,5,4
288,112,9324,5,0
160,112,9752,1,8
288,112,10181,1,0
64,240,11038,5,0
192,240,11466,1,8
320,240,11895,1,0
64,240,12752,5,0
160,160,13181,1,8
72,64,13609,1,0
200,88,14038,2,0,B|200:376,3,260,8|0|8|0
32,192,19181,6,0,B|32:352,2,130,0|8|0
96,192,19824,2,0,B|96:352,2,130,0|8|0
160,192,20467,2,0,B|160:168|160:152|144:136|120:112|104:120|80:112|40:112|24:128,2,130,0|8|0
160,192,21109,2,0,B|160:176|168:128|200:120|240:112|272:104|256:128,2,130,0|8|0
160,192,21752,2,0,B|160:328,2,130,0|8|0
224,192,22395,2,0,B|224:352,2,130,0|8|0
288,192,23038,2,0,B|288:352,2,130,0|8|0
256,192,23681,12,4,25181
128,160,25395,5,0
160,216,25609,1,8
192,160,25824,1,0
224,216,26038,1,6
416,200,27109,5,0
368,152,27324,1,8
352,216,27538,1,0
304,168,27752,1,2
184,272,28824,5,0
152,216,29038,1,8
120,160,29252,1,0
88,104,29467,1,2
288,192,30538,5,4
288,192,30645,1,0
288,192,30752,1,8
288,192,30859,2,0,B|288:272,3,65,0|8|0|8
128,128,32252,6,0,B|48:128,3,65,0|8|0|2
128,128,32681,1,0
128,128,32788,1,8
128,128,32895,1,4
168,72,33109,1,2
192,128,33324,1,0
232,72,33538,1,8
256,128,33752,1,2
296,72,33967,5,2
320,128,34181,1,0
352,184,34395,1,8
288,184,34609,1,2
224,184,34824,1,8
160,184,35038,1,0
96,184,35252,1,2
96,120,35467,1,2
160,120,35681,5,8
224,120,35895,1,0
288,120,36109,1,2
352,120,36324,1,2
352,184,36538,1,8
288,184,36752,1,0
224,184,36967,1,2
160,184,37181,1,2
160,248,37395,5,8
224,248,37609,1,0
288,248,37824,1,2
352,248,38038,1,2
256,192,38145,12,4,39324
416,192,39752,6,0,B|416:288,8,65,0|0|8|0|8|0|8|0|0
192,192,41038,6,0,B|112:192,8,65,8|0|8|0|8|0|8|0|8
256,192,42109,1,0
320,192,42324,1,10
256,192,42538,1,0
320,192,42752,1,0
320,128,42967,5,0
256,128,43181,1,10
256,192,43395,1,0
320,192,43609,1,8
384,192,43824,1,0
432,232,44038,1,8
408,296,44252,1,0
432,232,44466,1,8
384,192,44681,6,0,B|384:352,1,130
320,320,45109,2,2,B|160:320,1,130
160,264,45538,2,0,B|160:104,1,130
184,72,45966,2,2,B|344:72,1,130
352,128,46395,2,0,B|424:128,6,65,0|0|4|0|0|0|0
288,128,47252,1,4
288,128,47467,1,4
288,128,47681,1,4
288,192,47895,5,0
320,248,48109,1,8
288,304,48324,1,0
224,304,48538,1,8
160,296,48752,1,0
112,248,48966,1,8
88,184,49181,1,0
120,128,49395,1,10
152,184,49609,1,10
120,128,49824,1,10
168,88,50038,5,0
232,88,50252,1,2
296,88,50466,2,8,B|432:88,1,130
424,152,50895,2,10,B|288:152,1,130
296,216,51324,1,0
360,216,51538,1,8
424,216,51752,1,0
360,216,51966,1,8
296,216,52181,1,0
232,216,52395,2,0,B|88:216,2,130,0|2|0
232,216,53038,1,0
168,216,53252,6,4,B|168:56,6,130
224,184,54752,2,4,B|224:24,7,130
288,48,56466,5,8
352,48,56681,1,2
392,96,56895,2,0,B|472:96,4,65
416,152,57538,1,8
416,216,57752,1,0
408,280,57966,1,8
344,296,58181,5,0
280,296,58395,1,8
216,296,58609,1,0
168,248,58824,1,8
216,208,59038,2,0,B|352:208,1,130
384,152,59466,2,0,B|224:152,1,130,0|2
254,152,59895,1,0
192,152,60109,1,8
128,128,60324,1,0
128,192,60538,1,8
192,224,60752,6,0,B|264:224,4,65
257,224,61395,1,0
257,224,61609,1,0
256,288,61824,1,8
208,336,62038,1,0
144,336,62252,1,8
96,296,62466,2,0,B|24:296,2,65,0|0|0
96,296,62895,1,2
96,296,63109,2,0,B|176:296,2,65,0|0|0
96,232,63538,5,0
96,168,63752,1,8
96,104,63966,1,0
96,40,64181,1,8
96,40,64395,1,8
256,192,64609,12,4,67181
160,128,71038,5,0
288,128,71466,1,8
288,128,71895,1,0
72,280,72752,6,0,B|208:280,2,130,0|0|8
72,280,73609,1,0
184,48,74466,6,0,B|184:200,1,130
240,200,74895,2,8,B|240:48,1,130
304,88,75324,1,0
368,200,75752,2,0,B|456:200|456:200|456:344|456:344|336:344|336:344|336:232|336:232|248:232|248:232|248:344|248:344|128:344|128:344|128:176|128:176|224:176,1,1040,0|4
96,128,77895,5,0
224,128,78324,1,8
224,128,78752,1,0
386,304,79609,6,0,B|354:304|298:280|274:256|258:232|234:192|218:160|226:112,2,260,0|8|0
128,96,81324,5,0
256,96,81752,1,8
256,96,82181,1,0
384,96,82609,2,0,B|384:128|352:160|320:192|288:192|152:192,3,260,8|0|8|0
64,112,84324,5,4
192,112,84752,5,0
320,112,85181,1,8
384,224,85609,1,0
448,128,86466,6,0,B|432:200|424:208|376:224|344:232|296:224|256:192|224:168|216:152|264:200,1,260,0|8
246,181,87324,1,0
120,272,88181,5,0
248,288,88609,1,8
352,208,89038,1,0
296,88,89466,2,0,B|296:376,4,260,8|0|8|0|8
296,88,91609,5,0
296,88,92038,2,0,B|144:160,2,130,8|0|0
128,64,93324,5,0
240,120,93752,1,8
360,168,94181,1,0
104,136,95038,5,0
232,136,95466,1,8
232,264,95895,1,0
104,264,96324,1,8
256,192,96752,12,4,98038
224,192,101466,5,2
128,192,101788,1,2
128,288,102109,1,0
192,288,102324,1,8
256,288,102538,1,0
320,288,102752,1,8
384,288,102966,1,0
296,192,104895,5,2
392,192,105216,1,2
392,96,105538,1,0
328,96,105752,1,8
264,96,105966,1,0
200,96,106181,1,8
136,96,106395,1,0
256,192,106824,12,4,108109
80,56,108324,5,4
144,56,108538,1,8
208,56,108752,1,2
272,56,108966,1,8
320,96,109181,1,2
272,136,109395,1,8
208,136,109609,1,2
144,136,109824,5,8
96,184,110038,1,2
144,224,110252,1,8
208,224,110466,1,2
272,224,110681,1,8
296,288,110895,2,0,B|152:288,1,130,8|0
200,344,111324,2,0,B|352:344,1,130,8|0
360,280,111752,2,0,B|360:144,2,130,8|0|8
304,232,112395,6,0,B|168:232,3,130,2|8|2|8
174,232,113252,1,2
160,168,113467,1,8
160,168,113681,2,0,B|328:168,1,130,2|8
272,104,114109,1,2
208,104,114324,1,8
144,104,114538,1,2
88,136,114752,1,8
128,184,114966,1,2
176,232,115181,1,4
256,192,116038,12,4,121181
64,48,122038,5,0
128,48,122252,1,8
192,48,122466,1,0
256,48,122681,1,2
304,88,122895,1,0
256,136,123109,1,8
256,200,123323,1,0
256,264,123538,1,2
304,304,123752,5,0
256,344,123966,1,8
192,344,124181,1,0
128,344,124395,1,2
128,280,124609,1,2
128,280,124824,2,0,B|48:280,4,65
128,280,125466,1,8
192,280,125681,1,0
256,280,125895,1,2
320,280,126109,1,0
320,216,126323,6,0,B|400:216,2,65,8|0|2
320,216,126752,1,0
320,216,126966,2,0,B|240:216,2,65,2|0|8
320,216,127395,1,0
320,216,127609,2,0,B|320:296,2,65,0|8|0
320,152,128038,1,8
320,88,128252,1,0
256,88,128466,5,2
192,88,128681,1,0
128,88,128895,1,8
128,88,129109,1,0
192,88,129324,2,0,B|192:8,3,65,8|0|2|0
192,23,129753,1,0
192,24,129967,1,0
192,24,130181,6,0,B|72:24,5,65,8|0|2|0|8|0
128,24,130824,2,0,B|129:104,8,65,2|0|8|0|2|0|8|0|2
128,24,131895,1,8
128,24,132109,1,0
128,24,132324,1,0
128,24,132538,2,8,B|360:24,2,195
128,24,133395,6,0,B|48:24,6,65,2|0|2|0|2|0|2
128,24,134252,2,0,B|128:168,1,130,8|0
128,154,134681,1,8
128,153,134895,2,2,B|204:153,6,65,2|0|2|0|2|0|2
128,152,135752,1,0
128,152,135967,1,0
128,153,136181,2,8,B|128:121|128:113|152:81|168:65|192:49|232:41|320:33|304:25|320:1,2,260,8|8|8
181,195,137252,1,0
232,152,137467,6,0,B|328:152,10,65,0|8|0|2|0|8|0|2|0|8|0
256,88,138752,5,2
192,112,138966,1,8
168,176,139181,1,0
168,240,139395,1,2
232,232,139609,1,0
168,240,139824,1,8
112,208,140038,1,0
72,152,140252,1,2
136,144,140466,5,0
192,176,140681,1,8
248,136,140895,1,0
248,72,141109,1,2
312,72,141324,1,8
312,72,141538,2,0,B|384:72,10,65,0|8|0|2|0|8|0|2|0|8|0
312,72,142824,5,2
312,136,143038,1,8
312,200,143252,1,0
248,200,143466,1,2
312,200,143681,1,0
248,200,143895,1,8
192,232,144109,1,0
128,216,144324,1,2
160,160,144538,6,0,B|160:80,4,65
216,200,145181,2,0,B|216:272,3,65
216,200,145609,2,4,B|208:96|224:64|264:48|288:40|352:40|400:48|464:72|488:152|464:216|424:256|416:264|392:264|368:272|360:152|368:120|328:96|296:96|264:144|272:192|272:232|384:296,1,780
380,294,147002,2,0,B|484:294,8,65,0|8|0|2|0|8|0|2|0
380,294,147966,1,0
380,294,148181,2,8,B|90:292|90:292|90:148|90:148|194:148,1,520
96,88,149467,6,4,B|88:96|64:128|64:176|120:232|128:248|128:280|112:304|80:328,2,260
304,96,150752,2,4,B|296:104|272:136|272:184|328:240|336:256|336:288|320:312|288:336,2,260
96,88,152038,2,4,B|88:96|64:128|64:176|120:232|128:248|128:280|112:304|80:328,2,260
304,96,153324,2,4,B|296:104|272:136|272:184|328:240|336:256|336:288|320:312|288:336,2,260
256,192,154609,12,4,156324
