osu file format v9

[General]
AudioFilename: 03 COMPLECKS BABY.mp3
AudioLeadIn: 0
PreviewTime: 101148
Countdown: 1
SampleSet: Soft
StackLeniency: 0.7
Mode: 0
LetterboxInBreaks: 0

[Editor]
DistanceSpacing: 0.8
BeatDivisor: 4
GridSize: 8

[Metadata]
Title:Complecks Baby
Artist:Dj Sharpnel
Creator:Inamaru
Version:Uguu~
Source:SharpnelSound
Tags:srpc 0019 mad breaks loli be my baby backfire

[Difficulty]
HPDrainRate:8
CircleSize:4
OverallDifficulty:9
ApproachRate:9
SliderMultiplier:2.4
SliderTickRate:1

[Events]
//Background and Video events
0,0,"SRPC-0019.jpg"
//Break Periods
2,107456,117252
//Storyboard Layer 0 (Background)
//Storyboard Layer 1 (Fail)
//Storyboard Layer 2 (Pass)
//Storyboard Layer 3 (Foreground)
//Storyboard Sound Samples
//Background Colour Transformations
3,100,163,162,255

[TimingPoints]
1296,331.12582781457,4,2,0,100,1,0
58084,-133.333333333333,4,2,0,100,0,0
58249,-100,4,2,0,100,0,0
59574,-100,4,2,0,100,0,1
64872,-100,4,2,0,100,0,0
74143,-57.1428571428571,4,2,0,100,0,0
74640,-100,4,2,0,100,0,0
84905,-66.6666666666667,4,2,0,100,0,0
86064,-100,4,2,0,100,0,0
101958,-100,4,2,0,100,0,1
105931,-100,4,2,0,100,0,0
106262,-66.6666666666667,4,2,0,100,0,0
107256,-100,4,2,0,100,0,1
107339,-100,4,2,0,100,0,0
128448,-100,4,2,0,100,0,1
149640,-100,4,2,0,100,0,0

[Colours]
Combo1 : 210,164,210
Combo2 : 255,128,137
Combo3 : 255,221,187

[HitObjects]
256,264,43680,5,4
328,128,43845,5,0
400,192,44011,1,8
184,128,44176,5,0
112,192,44342,1,2
256,48,44507,6,0,B|256:176,2,120,8|8|0
64,152,45004,6,0,B|80:264|224:296,1,180
256,72,45335,2,0,B|256:256,1,180
448,152,45666,2,0,B|432:264|288:296,1,180
256,344,45997,6,0,B|256:216,2,120,8|8|0
176,288,46494,5,2
96,232,46660,1,0
216,192,46825,1,2
256,56,46991,1,2
296,192,47156,1,2
336,288,47322,1,2
416,232,47488,1,0
432,136,47653,6,0,B|424:48|312:40,1,120,8|0
361,48,47984,2,0,B|272:104|240:104,1,120,0|8
254,102,48315,2,0,B|176:80|136:40,1,120,8|0
146,49,48646,2,0,B|80:64|80:152,1,120,0|8
256,240,48978,1,4
136,192,49143,6,0,B|112:224|112:224|56:192|16:280|32:296,2,120,0|0|2
184,112,49640,1,0
256,48,49805,1,2
328,112,49971,1,0
376,192,50137,2,0,B|400:224|400:224|456:192|496:280|480:296,2,120,0|0|0
256,192,50633,5,0
256,192,50799,2,0,B|248:64|88:8,1,240
256,192,51295,2,0,B|264:320|424:376,1,240
400,272,51792,6,8,B|400:144,1,120,0|8
112,112,52123,6,0,B|112:240,1,120,0|8
256,64,52454,5,0
352,152,52620,1,0
256,152,52786,1,0
160,152,52951,1,0
64,152,53117,1,0
448,152,53282,1,8
480,288,53448,6,0,B|368:208,1,120
32,288,53779,2,0,B|144:208,1,120
256,344,54110,2,0,B|256:216,1,120,0|4
344,192,54441,6,0,B|328:96|328:96|256:56|256:56|184:96|184:96|168:192,1,360,0|8
256,144,55103,2,0,B|256:392,1,240
256,384,55600,1,0
184,320,55766,6,0,B|184:256|184:256|128:184,1,120,0|8
64,168,56097,2,0,B|96:112|96:112|168:112,1,120,0|8
200,192,56428,2,0,B|256:216|256:216|312:192,1,120,0|8
360,112,56759,2,0,B|416:112|416:112|456:176,1,120
360,208,57090,2,0,B|328:256|328:256|328:320,1,120
256,248,57421,1,0
256,152,57587,1,2
256,56,57752,1,2
256,56,57918,1,0
256,248,58084,2,0,B|256:344,1,89.9999973177911,0|4
88,120,58746,6,0,B|136:48|136:48|216:56,2,120
256,168,59243,1,0
424,120,59408,2,0,B|376:48|376:48|296:56,2,120
424,216,59905,5,8
336,296,60070,1,0
256,168,60236,1,8
176,296,60401,1,0
88,216,60567,1,8
152,112,60733,2,0,B|224:96|224:96|272:48|272:48,1,120,0|8
255,63,61064,2,0,B|288:96|288:96|360:112,1,120,0|0
440,56,61395,6,0,B|464:232,1,120
456,174,61726,1,0
256,144,61892,2,0,B|256:272,2,120
72,56,62388,2,0,B|48:232,1,120,0|8
55,174,62719,1,0
120,248,62885,6,0,B|256:320,1,120,8|0
392,248,63216,2,0,B|256:320,1,120,8|0
256,144,63547,5,8
352,56,63713,1,4
160,56,63878,1,4
160,232,64044,1,4
352,232,64209,1,4
256,144,64541,5,0
256,144,64872,1,0
352,120,65037,2,0,B|392:136|392:136|424:104|424:104|480:144,1,120,8|8
449,122,65368,1,0
408,208,65534,5,2
104,208,65699,1,2
256,144,65865,5,0
160,120,66031,2,0,B|120:136|120:136|88:104|88:104|32:144,1,120,8|8
62,122,66362,1,0
104,208,66527,5,0
256,296,66693,1,2
408,208,66858,1,2
360,128,67024,6,0,B|376:56|464:32,1,120,0|0
436,41,67355,1,0
256,192,67521,2,0,B|256:352,2,120,0|0|0
152,128,68017,2,0,B|136:56|48:32,1,120,0|0
75,41,68348,1,0
40,128,68514,6,0,B|112:224,1,120
48,296,68845,2,0,B|200:360,1,120
256,240,69176,2,0,B|256:112,1,120
472,128,69507,6,0,B|400:224,1,120
464,296,69839,2,0,B|312:360,1,120
256,48,70170,2,0,B|256:176,1,120
120,88,70501,5,0
136,136,70584,1,0
152,184,70666,1,2
168,232,70749,1,0
184,280,70832,1,2
256,224,70997,2,0,B|256:88,1,120
256,104,71329,1,0
392,88,71494,5,2
376,136,71577,1,0
360,184,71660,1,2
344,232,71743,1,0
328,280,71825,1,2
256,208,71991,2,0,B|256:360,1,120,0|4
256,328,72322,1,0
184,264,72488,5,0
168,168,72653,2,0,B|88:48,1,120
101,68,72901,1,0
101,68,72984,1,0
101,68,73067,1,0
101,68,73150,1,0
328,264,73315,5,0
344,168,73481,2,0,B|424:48,1,120
410,68,73729,1,0
410,68,73812,1,0
410,68,73895,1,0
410,68,73978,1,0
112,152,74143,6,0,B|216:72|216:72|304:72,1,209.999990612269,2|0
400,232,74474,2,0,B|296:312|296:312|208:312,1,209.999990612269,2|0
352,128,74805,6,0,B|480:40,1,120
160,256,75137,2,0,B|32:344,1,120
256,192,75468,5,4
256,192,75550,1,0
256,192,75633,1,0
256,192,75716,1,0
256,192,75799,2,0,B|256:64|256:64|216:24|216:24|144:24,1,240
112,112,76295,1,8
56,192,76461,1,8
136,240,76627,1,0
256,192,76792,5,4
256,192,76875,1,0
256,192,76958,1,0
256,192,77041,1,0
256,192,77123,2,0,B|256:320|256:320|296:360|296:360|368:360,1,240,0|8
400,272,77620,1,10
456,192,77786,1,2
376,144,77951,1,0
256,56,78117,6,0,B|304:56|304:56|424:80,1,120
374,70,78365,1,0
374,70,78448,1,4
432,144,78613,1,0
256,328,78779,6,0,B|208:328|208:328|88:304,1,120
137,313,79027,1,0
137,313,79110,1,4
80,240,79276,1,0
304,120,79441,6,0,B|480:120,1,120,8|0
208,264,79772,2,0,B|32:264,1,120,8|0
40,184,80103,5,2
104,80,80269,1,2
192,176,80435,1,2
256,32,80600,1,0
320,176,80766,1,8
408,80,80931,1,8
472,184,81097,1,8
400,248,81262,5,2
352,264,81345,1,0
304,280,81428,1,2
256,296,81511,1,0
208,312,81594,1,0
120,344,81759,1,0
256,192,81925,1,0
352,192,82090,5,0
160,192,82256,1,0
112,136,82421,5,0
160,120,82504,1,0
208,104,82587,1,2
256,88,82670,1,0
304,72,82752,1,2
392,40,82918,1,0
256,192,83084,1,0
256,192,83166,5,0
256,240,83249,1,0
296,264,83332,1,0
336,240,83415,1,0
336,192,83497,1,0
296,168,83580,1,0
256,192,83663,1,0
256,240,83746,1,0
216,264,83829,1,0
176,240,83911,1,0
176,192,83994,1,0
216,168,84077,1,0
256,152,84160,2,0,B|256:56|256:56,7,60,0|0|0|0|0|0|0|4
384,352,84905,6,0,B|248:352|248:352|184:312,2,179.999994635582,0|2|0
400,208,85401,1,0
128,32,85567,6,0,B|264:32|264:32|328:72,2,179.999994635582,0|2|0
112,176,86064,1,0
184,184,86229,6,0,B|176:224|176:224|152:224|152:224|136:280,1,120
256,96,86560,1,0
256,192,86726,1,0
256,288,86892,1,0
328,184,87057,2,0,B|336:224|336:224|360:224|360:224|376:280,1,120
416,192,87388,6,0,B|416:120|416:120|320:104|312:0,1,240,8|0
256,96,87885,2,8,B|256:216,1,120
352,240,88216,1,0
256,288,88382,1,0
160,240,88547,1,0
96,192,88713,2,0,B|96:120|96:120|192:104|200:0,1,240,8|0
376,96,89209,6,0,B|472:192,1,120,0|2
256,144,89541,2,0,B|256:288,1,120,0|2
136,96,89872,2,0,B|40:192,1,120,0|2
96,264,90203,5,2
256,304,90368,1,0
416,264,90534,1,2
352,192,90699,5,0
256,168,90865,1,0
160,192,91031,1,0
256,168,91196,6,4,B|256:24,1,120,0|4
64,80,91693,5,2
64,80,91776,1,0
64,80,91858,1,0
64,80,91941,1,0
64,80,92024,2,2,B|176:168,1,120
256,136,92355,2,8,B|256:272,2,120,0|0|0
184,72,92852,1,0
184,72,93017,1,0
256,8,93183,1,0
328,72,93348,1,0
328,72,93514,1,0
448,80,93680,1,2
448,80,93762,1,0
448,80,93845,1,0
448,80,93928,1,0
448,80,94011,2,2,B|336:168,1,120
400,240,94342,6,0,B|384:304|384:304|328:336,2,120
256,128,94839,1,2
256,224,95004,1,2
256,320,95170,1,0
112,240,95335,2,0,B|128:304|128:304|184:336,2,120
208,264,95832,5,0
304,264,95997,1,0
256,192,96163,1,0
256,192,96329,5,4
176,144,96494,2,0,B|208:112|208:112|240:104|240:104|304:56|304:56,1,120,0|8
336,240,96825,2,0,B|304:272|304:272|272:280|272:280|208:328|208:328,1,120,0|8
160,248,97156,2,8,B|160:200|160:200|104:136|104:136,1,120,0|8
200,112,97488,2,0,B|256:88|256:88|312:112,1,120,0|8
400,144,97819,2,0,B|352:200|352:200|352:256,1,120,0|8
304,328,98150,2,0,B|256:288|256:288|208:328,5,120,0|8|0|8|0|12
144,256,99143,6,0,B|72:168|88:96,1,120,0|8
88,151,99474,1,0
256,200,99640,2,0,B|256:72,1,120,8|0
256,80,99971,1,8
368,256,100137,2,0,B|440:168|424:96,1,120,0|8
423,151,100468,1,0
256,80,100633,5,4
256,192,100799,12,0,101958
256,192,102289,5,0
160,192,102454,2,0,B|96:192|96:192|72:128,1,120,0|8
168,112,102786,2,0,B|208:56|208:56|264:56,1,120,0|8
259,56,103117,2,0,B|304:56|304:56|352:120,1,120,0|8
352,192,103448,2,0,B|416:192|416:192|440:128,1,120
344,104,103779,6,0,B|480:16|480:16,2,120
256,192,104276,2,0,B|256:320,2,120
168,104,104772,2,0,B|32:16|32:16,2,120,0|8|0
256,64,105269,1,8
320,136,105435,5,0
400,192,105600,1,8
192,136,105766,1,0
112,192,105931,1,8
256,200,106097,5,0
256,200,106262,1,0
256,200,106428,2,0,B|152:280|152:280|80:256,1,179.999994635582,0|2
40,136,106759,1,2
256,200,106925,2,0,B|360:120|360:120|432:144,1,179.999994635582,4|0
472,264,107256,1,4
256,192,117852,5,4
256,192,120501,5,8
256,192,123150,5,4
256,192,125799,5,8
256,192,126461,5,8
256,192,127123,5,0
256,144,127206,1,0
256,96,127289,1,8
256,96,127454,1,8
376,248,127786,5,0
408,208,127868,1,0
440,168,127951,1,8
136,248,128117,5,0
104,208,128199,1,0
72,168,128282,1,8
144,112,128448,6,0,B|216:48|216:48|272:48|272:48,1,120,8|0
368,272,128779,2,0,B|296:336|296:336|240:336|240:336,1,120,8|0
240,256,129110,2,0,B|192:184|192:184|128:184,1,120,8|0
256,96,129441,2,0,B|304:168|304:168|368:168,1,120,8|0
376,80,129772,2,0,B|416:80|416:80|472:152,1,120,8|0
136,304,130103,2,0,B|96:304|96:304|40:232,1,120,8|0
104,168,130435,5,0
72,80,130600,1,0
168,96,130766,1,8
256,160,130931,1,0
256,64,131097,1,8
344,96,131262,1,0
440,80,131428,1,8
408,168,131594,1,0
440,256,131759,1,8
344,232,131925,1,0
256,264,132090,1,8
168,232,132256,1,0
72,256,132421,1,8
96,160,132587,6,0,B|16:32,1,120
96,160,132918,1,0
256,136,133084,2,0,B|256:8,1,120,8|0
256,136,133415,1,8
416,160,133580,2,0,B|496:32,1,120,0|8
416,160,133911,1,0
488,232,134077,5,8
392,312,134243,1,0
256,344,134408,1,8
120,312,134574,1,0
24,232,134739,1,8
80,152,134905,6,0,B|176:40,1,120
158,60,135236,1,0
158,60,135401,1,8
158,60,135567,1,0
158,60,135733,1,8
200,136,135898,5,0
200,232,136064,1,2
312,232,136229,1,0
312,136,136395,1,2
432,152,136560,6,0,B|336:40,1,120
353,60,136892,1,0
353,60,137057,1,8
353,60,137223,1,0
353,60,137388,1,8
256,32,137554,5,0
256,128,137719,1,2
256,176,137802,1,0
256,224,137885,1,0
256,272,137968,1,0
256,320,138050,1,4
168,280,138216,5,0
104,208,138382,2,0,B|144:168|144:168|120:128|120:128|128:112|128:112,1,120
127,112,138713,1,0
408,208,138878,2,0,B|368:168|368:168|392:128|392:128|384:112|384:112,1,120
384,112,139209,1,0
320,40,139375,5,0
296,80,139458,1,0
288,128,139541,1,0
312,168,139623,1,0
328,208,139706,1,0
328,256,139789,1,0
304,296,139872,1,0
256,312,139954,1,0
208,296,140037,1,0
184,256,140120,1,0
184,208,140203,1,0
200,168,140286,1,0
224,128,140368,1,0
216,80,140451,1,0
192,40,140534,1,0
120,104,140699,6,0,B|136:144|136:144|112:168|112:168|104:216,1,120,8|0
88,304,141031,1,8
176,336,141196,1,0
256,288,141362,1,8
336,336,141527,1,0
424,304,141693,1,8
407,210,141858,2,0,B|400:168|400:168|376:144|376:144|392:104,1,120,0|8
312,48,142190,6,0,B|176:48,2,120
360,128,142686,2,0,B|432:248,1,120
152,128,143017,2,0,B|80:248,1,120
256,176,143348,1,0
184,240,143514,1,0
256,304,143680,1,0
328,240,143845,1,0
376,152,144011,6,0,B|464:40,1,120
450,57,144342,1,8
376,152,144507,1,0
464,240,144673,1,8
328,224,144839,1,0
416,352,145004,1,8
288,256,145170,1,0
256,376,145335,1,8
224,256,145501,1,0
96,352,145666,1,8
184,224,145832,1,0
48,240,145997,1,8
136,152,146163,1,0
136,152,146329,2,0,B|48:40,1,120,8|0
62,57,146660,1,8
160,48,146825,6,0,B|200:48|200:48|208:80|208:80|272:96|272:96,1,120
352,48,147156,2,0,B|312:48|312:48|304:80|304:80|240:96|240:96,1,120
258,91,147488,5,0
224,128,147570,1,0
192,160,147653,1,0
160,192,147736,1,0
128,224,147819,1,0
160,264,147901,1,0
192,296,147984,1,0
232,328,148067,1,0
256,288,148150,1,0
280,328,148233,1,0
320,296,148315,1,0
352,264,148398,1,0
384,224,148481,1,0
352,192,148564,1,0
320,160,148646,1,0
288,128,148729,1,0
258,91,148812,1,0
256,144,148895,2,0,B|256:256,9,60,0|0|0|0|0|0|0|0|0|4
