osu file format v9

[General]
AudioFilename: Dj Satomi - Waves.mp3
AudioLeadIn: 1996
PreviewTime: 100062
Countdown: 0
SampleSet: Soft
StackLeniency: 0.7
Mode: 0
LetterboxInBreaks: 1

[Editor]
DistanceSpacing: 0.8
BeatDivisor: 2
GridSize: 8

[Metadata]
Title:Waves (Nightcore Mix)
Artist:Dj Satomi
Creator:ztrot
Version:Easy
Source:
Tags:water aqua trance jericho2442

[Difficulty]
HPDrainRate:1
CircleSize:3
OverallDifficulty:2
ApproachRate:3
SliderMultiplier:1.1
SliderTickRate:2

[Events]
//Background and Video events
0,0,"BG (2).jpg"
//Break Periods
2,44341,53874
2,133694,137541
//Storyboard Layer 0 (Background)
//Storyboard Layer 1 (Fail)
//Storyboard Layer 2 (Pass)
//Storyboard Layer 3 (Foreground)
//Storyboard Sound Samples
//Background Colour Transformations
3,100,163,162,255

[TimingPoints]
451,342.896331009258,4,1,1,100,1,0
22224,-100,4,2,0,100,0,0
54971,-100,4,2,1,80,0,0
66115,-100,4,2,2,80,0,0
76916,-100,4,1,1,100,0,0
138638,-100,4,2,2,79,0,0
155268,-100,4,1,1,100,0,0
177556,-100,4,2,1,3,0,0

[Colours]
Combo1 : 170,34,45
Combo2 : 150,80,150
Combo3 : 191,125,167
Combo4 : 222,198,114

[HitObjects]
256,344,451,2,0,B|120:344|120:208,1,220,0|8
256,96,1822,2,0,B|392:96|392:232,1,220,0|8
256,344,3194,6,0,B|320:344|336:280,1,110
256,248,3879,2,0,B|192:248|160:312,1,110,0|8
80,336,4565,2,0,B|-8:240|144:240|72:128,2,220,0|8|0
152,288,6280,5,0
216,224,6623,1,8
216,136,6966,1,0
216,48,7308,6,0,B|336:0|456:112|408:224,1,330,0|8
344,280,8680,5,0
256,280,9023,1,0
168,280,9366,1,8
212,204,9709,1,0
299,202,10052,1,2
69,333,11423,6,0,B|116:297|90:249|90:249|20:272|18:273|18:272|19:273|19:211,1,220,2|8
192,192,12795,1,2
256,128,13138,1,0
320,192,13481,1,8
493,218,14166,6,0,B|493:273|494:272|494:273|492:272|422:249|422:249|396:297|443:333,1,220,2|8
320,208,15538,6,0,B|336:272|256:304|256:304|200:280,2,165,2|0|8
256,152,16910,1,2
88,192,17595,1,8
160,32,18281,2,0,B|160:64|160:64|208:72|208:72|216:112|216:112|256:128|256:128|296:112|296:112|304:72|304:72|352:64|352:64|352:32,1,330,2|8
432,72,19653,5,2
392,152,19996,1,0
304,136,20338,1,8
240,200,20681,1,0
160,240,21024,2,0,B|160:272|160:272|208:280|208:280|216:320|216:320|256:336|256:336|296:320|296:320|304:280|304:280|352:272|352:272|352:240,1,330,2|8
256,208,22396,5,4
56,344,23767,5,0
56,344,24110,1,2
256,208,25139,5,4
456,344,26511,1,0
456,344,26854,1,2
336,288,27368,6,0,B|152:288,1,165,0|2
80,288,28225,1,0
80,200,28568,6,0,B|304:200,1,220,0|2
392,200,29597,1,0
128,192,30625,5,4
456,344,31997,1,0
456,344,32340,1,2
208,256,33369,6,0,B|224:328|224:328|256:360|288:328|288:328|304:256,1,220,0|8
256,88,34740,1,0
256,88,35083,1,8
40,192,35769,5,0
40,192,36112,1,8
144,336,36798,6,0,B|368:336,1,220,0|8
368,248,37826,1,0
256,112,38512,5,0
168,112,38855,2,0,B|72:112|72:248|168:248,2,220,8|0|8
256,88,40569,1,0
256,264,41255,5,0
344,248,41598,2,0,B|440:248|440:112|344:112,2,220,8|0|8
256,264,43313,1,0
40,344,55314,5,2
472,344,56685,1,2
256,64,58057,1,2
40,344,59429,1,2
208,280,60114,6,0,B|208:160,2,110,2|2|2
464,40,62172,1,2
48,40,63543,1,2
256,352,64915,1,2
256,176,65601,5,2
256,88,65944,1,2
256,0,66287,2,0,B|384:0|376:112|496:88,2,220,0|8|0
168,8,68001,1,8
48,240,69030,6,0,B|160:240,1,110
160,328,69716,2,0,B|288:328,1,110,8|0
272,240,70401,2,0,B|384:240,1,110,0|8
120,192,71773,5,0
120,104,72116,1,0
208,104,72459,1,8
304,104,72802,1,0
392,104,73145,1,0
392,192,73487,1,8
168,336,74516,6,0,B|288:336,1,110
304,248,75202,2,0,B|192:248,1,110,8|0
168,160,75888,2,0,B|296:160,1,110,0|8
40,16,77259,6,0,B|176:-16|224:104,2,220,2|8|2
40,104,78974,1,0
40,192,79317,1,8
40,280,79660,1,0
40,368,80002,6,0,B|176:400|224:280,2,220,2|8|2
88,288,81717,1,0
120,208,82060,1,8
208,192,82403,1,0
296,192,82746,6,0,B|432:192|464:64,2,220,2|8|2
296,104,84460,1,0
296,16,84803,1,8
208,16,85146,1,0
120,16,85489,6,0,B|8:112|120:208,2,220,2|8|2
176,88,87203,1,0
240,152,87546,1,8
304,216,87889,1,0
256,192,88232,12,4,89604
256,8,90975,5,0
256,376,92347,5,0
256,200,93033,1,8
256,24,93718,1,0
104,112,94404,2,0,B|104:344,1,220,8|0
184,304,95433,5,0
264,264,95776,1,8
344,216,96119,1,0
424,176,96461,2,0,B|360:72|256:48|152:88|112:104,1,330,8|0
64,152,97833,5,0
64,240,98176,1,0
136,296,98519,1,8
208,240,98862,1,0
256,360,99376,6,0,B|376:360|448:248,1,220
440,128,100576,1,2
440,128,100919,1,8
256,40,101605,5,0
192,200,102291,1,8
256,256,102634,1,0
320,200,102977,1,8
176,104,103662,6,0,B|96:80|24:176|96:256,1,220,8|0
256,352,105034,1,8
344,352,105377,1,0
432,352,105720,1,8
344,200,106405,6,0,B|112:200,1,220,8|0
120,24,107777,1,8
208,24,108120,1,0
296,24,108463,1,8
304,200,109149,6,0,B|200:144|160:248|80:192,1,220,8|0
192,344,110520,1,8
256,288,110863,1,0
320,344,111206,1,8
376,272,111549,5,2
312,208,111892,1,8
256,136,112235,1,0
200,208,112578,1,8
144,136,112920,1,2
144,136,113263,1,8
304,64,113949,5,8
392,64,114292,1,2
440,144,114635,1,8
440,232,114978,1,0
400,312,115321,1,8
312,312,115664,1,2
312,312,116007,1,8
256,144,116692,5,8
176,184,117035,2,0,B|56:184,1,110,2|8
88,272,117721,2,0,B|208:272,1,110,0|8
224,360,118407,2,0,B|104:360,1,110,2|8
56,192,119436,5,8
56,104,119778,1,2
136,144,120121,1,8
136,56,120464,1,0
216,104,120807,1,8
216,192,121150,1,2
216,192,121493,1,8
336,280,122179,5,8
336,280,122522,1,2
336,280,122864,6,0,B|416:304|488:208|416:128,1,220,8|0
256,32,124236,5,8
168,32,124579,1,2
80,32,124922,1,8
168,184,125608,2,0,B|400:184,1,220,8|8
392,360,126979,5,8
304,360,127322,1,2
216,360,127665,1,8
208,184,128351,6,0,B|312:240|352:136|432:192,1,220,8|8
320,40,129722,1,8
256,96,130065,1,2
192,40,130408,1,8
104,192,131094,5,8
256,280,131780,1,8
408,192,132466,1,8
408,192,132808,1,2
408,192,133151,1,8
320,192,133494,1,4
256,360,138981,5,0
48,48,140352,1,8
48,48,140695,1,0
256,360,141724,5,0
464,48,143095,1,8
48,48,144467,1,0
48,336,145839,5,8
48,336,146181,1,0
256,24,147210,1,0
464,336,148582,1,8
56,192,149953,5,0
256,32,151325,5,8
456,192,152696,5,0
456,280,153039,1,0
368,280,153382,1,8
280,280,153725,1,0
192,280,154068,1,0
168,192,154411,1,0
256,176,154754,1,8
256,88,155097,1,0
256,0,155440,6,0,B|128:0|136:112|16:88,2,220,2|8|2
344,8,157154,1,8
464,240,158183,6,0,B|352:240,1,110,2|0
352,328,158869,2,0,B|224:328,1,110,8|0
240,240,159554,2,0,B|128:240,1,110,2|8
392,192,160926,5,2
392,104,161269,1,0
304,104,161612,1,8
208,104,161955,1,0
120,104,162298,1,2
120,192,162640,1,8
344,336,163669,6,0,B|224:336,1,110,2|0
208,248,164355,2,0,B|320:248,1,110,8|0
344,160,165041,2,0,B|216:160,1,110,2|8
472,16,166412,6,0,B|336:-16|288:104,2,220,2|8|2
472,104,168127,1,8
472,192,168470,1,0
472,280,168813,1,0
472,368,169155,6,0,B|336:400|288:280,2,220,2|8|2
424,288,170870,1,8
392,208,171213,1,0
304,192,171556,1,0
216,192,171899,6,0,B|80:192|48:64,2,220,2|8|2
216,104,173613,1,8
216,16,173956,1,0
304,16,174299,1,0
392,16,174642,6,0,B|504:112|392:208,2,220,2|8|2
336,88,176356,1,8
272,152,176699,1,0
208,216,177042,1,0
256,192,177385,12,0,182186
