osu file format v14

[General]
AudioFilename: Dj Satomi - Waves.mp3
AudioLeadIn: 0
PreviewTime: 39688
Countdown: 0
SampleSet: Normal
StackLeniency: 0.7
Mode: 0
LetterboxInBreaks: 1
WidescreenStoryboard: 0

[Editor]
DistanceSpacing: 0.7
BeatDivisor: 4
GridSize: 4
TimelineZoom: 3.239999

[Metadata]
Title:Waves
TitleUnicode:Waves
Artist:Dj Satomi
ArtistUnicode:Dj Satomi
Creator:-perper-
Version:Insane
Source:gotori
Tags:DJ SATOMI Waves
BeatmapID:1277945
BeatmapSetID:604857

[Difficulty]
HPDrainRate:7
CircleSize:4
OverallDifficulty:7
ApproachRate:9
SliderMultiplier:2
SliderTickRate:1

[Events]
//Background and Video events
//Break Periods
2,64391,72240
//Storyboard Layer 0 (Background)
//Storyboard Layer 1 (Fail)
//Storyboard Layer 2 (Pass)
//Storyboard Layer 3 (Foreground)
//Storyboard Sound Samples

[TimingPoints]
770,360.36036036036,4,1,0,100,1,0
39688,720.720720720721,4,1,0,100,1,0
40408,360.36036036036,4,1,0,100,1,0
64191,720.720720720721,4,1,0,100,1,0
78425,-111.111111111111,4,1,0,100,0,0
79145,-125,4,1,0,100,0,0
79866,-142.857142857143,4,1,0,100,0,0
80587,-166.666666666667,4,1,0,100,0,0
82929,-142.857142857143,4,1,0,100,0,0
83650,-125,4,1,0,100,0,0
84371,-200,4,1,0,100,0,0
86533,360.36036036036,4,1,0,100,1,0

[HitObjects]
88,112,6535,6,0,P|140:80|200:72,1,100
376,124,6896,2,0,P|324:156|264:164,1,100
428,280,7256,1,0,0:0:0:0:
280,64,7436,1,0,0:0:0:0:
160,252,7616,1,0,0:0:0:0:
280,64,7797,1,0,0:0:0:0:
376,124,7977,6,0,P|376:196|288:288,1,200
208,336,8517,1,0,0:0:0:0:
160,252,8697,2,0,L|160:144,1,100
60,212,9058,2,0,L|60:104,1,100
60,32,9418,6,0,L|268:32,1,200
384,36,9959,1,0,0:0:0:0:
196,96,10139,1,0,0:0:0:0:
384,156,10319,1,0,0:0:0:0:
196,216,10499,1,0,0:0:0:0:
384,284,10679,1,0,0:0:0:0:
384,284,10860,6,0,L|384:68,1,200
256,156,11400,1,0,0:0:0:0:
384,156,11580,2,0,L|520:156,1,100
128,156,11941,2,0,L|-8:156,1,100
256,336,12301,5,0,0:0:0:0:
256,48,12481,1,0,0:0:0:0:
384,284,12661,2,0,P|432:324|476:344,1,100
128,284,13022,2,0,P|80:324|36:344,1,100
384,284,13382,2,0,P|432:324|476:344,1,100
320,336,13742,5,0,0:0:0:0:
261,280,13923,1,0,0:0:0:0:
257,200,14103,1,0,0:0:0:0:
206,138,14283,1,0,0:0:0:0:
126,148,14463,1,0,0:0:0:0:
126,148,14643,1,0,0:0:0:0:
416,64,14824,1,0,0:0:0:0:
416,64,15004,1,0,0:0:0:0:
328,124,15184,6,0,B|364:160|364:160|416:184,1,100
324,264,15544,2,0,B|288:300|288:300|264:352,1,100
184,260,15905,2,0,B|148:224|148:224|96:200,1,100
188,120,16265,2,0,B|224:84|224:84|248:32,1,100
256,192,16625,8,0,17706,0:0:0:0:
68,72,17887,5,0,0:0:0:0:
68,72,18067,2,0,B|128:56|208:112|288:88,1,200
428,160,18607,1,0,0:0:0:0:
428,160,18787,2,0,B|368:144|288:200|208:176,1,200
108,176,19328,1,0,0:0:0:0:
224,288,19508,1,0,0:0:0:0:
440,56,19869,5,0,0:0:0:0:
404,208,20049,1,0,0:0:0:0:
288,96,20229,1,0,0:0:0:0:
440,56,20409,1,0,0:0:0:0:
404,208,20589,1,0,0:0:0:0:
288,96,20769,1,0,0:0:0:0:
288,96,20950,6,0,L|152:96,1,100
64,96,21310,2,0,L|64:232,1,100
68,308,21670,2,0,L|204:308,1,100
272,308,22031,1,0,0:0:0:0:
68,308,22211,1,0,0:0:0:0:
272,308,22391,2,0,B|304:240|448:244|384:292|296:252|288:196|392:204,1,200
372,176,22932,2,0,B|304:144|308:0|356:64|316:152|260:160|268:56,1,200
272,308,23472,1,0,0:0:0:0:
268,104,23652,1,0,0:0:0:0:
272,308,23833,1,0,0:0:0:0:
272,308,24193,6,0,P|352:288|396:256,1,100
372,176,24553,2,0,P|352:96|320:52,1,100
240,76,24914,2,0,P|160:96|116:128,1,100
248,176,25274,2,0,P|140:248|144:232,1,400
168,148,26175,1,0,0:0:0:0:
420,292,26355,5,0,0:0:0:0:
152,336,26535,1,0,0:0:0:0:
168,148,26715,1,0,0:0:0:0:
268,256,26896,1,0,0:0:0:0:
56,224,27076,1,0,0:0:0:0:
72,48,27256,2,0,P|56:92|52:152,1,100
440,336,27616,2,0,P|456:292|460:232,1,100
456,160,27977,1,0,0:0:0:0:
256,192,28157,12,0,29238,0:0:0:0:
408,96,29418,5,0,0:0:0:0:
408,96,29599,2,0,L|408:308,1,200
272,96,30139,1,0,0:0:0:0:
272,96,30320,2,0,L|272:308,1,200
184,200,30860,1,0,0:0:0:0:
120,296,31040,5,0,0:0:0:0:
52,196,31220,1,0,0:0:0:0:
116,104,31400,1,0,0:0:0:0:
120,296,31580,1,0,0:0:0:0:
116,104,31760,1,0,0:0:0:0:
184,200,31941,1,0,0:0:0:0:
52,196,32121,1,0,0:0:0:0:
184,200,32301,1,0,0:0:0:0:
184,200,32481,6,0,L|300:200,1,100
384,200,32842,2,0,L|268:200,1,100
184,200,33202,1,0,0:0:0:0:
280,84,33382,1,0,0:0:0:0:
380,200,33562,1,0,0:0:0:0:
288,312,33742,1,0,0:0:0:0:
184,200,33923,2,0,B|184:300|184:300|136:276|136:276|72:320,1,200
48,248,34463,2,0,B|48:148|48:148|96:172|96:172|160:128,1,200
256,28,35004,1,0,0:0:0:0:
460,288,35184,1,0,0:0:0:0:
132,144,35364,1,0,0:0:0:0:
128,148,35724,6,0,L|128:36,1,100
220,228,36085,2,0,L|220:116,1,100
312,308,36445,2,0,L|312:196,1,100
308,116,36806,2,0,B|368:112|452:108|452:108|420:20|284:28|232:32|108:36,1,500
256,336,37887,5,0,0:0:0:0:
130,119,38067,1,0,0:0:0:0:
381,119,38247,1,0,0:0:0:0:
183,317,38427,1,0,0:0:0:0:
183,66,38607,1,0,0:0:0:0:
400,192,38788,1,0,0:0:0:0:
130,264,38968,1,0,0:0:0:0:
256,47,39148,1,0,0:0:0:0:
381,264,39328,1,0,0:0:0:0:
111,191,39508,1,0,0:0:0:0:
128,116,39688,2,0,B|192:60|232:16|208:204|296:96,1,200
307,86,40498,5,0,0:0:0:0:
325,56,40588,1,0,0:0:0:0:
354,37,40678,1,0,0:0:0:0:
388,40,40768,1,0,0:0:0:0:
418,56,40858,1,0,0:0:0:0:
443,80,40948,2,0,P|461:121|462:189,1,100
54,204,41489,1,0,0:0:0:0:
363,266,41849,6,0,P|295:299|241:304,1,100
149,118,42209,2,0,P|217:85|271:80,1,100
416,200,42570,2,0,B|450:244|450:244|464:306,1,100
271,303,42930,2,0,B|237:259|237:259|223:197,1,100
212,52,43290,5,0,0:0:0:0:
344,252,43471,1,0,0:0:0:0:
184,352,43651,1,0,0:0:0:0:
52,152,43831,1,0,0:0:0:0:
212,52,44011,2,0,P|312:72|316:172,1,200
228,144,44552,1,0,0:0:0:0:
436,176,44732,2,0,L|424:296,1,100
228,144,45092,2,0,L|148:216,1,100
212,332,45453,2,0,P|312:312|316:212,1,200
136,228,45993,5,0,0:0:0:0:
136,228,46173,1,0,0:0:0:0:
132,68,46353,1,0,0:0:0:0:
132,68,46534,1,0,0:0:0:0:
292,64,46714,1,0,0:0:0:0:
292,64,46894,2,0,P|364:144|380:244,1,200
104,320,47615,6,0,P|80:264|112:220,1,100
236,120,47975,2,0,P|260:176|228:220,1,100
80,156,48335,2,0,P|76:92|188:32,1,200
416,80,49056,5,0,0:0:0:0:
416,80,49236,1,0,0:0:0:0:
288,156,49417,1,0,0:0:0:0:
288,156,49597,1,0,0:0:0:0:
264,328,49777,2,0,P|176:332|144:312,2,100
360,260,50317,1,0,0:0:0:0:
264,328,50498,2,0,P|176:332|144:312,2,100
360,260,51038,1,0,0:0:0:0:
256,176,51218,2,0,P|272:104|408:108,1,200
348,168,51759,5,0,0:0:0:0:
192,40,51939,1,0,0:0:0:0:
156,228,52119,1,0,0:0:0:0:
192,40,52299,1,0,0:0:0:0:
348,168,52480,1,0,0:0:0:0:
192,40,52660,2,0,B|68:44|128:128|60:168,1,200
88,304,53380,6,0,P|160:328|228:324,1,100
248,256,53741,2,0,P|320:280|388:276,1,100
416,244,54101,1,0,0:0:0:0:
304,164,54281,1,0,0:0:0:0:
416,244,54462,2,0,P|464:292|492:348,1,100
184,232,54822,1,0,0:0:0:0:
296,312,55002,1,0,0:0:0:0:
184,232,55183,2,0,P|136:184|108:128,1,100
336,68,55543,6,0,P|248:24|136:88,1,200
96,144,56083,1,0,0:0:0:0:
112,252,56263,2,0,P|160:300|220:320,1,100
296,312,56624,1,0,0:0:0:0:
384,276,56804,2,0,P|432:228|452:168,1,100
460,92,57164,1,0,0:0:0:0:
360,56,57344,2,0,B|308:68|308:68|232:48,1,100
160,68,57705,5,0,0:0:0:0:
296,312,57885,1,0,0:0:0:0:
360,56,58065,1,0,0:0:0:0:
40,248,58245,1,0,0:0:0:0:
200,336,58426,1,0,0:0:0:0:
440,248,58786,1,0,0:0:0:0:
160,140,59146,6,0,B|132:188|132:188|92:216,1,100
200,336,59507,2,0,B|228:288|228:288|268:260,1,100
272,152,59867,2,0,B|320:180|320:180|348:220,1,100
468,112,60228,2,0,B|420:84|420:84|392:44,1,100
296,52,60588,5,0,0:0:0:0:
396,184,60768,1,0,0:0:0:0:
192,56,60948,1,0,0:0:0:0:
292,188,61128,1,0,0:0:0:0:
292,188,61308,2,0,B|208:232|384:296|244:344,1,200
184,280,61849,5,0,0:0:0:0:
380,216,62029,1,0,0:0:0:0:
184,144,62209,1,0,0:0:0:0:
380,216,62389,1,0,0:0:0:0:
184,280,62570,1,0,0:0:0:0:
256,192,62750,12,0,64191,0:0:0:0:
256,192,72840,12,0,75002,0:0:0:0:
144,60,75182,5,0,0:0:0:0:
244,156,75362,1,0,0:0:0:0:
72,180,75543,2,0,P|120:216|176:232,1,100
440,240,76263,2,0,P|392:276|336:292,1,100
76,268,76984,2,0,P|124:304|180:320,1,100
440,332,77705,1,0,0:0:0:0:
368,60,78065,5,0,0:0:0:0:
248,116,78245,1,0,0:0:0:0:
380,160,78426,2,0,P|384:216|368:268,1,89.9999972534181
132,160,79146,2,0,P|128:216|136:264,1,80
460,160,79867,2,0,P|464:216|456:256,1,69.9999978637696
52,160,80587,2,0,P|48:216|56:236,1,59.9999981689454
104,292,81127,1,0,0:0:0:0:
200,264,81308,1,0,0:0:0:0:
260,192,81488,1,0,0:0:0:0:
268,56,82209,6,0,L|348:56,1,59.9999981689454
384,224,82929,2,0,L|472:224,1,69.9999978637696
204,328,83650,2,0,L|304:328,1,80
120,88,84371,2,0,P|104:124|108:144,1,50
432,212,85091,2,0,P|448:248|444:268,1,50
128,312,85812,1,0,0:0:0:0:
142,123,86533,5,0,0:0:0:0:
162,94,86623,1,0,0:0:0:0:
189,72,86713,1,0,0:0:0:0:
221,58,86803,1,0,0:0:0:0:
254,49,86893,1,0,0:0:0:0:
288,50,86983,1,0,0:0:0:0:
322,57,87073,2,0,P|360:73|411:123,1,100
391,258,87433,6,0,P|375:296|325:347,1,100
190,327,87794,2,0,P|152:311|101:261,1,100
121,126,88154,2,0,P|137:88|187:37,1,100
302,104,88514,2,0,L|419:103,1,100
210,104,88875,2,0,L|93:103,1,100
296,268,89235,2,0,P|256:244|212:268,1,100
256,328,89596,1,0,0:0:0:0:
110,103,89776,1,0,0:0:0:0:
401,103,89956,6,0,L|284:102,1,100
111,103,90316,2,0,L|228:102,1,100
296,268,90677,2,0,P|256:244|212:268,1,100
236,40,91037,2,0,P|260:76|272:28,2,100
108,104,91578,5,0,0:0:0:0:
440,172,91758,2,0,P|404:220|392:268,1,100
160,200,92118,2,0,P|196:152|208:104,1,100
396,56,92478,1,0,0:0:0:0:
116,56,92659,1,0,0:0:0:0:
396,56,92839,6,0,L|396:168,1,100
392,332,93199,2,0,L|280:332,1,100
120,52,93560,2,0,L|232:52,1,100
116,328,93920,2,0,L|116:216,1,100
256,192,94280,1,0,0:0:0:0:
408,224,94460,2,0,B|368:192|368:192|408:164,2,100
256,192,95001,1,0,0:0:0:0:
104,224,95181,2,0,B|144:192|144:192|104:164,1,100
256,36,95542,5,0,0:0:0:0:
408,224,95722,1,0,0:0:0:0:
104,224,95902,2,0,B|144:220|144:288|220:272,1,100
88,324,96262,1,0,0:0:0:0:
408,224,96442,2,0,B|368:220|368:288|292:272,1,100
424,324,96802,1,0,0:0:0:0:
256,36,96983,2,0,L|256:148,1,100
256,348,97343,1,0,0:0:0:0:
256,348,97523,2,0,L|256:236,1,100
156,124,97884,2,0,B|104:100|104:100|56:96,1,100
356,124,98244,2,0,B|408:100|408:100|456:96,2,100
