osu file format v5

[General]
AudioFilename: DJ Sammy-Heaven(techno).mp3
AudioLeadIn: 0
PreviewTime: -1
Countdown: 1
SampleSet: Normal

[Metadata]
Title:Heaven (Techno Remix)
Artist:Dj Sammy
Creator:Rolled
Version:Hard

[Difficulty]
HPDrainRate:6
CircleSize:5
OverallDifficulty:7
SliderMultiplier:1.4
SliderTickRate:1

[Events]
//Background and Video events
//Break Periods
2,43353,46601
//Storyboard Layer 0 (Background)
//Storyboard Layer 1 (Failing)
//Storyboard Layer 2 (Passing)
//Storyboard Layer 3 (Foreground)
//Storyboard Sound Samples
//Background Colour Transformations
3,100,0,0,0

[TimingPoints]
1420,434.782608695655,4,1,0,100
46632,434.782608695654,4,2,0,100
59980,434.782608695652,4,2,0,100
77808,434.782608695652,4,1,0,69
119110,434.782608695652,4,2,0,100
140410,434.782608695652,4,1,0,64
168232,869.565217391304,4,2,0,100
181286,434.782608695652,4,2,0,88
185622,434.782608695652,4,1,0,64
199538,434.782608695652,4,2,0,100

[Colours]
Combo1 : 255,188,121
Combo2 : 152,218,254
Combo3 : 255,113,113
Combo4 : 157,255,157

[HitObjects]
328,312,15333,1,4
328,168,15767,1,0
208,96,16202,1,0
120,152,16528,1,0
120,256,16854,1,0
176,288,17072,1,0
456,32,18811,5,4
352,128,19246,1,0
352,264,19680,1,0
272,336,20006,1,0
168,320,20333,1,0
168,248,20550,1,0
256,24,22289,5,4
256,160,22724,1,0
360,256,23159,2,0,B|232:256,1,105
152,256,23811,2,0,B|256:256,1,70
40,272,25767,5,4
160,200,26202,1,0
288,144,26637,1,0
344,232,26963,1,0
328,336,27289,1,0
256,336,27506,5,0
256,264,27724,5,0
256,192,27941,5,0
256,120,28159,5,0
256,48,28376,6,4,B|256:8,8,35
256,184,29680,5,0
256,320,30115,1,0
152,288,30441,1,0
152,184,30767,1,0
152,112,30985,1,0
256,24,31419,1,0
368,112,31854,1,0
368,216,32180,1,0
264,216,32506,1,0
264,144,32724,5,4
120,144,33159,1,4
120,280,33593,5,0
224,280,33919,2,0,B|360:280,1,105
400,280,34463,1,0
400,136,34898,1,0
288,48,35333,1,0
216,48,35550,1,0
144,48,35767,1,0
72,48,35985,1,0
72,120,36202,1,4
72,256,36637,5,4
208,256,37072,6,0,B|208:128,1,105
296,96,37724,1,0
368,96,37941,1,0
368,232,38376,1,0
272,328,38811,1,0
168,328,39137,1,0
96,248,39463,1,0
96,176,39680,1,0
96,32,40115,1,0
232,32,40550,5,0
232,136,40876,1,0
328,136,41202,1,0
328,208,41419,6,0,B|328:280,1,70
256,280,41854,2,0,B|256:200,1,70
184,208,42289,2,0,B|184:296,1,70
120,248,42724,2,4,B|80:248,4,35
80,216,47501,6,0,B|136:320|336:312,1,280
352,248,48588,1,0
376,184,48805,1,0
368,112,49023,1,2
256,24,49458,1,2
152,112,49892,1,0
128,176,50110,1,0
152,240,50327,1,0
448,280,53153,5,0
448,208,53371,1,0
448,136,53588,2,0,B|392:120|350:140|376:192|395:269|378:301|345:302|256:296,1,280
144,288,54892,1,0
144,288,55110,1,0
304,40,56631,5,0
304,112,56849,1,0
304,184,57066,2,0,B|304:240|256:264|200:264,1,140
184,192,57718,2,0,B|109:216|103:260|108:316|208:336,1,210
312,264,58805,1,0
64,48,61284,6,0,B|96:136|104:136|120:136|160:112|192:104|208:120|240:224,1,280
304,200,62371,1,0
320,264,62588,1,0
368,216,62806,1,0
440,96,63240,1,0
376,64,63458,1,0
304,56,63675,2,0,B|248:112|176:112,1,140
160,304,66936,5,0
216,264,67153,1,0
160,216,67371,2,0,B|112:160|176:64,2,140
272,136,68675,1,0
344,136,68893,1,0
440,320,70414,5,0
440,176,70849,1,0
320,248,71284,1,0
248,248,71501,1,0
64,40,73893,5,0
112,88,74110,1,0
168,136,74327,2,0,B|264:136,1,70
472,144,75197,1,0
256,192,75632,12,4,77808
256,192,78025,5,0
256,112,78242,1,0
256,32,78460,2,0,B|424:32,1,140
472,32,79112,2,0,B|516:99|472:192,1,140
328,144,79981,5,0
176,152,80416,1,0
80,216,80742,5,4
80,216,80851,5,0
144,256,81068,1,0
224,256,81286,2,0,B|272:208|312:280|392:248,1,140
344,176,81938,1,0
448,56,82373,1,0
448,128,82590,1,0
448,280,83025,1,0
296,288,83460,5,0
176,192,83894,1,0
232,88,84221,5,4
232,88,84329,5,0
312,88,84547,1,0
312,160,84764,2,0,B|360:232|360:248|344:256|240:304,1,210
128,200,85851,1,0
128,120,86068,2,0,B|288:120,1,140
400,32,86938,2,4,B|400:200,1,140
320,176,87590,5,0
240,176,87808,1,0
256,192,88025,12,0,89981
144,296,91503,1,0
200,240,91721,1,0
256,192,91938,1,0
320,56,92373,2,4,B|224:24|152:72|184:88,1,140
128,120,93025,1,0
128,120,93460,1,4
128,272,93894,5,0
280,272,94329,1,0
376,208,94655,5,4
376,208,94764,5,0
376,128,94981,1,0
376,48,95199,2,0,B|296:32|232:112,1,140
304,144,95851,2,0,B|288:200|232:216|184:208,1,140
192,128,96503,1,0
192,128,96938,1,0
40,128,97373,5,0
112,264,97808,1,0
224,264,98134,1,4
224,264,98242,5,0
304,264,98460,1,0
376,264,98677,1,0
344,192,98894,1,0
344,112,99112,1,0
344,32,99329,2,0,B|282:9|236:51|276:141|277:186|224:184,1,210
168,184,100199,1,0
168,256,100416,5,0
248,256,100634,1,0
400,256,101068,1,4
320,120,101503,5,0
320,197,101721,1,0
320,273,101938,1,0
256,192,102155,12,4,105634
256,48,106068,5,4
256,200,106503,1,0
368,200,106829,1,0
312,96,107155,1,0
312,176,107373,2,4,B|312:256,4,70
192,176,108568,5,0
192,288,108894,1,0
272,288,109112,2,4,B|352:288,3,70
416,288,109981,1,0
416,168,110308,1,0
416,48,110634,1,0
336,48,110851,5,0
184,48,111286,1,0
256,184,111721,1,4
256,184,111829,5,0
256,264,112047,1,4
256,264,112155,5,0
256,336,112373,1,0
176,336,112590,6,0,B|72:232,1,140
208,128,113460,2,0,B|223:98|207:66|183:50|128:72,1,105
80,144,114112,1,0
144,192,114329,1,0
296,200,114764,5,0
432,128,115199,1,0
432,200,115416,1,0
432,272,115634,1,0
432,344,115851,1,0
352,344,116068,5,0
200,344,116503,1,0
88,240,116938,5,0
88,168,117155,1,0
160,168,117373,1,0
160,240,117590,1,0
224,208,117808,2,0,B|304:208,3,70
360,224,118677,6,0,B|360:168,8,35
424,224,119762,1,0
424,296,119979,1,0
352,296,120196,1,0
296,248,120414,1,0
224,248,120631,1,0
224,248,120740,5,0
152,248,120957,1,0
152,248,121066,5,0
88,216,121283,5,0
88,144,121501,1,0
120,80,121718,1,0
192,80,121936,1,0
264,80,122153,1,0
336,80,122370,1,0
336,80,122479,5,0
408,80,122696,1,0
408,80,122805,5,0
408,152,123023,6,0,B|400:232|365:340|200:312,1,280
72,80,124762,1,0
128,112,124979,1,0
168,56,125196,1,0
224,96,125414,1,0
256,232,125849,1,0
296,288,126066,1,0
336,232,126283,1,0
368,288,126501,1,0
408,232,126718,1,0
80,104,129544,5,0
80,184,129762,1,0
80,264,129979,2,0,B|176:224|240:264,1,140
216,168,130631,1,0
464,168,131283,1,0
376,168,131501,1,0
256,56,132805,5,0
256,136,133023,1,0
256,304,133457,2,0,B|144:200,1,140
152,120,134110,1,0
232,112,134327,2,0,B|344:216,1,140
392,152,134979,1,0
448,88,135196,2,0,B|344:-24,1,140
288,40,135849,1,0
80,312,136501,5,0
80,224,136718,1,0
80,136,136936,1,0
80,48,137153,2,0,B|176:32|272:152,1,210
256,192,138457,12,0,139979
312,56,140410,1,0
368,120,140627,1,0
296,168,140844,1,0
232,104,141062,2,0,B|72:104,1,140
88,184,141714,1,0
208,304,142149,1,0
344,208,142583,5,0
424,56,143018,1,4
424,56,143127,5,0
336,56,143344,1,4
336,56,143453,5,0
248,56,143670,1,0
160,56,143888,2,0,B|224:120|144:192,1,140
104,112,144540,2,0,B|48:176|120:248,1,140
168,176,145192,2,0,B|224:256|136:312,1,140
320,304,146062,5,0
432,184,146496,1,4
432,184,146605,5,0
432,96,146823,1,4
432,96,146931,5,0
344,96,147149,1,0
256,96,147366,1,0
256,96,147583,1,0
168,96,147801,1,0
168,176,148018,2,0,B|280:176|320:240,1,140
272,296,148670,1,0
120,224,149105,1,0
272,296,149540,5,2
120,224,149975,1,2
184,168,150192,1,0
248,120,150410,1,0
312,72,150627,1,0
256,192,150736,12,4,153453
464,312,154105,1,0
464,224,154323,1,0
416,152,154540,2,0,B|376:168|347:195|425:280|352:288,1,140
208,280,155410,1,0
208,192,155627,1,0
368,240,156062,1,0
368,72,156496,5,0
200,72,156931,1,4
200,72,157040,5,0
112,72,157257,1,4
112,72,157366,5,0
112,152,157583,1,0
192,152,157801,2,0,B|268:201|192:280,1,140
288,272,158453,2,0,B|339:196|280:136,1,140
288,56,159105,1,0
288,56,159540,1,0
456,56,159975,5,0
456,224,160410,1,4
456,224,160518,5,0
368,224,160736,1,4
368,224,160844,5,0
280,224,161062,1,0
216,160,161279,2,0,B|272:128|241:62|192:52|167:66|140:80|120:136,1,210
368,48,162583,1,0
408,120,162801,1,0
240,152,163236,5,0
336,288,163670,1,0
168,296,164105,5,0
112,232,164323,1,0
176,184,164540,1,0
104,128,164757,1,0
184,80,164975,5,0
256,24,165192,1,0
320,88,165410,1,0
256,152,165627,1,0
320,216,165844,1,0
392,160,166062,1,0
448,224,166279,1,0
384,288,166496,2,0,B|384:328,16,35
112,288,169536,5,0
112,216,169753,1,0
112,144,169971,2,0,B|216:112|240:136,1,105
352,280,171275,1,0
352,208,171492,1,0
392,72,173014,5,0
320,72,173232,1,0
248,80,173449,2,0,B|296:160|224:248,1,175
160,232,174753,1,0
128,168,174971,2,0,B|56:176|32:216|40:272|59:320|224:352,1,315
344,88,178232,5,0
344,160,178449,1,0
344,232,178666,2,0,B|318:277|264:272,1,70
216,272,179318,2,0,B|177:266|144:240,1,70
96,120,180188,2,0,B|144:42|280:40,1,175
384,40,181720,5,0
384,176,182155,1,0
240,176,182590,1,0
96,176,183025,1,0
96,312,183459,1,0
232,312,183894,2,0,B|328:312,1,70
368,312,184329,2,0,B|432:248,1,70
416,192,184764,2,0,B|416:104,1,70
376,64,185199,2,0,B|336:40,4,35
264,144,186056,5,0
120,144,186491,1,4
120,144,186600,5,0
120,216,186817,1,4
120,216,186926,5,0
192,216,187143,1,4
192,216,187252,5,0
192,216,187361,5,0
264,216,187578,1,0
336,216,187795,1,0
336,144,188013,1,0
408,144,188230,1,4
408,144,188339,5,0
408,216,188556,1,4
408,216,188665,5,0
408,288,188882,1,4
408,288,188991,5,0
408,288,189100,5,0
336,288,189317,1,0
256,288,189535,1,0
176,288,189752,1,0
128,232,189969,5,4
128,96,190295,1,4
248,168,190622,1,4
336,168,190839,1,4
256,344,191274,5,0
248,144,191708,1,4
248,144,191817,5,0
248,48,192035,1,4
248,48,192143,5,0
328,104,192361,1,4
328,104,192469,5,0
328,104,192578,5,0
336,296,193013,1,0
136,296,193448,5,0
136,208,193665,1,0
136,120,193882,1,0
136,32,194100,1,0
224,32,194317,2,0,B|320:32,3,70
384,32,195187,5,0
384,120,195404,1,0
384,208,195622,1,0
384,296,195839,1,0
296,296,196056,2,0,B|200:296,7,70
256,192,197795,12,0,199538
256,192,199755,5,0
432,192,200190,2,0,B|408:272|320:304,1,140
272,296,200842,1,0
128,296,201277,1,0
136,152,201711,5,0
256,88,202146,1,0
256,88,202255,5,0
304,136,202472,1,0
304,136,202581,5,0
376,136,202798,1,0
336,192,203016,2,0,B|384:280|280:312,1,140
280,240,203668,1,0
136,240,204103,1,0
136,240,204320,1,0
136,96,204755,1,0
248,176,205190,5,0
384,176,205624,1,0
384,176,205733,5,0
384,248,205951,1,0
384,248,206059,5,0
312,248,206277,1,0
256,288,206494,1,0
200,328,206711,1,0
128,328,206929,1,0
80,280,207146,2,0,B|56:200|104:120|144:80|224:64|248:64,1,280
256,88,209320,5,0
256,88,209646,1,0
256,192,209972,12,0,213451
