osu file format v6

[General]
AudioFilename: Dj Raaban - Anima Libera (Remix).mp3
AudioLeadIn: 3000
PreviewTime: 37838
Countdown: 1
SampleSet: Soft
StackLeniency: 0.7
Mode: 0
LetterboxInBreaks: 1

[Editor]
DistanceSpacing: 0.899999976158142
BeatDivisor: 4
GridSize: 8

[Metadata]
Title:Anima Libera (ReMiX)
Artist:Dj Raaban
Creator:lthefuryl
Version:Champion
Source:
Tags:EEeee

[Difficulty]
HPDrainRate:8
CircleSize:5
OverallDifficulty:8
SliderMultiplier:1.4
SliderTickRate:0.5

[Events]
//Background and Video events
0,0,"wallpaper-blue-girl-anime.jpg"
//Break Periods
2,89173,89567
2,102278,111914
//Storyboard Layer 0 (Background)
//Storyboard Layer 1 (Fail)
//Storyboard Layer 2 (Pass)
//Storyboard Layer 3 (Foreground)
//Storyboard Sound Samples
//Background Colour Transformations
3,100,0,0,0

[TimingPoints]
1200,336.040324838981,4,2,0,100,1,0
32628,-100,4,2,0,0,0,0
33132,-100,4,2,0,0,0,0
37840,336.040324838981,4,2,0,100,1,0
70155,336.040324838981,4,2,0,100,1,0
90154,-100,4,2,0,100,0,0
101713,-50,4,2,0,100,0,0
102133,-100,4,2,0,100,0,0
125265,-100,4,2,0,100,0,1
157605,-100,4,2,0,100,0,0

[Colours]
Combo1 : 0,255,255
Combo2 : 0,158,234
Combo3 : 255,255,255
Combo4 : 255,0,0
Combo5 : 128,0,64

[HitObjects]
72,296,695,1,0
88,264,863,1,0
104,232,1031,1,0
136,232,1199,1,2
168,232,1368,2,0,B|200:152,1,70,0|2
193,167,1704,1,0
193,167,1872,1,0
288,128,2040,5,0
320,128,2208,1,0
320,160,2376,1,0
352,160,2544,1,2
384,160,2712,2,0,B|448:224,1,70,0|2
433,209,3048,1,0
433,209,3216,1,0
392,328,3552,5,0
344,280,3888,1,0
280,280,4224,1,0
280,248,4392,1,0
216,248,4728,1,0
168,288,5064,2,0,B|16:288,1,140,2|0
32,160,5736,1,2
304,64,6072,5,0
336,64,6240,1,0
368,64,6408,1,0
400,64,6576,1,2
432,64,6744,1,0
400,64,6912,1,2
432,64,7080,1,0
464,64,7248,1,0
416,160,7416,5,0
392,184,7584,1,0
416,208,7752,1,0
392,232,7920,1,2
416,256,8088,1,0
392,280,8256,1,2
80,160,8928,5,0
120,112,9264,1,0
160,64,9601,2,2,B|240:64,1,70
229,65,10105,1,0
280,104,10441,1,0
328,64,10777,1,0
368,112,11113,1,8
368,176,11449,5,0
392,192,11617,1,0
408,216,11785,1,0
408,248,11953,1,0
392,272,12121,1,0
368,288,12289,1,8
288,312,12793,5,0
256,312,12961,1,0
224,312,13129,1,0
224,280,13297,1,0
192,280,13465,2,0,B|192:200,1,70,0|8
72,48,14305,5,0
112,96,14641,1,0
176,96,14977,1,0
144,96,15145,1,0
144,160,15481,1,0
144,96,15817,1,8
144,64,15985,1,0
144,32,16153,1,0
208,32,16489,1,8
456,88,16825,5,0
440,112,16993,1,0
424,136,17161,1,0
400,112,17329,1,0
376,136,17497,1,0
352,112,17665,1,8
336,208,18170,6,0,B|336:280,1,70
368,248,18506,2,0,B|368:320,1,70,0|0
367,318,18842,1,0
368,352,19010,1,8
96,312,19682,5,0
144,272,20018,1,0
96,232,20354,1,0
96,200,20522,1,8
144,160,20858,1,0
208,160,21194,1,0
256,120,21530,1,0
320,120,21866,1,8
288,64,22202,5,0
256,64,22370,1,0
224,64,22538,1,0
192,64,22706,1,0
160,64,22874,2,8,B|80:64,1,70
264,168,23546,5,0
264,200,23714,1,0
264,232,23882,2,8,B|264:320,1,70
264,302,24218,1,0
264,336,24386,1,0
448,72,25058,5,0
408,120,25394,1,2
368,72,25730,1,2
336,72,25898,1,2
296,120,26235,1,0
256,168,26571,1,0
216,120,26907,1,0
176,168,27243,1,8
176,232,27579,5,0
208,232,27747,1,0
240,232,27915,1,0
240,264,28083,1,0
272,264,28251,1,0
272,296,28419,1,8
456,192,28923,5,0
432,216,29091,1,0
408,240,29259,1,0
384,216,29427,1,0
360,192,29595,1,0
328,192,29763,1,8
56,48,30435,5,0
120,48,30771,1,0
88,104,31107,1,0
120,104,31275,1,0
184,104,31611,1,0
184,168,31947,1,0
120,168,32283,1,0
120,232,32619,2,0,B|352:232,1,210,0|0
256,208,33459,12,8,37492
72,64,37840,5,2
112,112,38008,1,0
152,160,38176,1,2
192,208,38344,1,0
224,152,38512,1,2
264,200,38680,5,0
304,248,38848,1,2
344,296,39016,1,0
384,248,39184,2,0,B|432:184,1,70,2|0
464,144,39520,1,2
424,96,39688,1,0
376,56,39856,1,2
312,56,40024,1,0
248,56,40192,5,2
184,56,40360,1,0
136,96,40528,2,0,B|80:152,1,70,2|0
88,208,40864,1,2
128,256,41032,1,0
168,208,41200,1,2
208,256,41368,1,0
248,208,41536,1,2
288,256,41704,1,0
328,208,41872,2,2,B|400:208,1,70
440,256,42208,1,0
480,208,42376,1,0
440,160,42544,2,2,B|336:160,1,70
368,96,42880,5,0
304,96,43048,1,0
304,32,43216,1,2
240,32,43384,1,0
176,32,43552,1,2
112,32,43720,1,0
112,96,43888,1,2
48,96,44056,5,0
48,160,44224,1,2
112,160,44392,1,0
112,224,44560,2,2,B|112:304,1,70
176,296,44896,1,0
216,344,45064,1,0
256,296,45232,1,2
296,344,45400,1,2
336,296,45568,5,0
296,240,45736,1,0
296,176,45904,2,0,B|296:88,1,70,2|0
360,104,46241,1,2
400,152,46409,1,0
440,200,46577,1,2
480,152,46745,1,0
440,104,46913,1,2
400,56,47081,1,0
336,56,47249,2,2,B|264:56,1,70
200,56,47585,1,0
200,120,47753,1,0
136,120,47921,2,2,B|32:120,1,70
64,184,48257,5,2
104,232,48425,1,0
168,232,48593,1,2
208,280,48761,1,0
248,328,48929,1,2
64,184,49433,5,0
104,232,49601,1,2
168,232,49769,1,0
208,280,49937,1,2
248,328,50105,1,0
288,280,50273,1,2
432,72,50945,5,0
304,72,51281,1,0
432,72,51617,2,2,L|360:72,1,70
232,72,52121,1,0
232,312,52457,1,0
368,312,52793,1,0
304,200,53129,1,8
176,200,53465,5,2
136,152,53633,1,0
104,96,53801,1,2
168,96,53969,1,0
208,144,54137,1,2
248,192,54305,1,0
416,104,54810,5,0
456,152,54978,1,2
416,200,55146,1,0
376,152,55314,1,2
344,208,55482,1,0
384,256,55650,1,8
144,336,56322,5,0
80,224,56658,1,0
144,120,56994,2,8,B|216:120,1,70
280,224,57498,1,0
216,336,57834,1,0
280,224,58170,1,0
216,336,58506,1,8
344,336,58842,5,0
384,288,59010,1,2
344,336,59178,1,0
384,288,59346,1,2
424,240,59514,1,0
384,288,59682,1,2
432,104,60186,5,2
392,152,60354,1,0
344,112,60522,1,2
304,160,60690,1,0
264,208,60858,1,2
216,168,61026,1,0
128,256,61698,5,0
216,344,62034,1,0
304,256,62370,2,0,B|384:256,1,70
456,344,62875,1,0
456,216,63211,1,0
376,120,63547,1,0
248,120,63883,1,0
144,40,64219,5,0
104,88,64387,1,0
64,136,64555,2,8,L|112:192,1,70
152,232,64891,1,0
104,272,65059,1,0
264,352,65563,5,0
304,304,65731,1,0
344,256,65899,1,8
296,216,66067,1,8
336,168,66235,1,0
376,120,66403,1,0
64,48,67075,5,0
448,48,67411,1,0
256,192,67747,1,8
256,192,67915,1,8
448,336,68251,1,0
64,336,68587,1,0
256,192,68923,1,0
456,192,69259,1,8
64,192,69595,1,0
440,48,70155,5,8
400,96,70323,1,0
440,144,70491,1,8
400,192,70659,1,0
352,232,70827,1,8
304,192,70995,1,0
280,216,71079,1,0
256,240,71163,1,8
192,240,71331,2,0,B|120:240,1,70,0|8
120,176,71667,5,0
80,120,71835,2,0,L|80:48,1,70,8|0
144,48,72171,1,8
208,48,72339,1,0
240,48,72423,1,0
272,48,72507,1,8
336,48,72675,1,0
400,48,72843,1,8
400,176,73179,1,8
296,344,73515,1,8
192,176,73851,1,8
152,56,74187,5,8
152,56,74355,1,0
152,56,74523,1,8
152,56,74691,1,0
152,56,74859,1,8
152,56,75027,1,0
152,56,75195,1,8
280,56,75531,5,8
344,160,75867,1,8
216,160,76203,1,8
176,208,76371,5,0
160,232,76455,1,0
144,256,76539,1,8
144,320,76707,2,0,L|216:320,1,70,0|8
336,320,77211,1,8
424,232,77547,1,8
376,168,77715,1,0
352,144,77799,1,0
328,120,77883,1,8
280,72,78051,1,0
216,72,78219,1,8
256,208,78387,12,4,79228
120,312,79564,6,0,L|160:240,1,70,8|0
184,200,79900,1,8
216,216,79984,1,0
240,232,80068,1,0
272,176,80236,2,0,L|304:112,1,70,8|0
360,136,80572,1,8
200,88,80908,5,8
72,88,81244,1,8
128,200,81580,1,8
192,200,81748,5,0
208,224,81832,1,0
224,248,81916,1,8
288,248,82084,1,0
328,296,82252,1,8
392,288,82420,1,0
416,264,82504,1,0
440,240,82588,1,8
440,184,82756,2,0,B|440:112,1,70,0|8
440,56,83092,5,0
408,56,83176,1,0
376,56,83260,1,8
312,56,83428,2,0,L|232:56,1,70,0|8
256,208,83764,12,4,84940
232,256,85108,5,0
184,296,85276,1,8
136,256,85444,1,0
136,192,85612,1,8
104,136,85780,1,0
72,80,85948,2,8,B|232:80,1,140
272,80,86452,5,0
312,128,86620,1,8
360,168,86788,2,0,B|360:256,1,70,0|8
408,280,87125,1,0
392,304,87209,1,0
376,328,87293,1,8
312,328,87461,1,0
272,280,87629,1,8
232,232,87797,6,0,L|160:232,1,70,0|8
120,184,88133,1,0
56,184,88301,1,8
88,128,88469,1,0
104,104,88553,1,0
120,80,88637,1,8
184,80,88805,1,0
248,80,88973,1,8
256,192,90317,6,0,B|256:104,1,70,2|0
256,192,90653,2,0,B|312:248,1,70,2|0
256,192,90989,2,0,B|200:248,1,70,2|0
160,288,91325,1,2
120,336,91493,1,0
80,288,91661,1,2
80,224,91829,1,0
112,168,91997,2,0,L|152:104,1,70,2|0
208,80,92333,5,2
272,80,92501,1,0
336,80,92669,1,2
400,80,92837,1,0
440,128,93005,2,0,B|440:224,1,70,2|0
440,256,93341,1,2
400,304,93509,1,0
352,344,93677,1,2
304,304,93845,1,0
352,264,94013,5,2
304,224,94181,1,0
256,264,94349,2,0,B|176:264,1,70,2|0
184,328,94685,2,0,L|112:328,1,70,2|0
112,264,95021,1,2
72,216,95190,1,0
96,192,95274,1,0
120,168,95358,1,2
184,168,95526,1,0
248,168,95694,2,0,L|328:168,1,70,2|0
320,104,96030,1,2
256,104,96198,1,0
424,64,96534,5,0
384,112,96702,1,2
344,160,96870,1,0
304,208,97038,1,2
352,248,97206,1,0
336,272,97290,1,0
320,296,97374,2,0,B|272:360,1,70,2|0
224,320,97710,5,2
184,272,97878,1,0
120,272,98046,1,2
152,216,98214,1,0
184,168,98382,1,2
200,144,98466,1,0
216,120,98550,1,0
232,96,98634,1,2
248,72,98718,1,2
416,272,99390,5,2
384,216,99558,1,0
352,272,99726,1,2
320,216,99894,1,0
288,272,100062,1,2
256,216,100230,1,0
224,272,100398,1,2
160,272,100566,1,0
192,216,100734,1,2
128,216,100902,1,0
96,272,101070,1,2
64,216,101238,1,0
96,160,101406,1,2
136,112,101574,1,0
200,112,101742,2,0,B|296:48|376:48|472:120,1,280
256,192,112664,5,0
208,152,112832,1,0
160,112,113000,1,0
112,72,113168,1,0
48,72,113336,2,0,B|48:152,1,70,0|8
256,192,114008,5,0
304,152,114176,1,0
352,112,114344,1,0
400,72,114512,1,0
464,72,114680,2,0,B|464:152,1,70,0|8
208,232,115520,5,0
160,272,115688,1,0
112,312,115856,2,0,B|32:312,1,70
48,248,116192,5,0
88,200,116360,1,0
128,152,116528,1,0
192,144,116696,2,0,B|264:96|336:152,1,140
384,144,117200,1,0
448,144,117368,1,0
384,144,117536,1,0
448,144,117704,1,0
64,48,118040,5,0
104,96,118208,1,0
144,144,118376,1,0
184,96,118544,1,0
224,144,118712,1,0
264,192,118880,1,8
448,336,119384,5,0
400,296,119552,1,0
352,256,119720,1,0
312,304,119888,1,0
264,264,120056,1,0
216,224,120225,1,8
256,40,120897,5,0
256,344,121233,1,0
456,192,121569,1,0
456,192,121737,1,8
56,192,122073,1,0
256,40,122409,1,0
256,344,122745,1,0
456,192,123081,1,8
56,192,123417,1,0
256,208,123753,12,4,125265
312,64,125433,5,0
264,104,125601,1,2
216,144,125769,1,0
264,184,125937,1,2
216,224,126105,5,0
168,264,126273,1,2
120,304,126441,1,0
168,344,126609,2,2,B|248:344,1,70
304,344,126945,1,2
352,304,127113,1,0
400,344,127281,1,2
448,304,127449,1,0
448,272,127533,1,0
448,240,127617,5,2
448,176,127785,1,0
384,176,127953,2,0,B|328:232,1,70,2|0
272,224,128289,1,2
272,160,128457,1,0
320,120,128626,1,2
368,80,128794,1,0
320,32,128962,1,2
272,72,129130,1,0
232,120,129298,2,2,B|168:184,1,70
136,216,129634,1,0
184,256,129802,1,0
184,320,129970,2,2,B|80:320,1,70
48,320,130306,5,2
48,256,130474,1,0
48,192,130642,1,2
48,128,130810,1,0
48,64,130978,1,2
112,64,131146,1,0
112,96,131230,1,0
112,128,131314,1,2
176,128,131482,5,0
176,96,131566,1,0
176,64,131650,1,2
240,64,131818,1,0
240,128,131986,2,2,B|240:208,1,70
304,200,132322,1,2
344,152,132490,1,0
384,104,132658,1,2
400,80,132742,1,0
416,56,132826,1,0
464,104,132994,5,2
464,136,133078,1,0
464,168,133162,1,0
464,232,133330,2,2,B|464:304,1,70
400,304,133666,1,2
336,304,133834,1,0
368,248,134002,1,2
304,248,134170,1,0
240,248,134338,1,2
176,248,134506,1,0
112,248,134674,2,2,B|112:328,1,70
48,312,135010,1,0
48,248,135178,1,0
48,184,135346,2,2,B|128:184,1,70
120,120,135682,5,2
160,72,135850,1,0
200,120,136018,1,2
240,72,136186,1,0
280,120,136354,1,2
104,248,136859,5,0
160,328,137027,1,2
224,248,137195,1,0
280,328,137363,1,2
344,248,137531,1,0
400,328,137699,1,2
464,248,137867,1,0
432,80,138371,5,2
360,184,138707,1,2
432,288,139043,1,8
368,288,139211,1,8
240,288,139547,1,0
368,288,139883,1,0
304,184,140219,1,0
176,184,140555,1,8
240,72,140891,5,0
208,128,141059,1,2
176,184,141227,1,0
120,152,141395,1,2
88,208,141563,1,0
56,264,141731,1,2
56,328,141899,1,0
56,328,141983,1,0
56,328,142067,1,0
120,328,142235,5,0
160,376,142403,1,2
200,328,142571,1,0
160,280,142739,1,2
200,232,142907,1,0
240,184,143075,1,2
120,48,143747,5,2
248,48,144083,1,2
184,152,144419,1,8
184,88,144587,1,8
184,216,144923,1,0
56,216,145260,1,0
120,320,145596,1,0
248,320,145932,1,8
312,216,146268,5,0
352,168,146436,1,2
392,120,146604,1,0
424,176,146772,1,2
384,224,146940,1,0
448,240,147108,1,2
432,48,147612,5,0
400,104,147780,1,2
368,48,147948,1,0
336,104,148116,1,2
304,160,148284,1,0
240,160,148452,1,2
64,336,149124,5,2
152,248,149460,1,2
240,336,149796,2,8,B|320:336,1,70
400,248,150300,1,0
272,248,150636,1,0
336,136,150972,1,0
208,136,151308,1,8
80,136,151644,5,0
80,200,151812,1,2
80,264,151980,1,0
80,328,152148,1,2
136,296,152316,1,0
136,232,152484,1,2
320,232,152988,5,0
384,232,153156,1,2
384,168,153324,1,0
320,168,153493,1,2
320,232,153661,1,0
384,232,153829,1,2
256,208,153997,12,4,157525
