osu file format v9

[General]
AudioFilename: Dj Mns vs. E-Maxx - Nostra culpa .mp3
AudioLeadIn: 0
PreviewTime: 163
Countdown: 0
SampleSet: Normal
StackLeniency: 1
Mode: 0
LetterboxInBreaks: 1

[Editor]
DistanceSpacing: 1
BeatDivisor: 4
GridSize: 4

[Metadata]
Title:Nostra culpa
Artist:Dj Mns vs E-Maxx
Creator:ReVeNg3r
Version:Insane
Source:
Tags:

[Difficulty]
HPDrainRate:7
CircleSize:5
OverallDifficulty:7
ApproachRate:9
SliderMultiplier:1.8
SliderTickRate:2

[Events]
//Background and Video events
0,0,"planet.jpg"
//Break Periods
//Storyboard Layer 0 (Background)
//Storyboard Layer 1 (Fail)
//Storyboard Layer 2 (Pass)
//Storyboard Layer 3 (Foreground)
//Storyboard Sound Samples
//Background Colour Transformations
3,100,163,162,255

[TimingPoints]
1854,422.535211267606,4,1,0,65,1,0
8122,-66.6666666666667,4,1,0,65,0,0
8756,-100,4,1,0,65,0,0
15797,-100,4,2,0,65,0,0
23403,-100,4,1,0,65,0,0
26255,-200,4,1,0,65,0,0
26889,-100,4,1,0,65,0,0
58156,-66.6666666666667,4,1,0,65,0,0
61114,-100,4,1,0,65,0,0
79600,-100,4,1,0,65,0,1
92910,-100,4,1,0,65,0,0
108332,-100,4,1,0,65,0,1
110762,-200,4,1,0,65,0,1
111396,-100,4,1,0,65,0,1
121008,-100,4,1,0,65,0,0
121854,-100,4,1,0,65,0,1
131994,-100,4,1,0,65,0,0
143825,-200,4,1,0,50,0,1
150375,-100,4,1,0,65,0,0
176994,-100,4,1,0,65,0,0
177311,-100,4,1,0,45,0,0
177628,-100,4,1,0,25,0,0
178473,-100,4,2,0,5,0,0

[Colours]
Combo1 : 192,192,192
Combo2 : 5,240,5
Combo3 : 5,5,240
Combo4 : 240,5,5
Combo5 : 255,150,0

[HitObjects]
32,32,1854,2,0,B|136:32,1,90,2|2
120,120,2276,2,0,B|32:120,1,90
32,208,2699,1,0
80,208,2804,1,0
128,208,2910,1,0
128,296,3121,2,0,B|32:296,2,90,0|0|2
216,296,3755,5,2
304,296,3966,1,0
392,296,4177,1,0
399,205,4389,2,0,B|369:179|409:154,2,45
392,296,4811,2,0,B|304:296,2,90,0|0|2
304,296,5445,5,2
216,296,5656,1,0
128,296,5868,1,0
40,296,6079,1,0
40,248,6184,1,0
40,200,6290,1,0
40,112,6501,2,0,B|16:152|104:120|80:168,2,90,0|0|2
128,112,7135,5,2
128,200,7346,1,0
208,160,7558,1,0
208,248,7769,1,4
208,248,7875,1,4
400,312,8192,2,0,B|488:288|528:176|448:80,1,269.999991953373
392,32,8825,5,2
304,56,9037,2,0,B|192:56,1,90
120,56,9459,2,0,B|64:56,1,45
48,88,9670,2,0,B|48:152,1,45
24,168,9882,2,0,B|24:264,1,90
24,344,10304,5,2
112,344,10515,1,2
200,344,10727,1,0
200,256,10938,1,0
112,344,11149,1,0
80,312,11255,1,0
48,280,11361,1,0
136,256,11572,1,0
104,160,11783,2,0,B|104:56,1,90,0|2
192,72,12206,6,0,B|192:168,1,90,2|0
240,88,12628,2,0,B|280:128|232:176,1,90
208,200,12945,2,0,B|208:248,1,45
208,336,13262,2,0,B|312:368,1,90
384,352,13684,6,0,B|360:280|288:328,1,90,2|2
224,296,14107,2,0,B|152:312|152:224,1,90
88,192,14530,2,0,B|88:168,2,22.5,2|0|2
408,192,14952,2,0,B|408:160,8,22.5
32,48,16220,5,0
120,48,16431,1,0
208,48,16642,1,0
208,48,16748,1,0
208,48,16853,1,0
208,136,17065,1,8
208,224,17276,2,0,B|112:176,3,90
376,288,18544,6,0,B|336:264,2,45,0|0|8
344,200,18966,2,0,B|424:136|376:48|272:16|224:128,1,270,0|0
48,56,20234,6,0,B|104:56,1,45
96,104,20445,2,0,B|96:192,1,90,8|0
96,288,20868,2,0,B|168:288,1,45
280,288,21290,2,0,B|370:288,2,90
256,192,22135,12,0,23403
32,40,23825,6,0,B|128:40,2,90,2|2|0
32,128,24459,1,2
32,128,24670,2,0,B|122:128,2,90,2|2|0
36,220,25304,1,2
304,216,25727,1,2
304,128,25938,1,2
304,40,26149,1,2
224,40,26361,2,2,B|136:40,1,90
16,136,27206,5,2
16,224,27417,1,2
16,136,27628,1,0
16,224,27839,2,0,B|-16:288|48:320,2,90,2|2|0
104,248,28473,1,2
192,264,28684,2,0,B|288:336|360:224,2,180,2|0|2
192,264,29741,1,2
480,336,30586,6,0,B|480:224,1,90,2|2
480,156,31008,1,0
480,64,31220,1,2
390,64,31431,2,0,B|270:64,1,90,2|0
300,154,31854,1,0
300,244,32065,2,0,B|116:244,1,180,2|2
120,152,32699,1,2
120,244,32910,1,2
119,333,33121,2,0,B|311:333,2,180,2|0|2
28,336,34177,6,0,B|28:128,1,180,2|2
28,156,34811,1,2
118,156,35023,1,0
118,245,35234,1,2
118,334,35445,2,0,B|174:262|174:262|230:350,2,180,2|0|2
28,336,36501,2,0,B|-76:280|100:248|-12:184,1,180,2|0
256,192,37346,12,0,39037
256,104,39882,6,0,B|256:312,1,180
256,192,40727,12,0,42417
256,192,43262,5,0
256,192,44107,12,0,45797
312,192,46642,6,0,B|256:216|256:216|264:160|264:160|192:200,1,180
256,192,47487,12,0,49177
256,192,50023,12,0,51290
48,48,51713,6,0,B|160:48,1,90
320,56,52346,1,0
320,328,52980,6,0,B|208:328,3,90
136,328,53825,1,0
136,234,54037,1,0
136,144,54248,2,0,B|136:264,1,90
224,240,54670,6,0,B|336:240,1,90
312,152,55093,2,0,B|312:264,1,90
312,328,55515,2,0,B|312:240,1,90
312,238,55938,1,0
232,200,56149,2,0,B|176:160,2,45
248,112,56572,2,0,B|248:16,1,90
248,22,56994,2,0,B|144:56|400:56|248:112,1,180
249,201,57628,1,0
249,201,58051,1,0
32,32,58473,5,0
40,304,58896,1,0
288,192,59318,1,0
80,24,59741,1,0
176,272,60163,1,0
16,56,60586,1,0
240,208,61008,1,0
384,184,61220,6,0,B|416:152,2,45
288,280,61642,2,0,B|232:336,2,45
168,216,62065,1,0
288,120,62487,6,0,B|288:28,2,90
376,120,63121,2,0,B|188:120,1,180
196,120,63755,1,0
196,120,63966,1,0
196,120,64072,1,0
196,120,64177,1,0
196,120,64283,1,0
196,120,64389,5,4
72,176,64706,1,4
72,224,64811,1,0
160,200,65023,1,0
336,224,65445,1,0
248,224,65656,1,0
248,224,65762,1,0
248,176,65868,1,0
248,264,66079,1,0
472,328,66501,6,0,B|472:208,1,90
472,144,66924,1,0
472,56,67135,1,0
384,56,67346,2,0,B|272:56,2,90,8|0|0
294,56,67980,1,0
294,56,68086,1,0
294,56,68192,1,0
208,56,68403,6,0,B|24:56,1,180
32,144,69037,1,8
4,228,69248,1,0
32,320,69459,2,0,B|224:320,1,180
304,320,70093,1,0
256,320,70199,1,0
208,320,70304,1,0
120,320,70515,1,0
120,136,70938,5,0
120,224,71149,1,0
208,224,71361,1,0
208,136,71572,1,0
208,136,71783,1,0
208,224,71994,1,0
120,224,72206,1,0
120,136,72417,1,0
168,312,72839,1,4
344,328,73262,6,0,B|344:232,1,90,2|0
344,238,73579,1,0
344,238,73684,1,2
344,238,73896,2,0,B|344:136,1,90,0|0
432,152,74318,2,0,B|432:176,4,22.5,2|0|0|0|0
280,56,74952,2,0,B|176:56,1,90,2|0
191,56,75269,1,0
191,56,75375,1,0
104,56,75586,2,0,B|40:48|40:112,1,90,2|0
40,192,76008,2,0,B|40:224,4,22.5,2|0|0|0|0
32,368,76431,6,0,B|32:248,1,90,0|2
88,352,76854,2,0,B|88:240,1,90,0|2
144,336,77276,2,0,B|144:232,1,90,2|0
200,320,77699,2,2,B|200:136,1,180
256,304,78332,2,0,B|256:192,1,90,2|8
312,288,78755,2,0,B|312:184,1,90,2|8
368,264,79177,2,0,B|368:152,1,90,2|8
256,192,79600,5,4
176,160,79811,1,0
96,112,80023,2,0,B|48:88,3,45
96,112,80445,2,0,B|56:208,1,90
32,280,80868,2,2,B|136:328,1,90
148,236,81290,5,2
148,236,81501,1,2
184,316,81713,2,0,B|224:300,3,45
272,304,82135,2,0,B|272:200,1,90
360,200,82558,2,2,B|408:160|360:104,1,90
288,80,82980,6,2,B|196:80,1,90
248,160,83403,1,0
248,160,83508,1,0
248,160,83614,1,0
248,160,83720,1,0
248,160,83825,2,0,B|128:160,1,90
80,112,84248,1,2
80,200,84459,6,0,B|80:320,2,90,2|2|2
168,192,85093,1,0
256,192,85304,1,0
344,192,85515,1,0
432,192,85727,1,0
432,104,85938,1,2
432,16,86149,1,2
344,16,86361,5,2
344,104,86572,1,2
344,192,86783,1,0
256,192,86994,1,0
104,96,87206,5,0
64,176,87417,2,0,B|40:168|32:208,2,45,0|0|4
104,256,87839,1,4
192,256,88051,1,4
104,256,88262,1,4
192,256,88473,1,0
352,152,88896,5,0
336,64,89107,2,0,B|344:24|304:32,2,45,0|0|4
256,24,89530,1,4
176,64,89741,1,4
256,24,89952,1,4
176,64,90163,1,0
408,288,90586,5,0
448,208,90797,2,0,B|472:216|480:176,2,45
408,128,91220,1,4
232,96,91642,2,0,B|184:40|136:120,1,90
88,152,92065,1,0
160,232,92276,1,0
176,320,92487,2,0,B|168:360|208:352,2,45
256,360,92910,1,0
344,328,93121,5,4
344,280,93227,2,0,B|344:200,3,45
344,144,93755,1,0
264,104,93966,1,0
264,192,94177,1,0
184,144,94389,1,0
184,144,94494,1,0
184,144,94600,1,0
160,272,94811,5,8
72,272,95023,1,2
160,272,95234,1,2
160,184,95445,1,8
160,272,95656,1,2
248,272,95868,1,2
160,272,96079,1,0
160,360,96290,1,4
288,192,96501,6,0,B|336:176|328:120,1,90,2|8
256,224,96924,2,0,B|272:272|328:264,1,90,8|2
224,192,97346,2,0,B|176:208|184:264,1,90,2|8
256,160,97769,2,0,B|240:112|184:120,1,90,0|4
128,56,98192,5,2
56,104,98403,1,2
128,56,98614,1,8
128,56,98825,1,8
56,104,99037,1,2
128,56,99248,1,8
136,144,99459,1,2
224,160,99670,1,4
304,112,99882,5,2
392,112,100093,2,0,B|392:216,1,90,2|8
304,200,100515,1,8
304,112,100727,2,0,B|350:97|350:97|393:114,2,90,2|2|2
224,144,101361,1,4
208,264,101572,5,2
120,264,101783,2,0,B|72:264,1,45,8|8
32,264,101994,1,0
40,176,102206,2,0,B|88:128|136:192,1,90,2|2
208,176,102628,1,8
208,264,102839,1,8
240,176,103051,1,2
288,256,103262,6,2,B|392:256,1,90
376,344,103684,2,8,B|280:344,1,90
288,256,104107,2,2,B|288:352,1,90
376,344,104530,2,8,B|376:248,1,90
448,200,104952,5,0
360,200,105163,1,0
296,136,105375,2,0,B|296:88,1,45
296,93,105586,2,0,B|296:48,1,45
260,76,105797,1,0
248,164,106008,1,0
160,148,106220,1,0
148,236,106431,1,0
248,184,106642,5,0
248,184,106748,1,0
248,184,106854,1,0
248,184,106959,1,0
248,184,107065,1,0
248,184,107170,1,0
248,184,107276,1,0
248,184,107382,1,0
248,184,107487,1,0
248,184,107593,1,0
248,184,107699,1,0
248,184,107804,1,0
248,184,107910,1,0
32,328,108332,6,0,B|32:232,2,90,2|2|0
112,330,108966,1,0
112,330,109177,2,0,B|112:240,2,90,2|2|0
168,264,109811,1,2
280,128,110234,1,2
192,128,110445,1,2
104,128,110656,1,2
104,208,110868,2,2,B|104:296,1,90
72,184,111713,5,2
160,184,111924,1,2
72,184,112135,1,0
160,184,112346,2,0,B|224:216|256:152,2,90,2|2|0
184,96,112980,1,2
272,88,113192,2,0,B|336:-8|448:72,2,180,2|0|2
272,176,114248,1,2
448,24,115093,6,0,B|336:24,1,90,2|2
268,24,115515,1,8
176,24,115727,1,2
112,87,115938,2,0,B|112:207,1,90,2|0
202,177,116361,1,8
291,177,116572,2,0,B|291:361,1,180,2|2
200,357,117206,1,10
289,357,117417,1,2
378,357,117628,2,0,B|378:165,2,180,2|8|2
472,248,118684,6,0,B|264:248,1,180,2|2
292,248,119318,1,0
252,328,119530,1,0
188,264,119741,1,2
251,200,119952,2,0,B|179:144|179:144|267:88,2,180,2|0|2
296,276,121008,2,0,B|240:380|208:204|144:316,1,180,2|0
152,304,121537,1,0
152,304,121642,1,0
144,201,121854,6,0,B|88:225|24:153|56:89,1,180
118,26,122487,1,0
208,26,122699,2,0,B|272:2|328:90|264:146,1,180
207,202,123332,1,0
143,265,123544,1,0
232,265,123755,1,0
168,201,123966,2,0,B|168:105,1,90
231,174,124389,2,0,B|287:94,1,90
282,190,124811,2,0,B|386:206,1,90
408,312,125234,5,2
360,312,125339,1,2
312,312,125445,1,2
224,312,125656,1,8
136,312,125868,2,2,B|88:312,2,45
136,224,126290,1,8
225,224,126501,2,2,B|225:272,2,45
315,224,126924,1,8
256,144,127135,1,2
256,144,127241,1,2
256,144,127346,1,2
168,104,127558,1,8
80,104,127769,1,8
24,216,128614,6,2,B|-8:272|48:296,1,90
88,296,128931,2,0,B|160:296,1,45,0|8
224,296,129248,2,2,B|224:200,1,90
224,120,129670,2,0,B|224:72,1,45
224,76,129882,2,2,B|272:20|320:100,1,90,10|2
304,168,130304,2,0,B|304:264,2,90,0|0|8
392,168,130938,2,2,B|440:168|432:120|376:120,1,90
297,120,131361,1,8
252,120,131466,2,0,B|204:120,1,45,0|8
32,216,131994,5,0
120,216,132206,1,0
112,40,132628,5,0
200,40,132839,1,0
200,216,133262,5,0
288,216,133473,1,0
312,40,133896,5,0
352,120,134107,1,0
376,32,134318,1,0
424,112,134530,1,0
256,176,134952,1,0
256,192,137065,12,0,138755
256,280,139600,6,0,B|256:192,1,90
256,100,140023,2,0,B|256:196,1,90
256,192,140445,12,0,141713
256,192,142135,5,0
256,192,142980,1,0
120,72,143825,6,0,B|48:128,1,90
48,176,144459,1,0
80,208,144670,2,0,B|152:272,1,90
192,272,145304,1,0
240,272,145515,1,0
240,320,145727,2,0,B|208:336|256:368,1,45
280,352,146149,2,0,B|416:352,1,135
416,264,147206,5,0
416,216,147417,1,0
416,168,147628,2,0,B|416:104,1,45
368,128,148051,1,0
368,176,148262,1,0
368,224,148473,2,0,B|368:288,1,45
416,264,148896,5,0
416,216,149107,1,0
416,171,149318,1,0
370,171,149530,1,0
370,215,149741,2,0,B|370:255,3,22.5
347,237,150163,1,0
32,48,150586,6,0,B|144:48,1,90,8|0
120,136,151008,1,0
120,224,151220,1,0
120,312,151431,2,0,B|16:312,1,90
30,312,151854,1,2
120,312,152065,1,2
208,312,152276,5,10
296,312,152487,1,2
384,320,152699,2,0,B|448:312|408:224,1,90
392,168,153121,2,0,B|352:136|304:168,1,90
312,256,153544,1,2
312,344,153755,1,2
224,344,153966,5,10
224,256,154177,1,2
224,168,154389,2,0,B|224:112,1,45
224,80,154600,2,0,B|224:24,1,45
184,16,154811,1,0
96,16,155023,1,0
28,184,155445,1,0
56,268,155656,2,0,B|88:324,2,45
144,292,156079,1,0
233,292,156290,1,0
322,292,156501,2,0,B|322:244,2,45
322,201,156924,1,0
152,80,157346,6,0,B|72:80,1,45,8|0
104,128,157558,2,0,B|104:176,1,45
152,176,157769,2,0,B|176:224,1,45
136,240,157980,2,0,B|96:264,1,45
128,296,158192,2,0,B|176:328,1,45
192,280,158403,2,0,B|216:240,2,45,0|0|2
224,312,158720,1,0
272,312,158825,1,2
320,312,158931,1,0
320,312,159037,1,10
480,224,159459,5,0
408,168,159670,1,0
480,224,159882,1,0
392,240,160093,1,0
480,224,160304,1,2
448,304,160515,1,2
480,224,160727,1,10
304,192,161149,6,0,B|216:296|88:160|224:64,1,270
264,152,161994,2,0,B|320:104|400:176|328:240,2,180
264,56,163051,1,0
174,56,163262,1,0
174,145,163473,1,0
84,145,163684,1,0
84,235,163896,1,0
36,308,164107,6,0,B|120:308|120:308|144:268|144:268|168:352|168:352|192:312|192:312|256:312|256:312|268:288|268:288|280:336|280:336|316:312|316:312,1,450
407,311,165375,1,2
496,311,165586,1,2
432,247,165797,1,2
348,212,166008,6,0,B|204:224|300:76|260:4|156:4|124:140,1,360,2|0
80,40,167065,1,2
52,124,167276,1,2
36,212,167487,1,2
36,304,167699,6,0,B|152:372|276:372|380:284,1,360,2|0
469,307,168755,2,0,B|421:243|325:195|189:227,1,270
290,156,169600,2,0,B|452:60,2,180
444,64,170868,5,4
48,216,172346,5,0
48,304,172558,1,4
384,56,174037,5,0
456,112,174248,1,4
192,168,174882,5,0
112,208,175093,1,4
344,344,175727,5,0
344,256,175938,1,4
256,232,176149,1,0
168,264,176361,1,0
88,216,176572,1,0
160,160,176783,5,0
168,116,176889,1,0
180,72,176994,1,0
212,104,177100,1,0
240,136,177206,1,0
256,96,177311,1,0
276,56,177417,1,0
308,88,177523,1,0
256,192,177628,12,0,178473
