osu file format v9

[General]
AudioFilename: Dj Mns vs. E-Maxx - Nostra culpa .mp3
AudioLeadIn: 0
PreviewTime: 163
Countdown: 0
SampleSet: Normal
StackLeniency: 1
Mode: 0
LetterboxInBreaks: 1

[Editor]
DistanceSpacing: 0.9
BeatDivisor: 4
GridSize: 4

[Metadata]
Title:Nostra culpa
Artist:Dj Mns vs E-Maxx
Creator:ReVeNg3r
Version:Hard
Source:
Tags:

[Difficulty]
HPDrainRate:5
CircleSize:4
OverallDifficulty:6
ApproachRate:7
SliderMultiplier:1.3
SliderTickRate:2

[Events]
//Background and Video events
0,0,"planet.jpg"
//Break Periods
2,49413,50390
2,94625,107432
//Storyboard Layer 0 (Background)
//Storyboard Layer 1 (Fail)
//Storyboard Layer 2 (Pass)
//Storyboard Layer 3 (Foreground)
//Storyboard Sound Samples
//Background Colour Transformations
3,100,163,162,255

[TimingPoints]
1854,422.535211267606,4,1,0,65,1,0
37346,-200,4,1,0,65,0,0
50445,-100,4,1,0,65,0,0
79600,-100,4,1,0,65,0,1
92910,-100,4,1,0,65,0,0
108332,-100,4,1,0,65,0,1
131994,-100,4,1,0,65,0,0
136325,-100,4,2,0,65,0,0
143825,-100,4,2,0,65,0,1
150375,-100,4,1,0,65,0,0

[Colours]
Combo1 : 192,192,192
Combo2 : 5,240,5
Combo3 : 5,5,240
Combo4 : 240,5,5
Combo5 : 255,150,0

[HitObjects]
32,32,1854,2,0,B|32:112,2,65,0|0|8
32,148,2699,2,0,B|-8:180|48:220,2,65,0|0|8
114,231,3544,2,0,B|202:231,2,65,0|0|8
31,313,4389,1,0
147,313,4811,1,8
384,220,5234,5,0
342,178,5445,1,0
300,136,5656,2,0,B|212:136,2,65,8|0|0
382,53,6501,1,8
216,56,6924,5,0
164,80,7135,1,0
164,140,7346,1,8
164,257,7769,1,0
164,374,8192,1,8
424,304,8614,6,0,B|424:232,1,65
382,197,9037,2,0,B|352:160|320:208,3,65,8|0|0|0
330,252,9882,2,0,B|330:332,1,65,8|0
271,317,10304,5,0
168,260,10727,1,8
68,200,11149,2,0,B|36:168|72:140,3,65,0|0|8|0
116,172,11994,5,0
198,254,12417,1,8
280,171,12839,1,0
197,88,13262,2,0,B|208:40|132:44,1,65,8|0
103,44,13684,6,0,B|47:108,1,65
60,151,14107,1,8
60,268,14530,2,0,B|180:268,2,97.5
256,192,15375,12,0,16642
72,40,17065,5,0
130,40,17276,1,0
102,91,17487,2,0,B|102:171,2,65
196,140,18543,5,0
196,140,18649,1,0
196,140,18755,1,0
256,140,18966,1,0
228,192,19177,2,0,B|228:276,2,65
336,52,20234,5,0
336,81,20339,1,0
336,110,20445,2,0,B|368:182|456:142,1,130
444,29,21290,1,0
444,87,21501,1,0
256,192,22135,12,0,23403
168,112,23825,5,2
168,112,24037,1,2
51,112,24459,2,0,B|51:192,1,65,0|8
51,294,25093,2,0,B|139:294,1,65,0|8
216,352,25727,2,0,B|216:272,2,65
216,352,26361,1,4
216,352,26783,1,4
376,328,27206,6,0,B|376:240,1,65,2|2
458,180,27839,2,0,B|394:132,1,65,0|8
323,58,28473,1,0
323,58,28684,1,8
205,58,29107,1,0
205,58,29318,1,0
205,58,29530,2,0,B|205:130,2,65,0|4|0
96,160,30586,5,2
72,212,30797,1,2
36,324,31220,2,0,B|124:324,1,65,0|8
217,324,31853,1,0
275,324,32065,1,8
357,241,32487,2,8,B|389:169|325:113,3,130,8|8|8|12
280,144,33966,6,0,B|200:144,1,65,0|8
284,236,34600,2,0,B|212:236,1,65,0|8
101,236,35234,2,8,B|101:196,2,32.5
36,138,35868,1,8
36,110,35973,1,8
36,82,36079,1,8
84,48,36290,1,0
140,40,36501,2,0,B|108:192,1,130,4|0
224,152,37346,6,0,B|192:200|256:256|296:200,2,130,2|2|2
224,152,39459,1,8
224,152,39882,1,4
280,224,40727,6,0,B|304:168|248:136|208:184,2,130,2|2|2
280,224,43262,1,4
368,192,44107,6,0,B|272:232|408:104|312:136,2,130,2|2|6
376,232,46220,1,8
376,280,46642,1,4
256,192,47487,12,4,49177
56,320,51290,5,2
173,320,51713,2,8,B|261:320,1,65
356,320,52346,1,4
444,168,52980,1,2
340,116,53403,2,8,B|310:78|276:120,1,65
296,192,53825,2,0,B|232:192,3,65,0|8|0|0
176,192,54670,5,8
72,184,55093,2,0,B|24:152|96:120,1,65,0|8
176,136,55727,2,8,B|336:136,2,130
240,56,56994,2,0,B|144:80|320:88|208:152,1,130,8|0
184,112,57628,5,2
144,208,58051,1,2
176,304,58473,1,2
280,304,58896,1,2
336,216,59318,1,2
264,144,59741,1,2
168,192,60163,1,2
184,296,60586,1,2
80,296,61008,1,2
64,192,61431,6,0,B|64:120,2,65,2|0|2
168,80,62276,1,2
272,80,62699,1,2
376,80,63121,1,2
272,80,63544,1,2
168,80,63966,2,8,B|168:128,4,32.5
256,192,64811,12,4,66079
40,72,66501,5,8
40,176,66924,1,0
40,176,67135,1,0
40,176,67558,2,2,B|40:376,1,195,2|10
155,348,68614,1,0
155,289,68825,1,0
155,171,69248,2,2,B|355:171,1,195
467,171,70304,1,0
440,224,70515,1,0
328,260,70938,6,0,B|276:324,1,65,0|2
236,280,71361,2,0,B|164:224,1,65,0|0
168,184,71783,2,0,B|212:120,1,65,0|2
260,152,72206,2,0,B|332:200,1,65,0|0
288,96,72839,6,0,B|248:56,4,32.5,0|0|0|0|8
172,80,73684,2,0,B|100:136,1,65
36,200,74318,2,0,B|44:288,1,65,0|2
144,288,74952,6,0,B|108:264|144:220,2,65
180,240,75586,2,0,B|212:168,1,65,8|0
264,192,76008,2,0,B|272:280,1,65,2|0
388,264,76642,5,0
436,156,77065,1,0
384,128,77276,1,0
304,44,77699,5,0
187,44,78121,1,0
128,44,78332,1,0
69,44,78544,1,0
69,102,78755,1,0
69,218,79177,1,0
69,335,79600,6,0,B|144:336,3,65
136,336,80445,1,0
194,336,80656,1,0
252,336,80868,1,8
293,294,81079,1,8
334,335,81290,1,8
400,236,81713,5,0
400,177,81924,1,0
358,135,82135,2,0,B|316:52|224:120,1,130,0|8
191,103,82769,1,8
192,104,82980,1,8
74,104,83403,5,0
74,220,83825,1,8
191,220,84248,1,0
112,308,84670,1,8
228,300,85093,2,0,B|326:184,2,130,0|8|0
112,308,86361,1,8
228,308,86783,5,2
228,190,87206,2,0,B|196:150,4,32.5
286,190,87839,1,0
116,228,88473,1,2
116,110,88896,2,0,B|76:78,4,32.5
164,144,89530,1,0
164,319,90163,5,2
281,319,90586,2,8,B|353:319,1,65
404,216,91220,1,2
312,144,91642,1,8
264,108,91854,1,8
204,108,92065,1,0
164,148,92276,1,10
164,265,92699,1,10
256,192,93121,12,0,94389
32,88,108332,6,2,B|32:368,1,260
84,340,109389,2,0,B|84:264,1,65,2|2
142,275,109811,2,0,B|144:360,1,65
202,339,110234,2,0,B|202:259,1,65,2|2
260,274,110656,2,0,B|260:348,1,65
318,339,111079,2,0,B|318:251,1,65,2|2
480,280,111713,6,2,B|480:0,1,260
432,24,112769,2,0,B|432:112,1,65,2|2
384,88,113192,2,0,B|384:0,1,65
336,24,113614,2,0,B|336:104,1,65,2|2
288,88,114037,2,0,B|288:16,1,65
240,24,114459,2,0,B|240:104,1,65,2|2
88,72,115093,6,2,B|8:96|0:192|56:256|144:216,1,260
128,176,116149,2,0,B|68:161|118:109,1,65,2|2
128,176,116572,2,0,B|188:191|138:243,1,65
184,264,116994,2,0,B|124:249|174:197,1,65,2|2
184,264,117417,2,0,B|244:279|194:331,1,65
240,352,117839,2,0,B|180:337|230:285,1,65,2|2
416,88,118473,6,2,B|496:112|504:208|448:272|360:232,1,260
344,280,119530,2,0,B|404:265|354:213,1,65,2|2
416,264,119952,2,0,B|401:204|349:254,1,65
400,192,120375,2,0,B|340:207|390:259,1,65,2|2
328,212,120797,2,0,B|343:272|395:222,1,65
373,239,121220,1,8
373,239,121431,1,8
392,312,121853,6,0,B|312:312,1,65,2|2
268,312,122276,1,8
226,270,122487,2,0,B|226:190,1,65,0|2
226,146,122910,1,2
226,87,123121,1,8
284,84,123332,2,0,B|336:80|320:144,1,65,0|2
323,180,123755,2,0,B|323:260,1,65,2|8
281,286,124177,1,0
239,327,124389,1,2
351,333,124811,1,8
424,240,125234,5,2
424,181,125445,1,2
424,122,125656,1,8
424,180,125868,2,0,B|336:180,2,65,0|2|2
364,184,126501,2,0,B|364:272,1,65,8|0
312,220,126924,2,0,B|312:308,1,65,2|2
260,260,127346,2,0,B|260:348,1,65,8|2
223,359,127769,1,2
104,144,128614,5,2
104,85,128825,1,2
104,26,129037,2,8,B|152:28,2,32.5
145,67,129459,1,2
186,108,129670,1,2
227,149,129882,2,8,B|263:181,2,32.5
185,190,130304,1,2
143,231,130515,1,2
101,272,130727,2,8,B|68:236,2,32.5
142,313,131149,2,0,B|302:313,1,130,2|8
432,320,131994,6,8,B|432:272,2,32.5
432,261,132417,2,2,B|368:213,1,65
380,163,132839,2,2,B|380:75,1,65
321,98,133262,2,8,B|281:138,2,32.5
279,56,133684,2,2,B|199:56,1,65
214,114,134107,2,2,B|134:114,1,65
90,114,134530,1,10
256,192,135375,12,0,136642
88,88,137065,5,0
88,320,137910,1,0
204,320,138332,1,0
286,237,138755,1,0
404,36,139600,1,0
404,269,140445,5,0
184,192,141290,1,0
184,74,141713,1,0
184,192,142135,1,0
404,268,142980,1,0
252,332,143825,6,0,B|252:224,1,97.5
252,204,144248,2,0,B|252:96,1,97.5
281,106,144670,2,0,B|389:106,1,97.5
378,135,145093,2,0,B|378:259,1,97.5
348,232,145515,5,2
288,232,145727,1,2
229,232,145938,1,2
170,232,146149,1,2
122,261,146361,6,0,B|58:265|58:237|58:189,1,97.5
58,180,146783,2,0,B|54:116|82:116|130:116,1,97.5
139,116,147206,1,2
255,116,147628,1,2
196,216,148051,1,2
140,116,148473,1,2
256,116,148896,5,2
284,168,149107,1,2
316,120,149318,1,2
256,116,149530,1,2
284,168,149741,1,0
284,197,149846,1,0
284,226,149952,1,0
284,255,150058,1,0
284,284,150163,1,2
332,208,150586,5,0
390,208,150797,1,0
390,266,151008,2,0,B|306:266,2,65
331,266,151642,1,0
331,207,151854,1,8
331,148,152065,1,8
331,89,152276,1,8
213,89,152699,6,0,B|133:89,1,65
89,89,153121,2,0,B|57:89|57:89|57:141,1,65
57,180,153544,1,8
57,238,153755,1,8
57,296,153966,1,8
216,192,154389,6,0,B|100:192,1,97.5,2|8
118,192,154811,1,8
256,232,155234,2,0,B|256:348,1,97.5,2|8
256,329,155656,1,8
256,152,156079,2,0,B|256:36,1,97.5,2|8
256,54,156501,1,8
296,192,156924,2,0,B|412:192,1,97.5,2|8
393,192,157346,1,8
393,309,157769,5,8
275,309,158192,1,8
275,192,158614,2,8,B|275:52,1,130
392,62,159459,1,8
274,62,159882,2,8,B|191:56|194:138,1,130
193,254,160727,1,8
193,370,161149,1,8
75,370,161572,2,8,B|75:237,1,130
75,122,162417,5,8
75,238,162839,1,8
164,236,163051,1,0
164,236,163156,1,0
164,236,163262,1,8
222,236,163473,1,0
280,236,163684,1,8
397,236,164107,6,0,B|397:156,1,65
397,112,164530,1,0
340,96,164741,2,0,B|276:56|332:200|332:200|256:200,1,195
282,200,165586,1,0
223,200,165797,6,0,B|148:200,1,65
116,158,166220,1,0
168,128,166431,2,0,B|208:68|208:68|208:192,1,195
208,192,167276,1,0
180,244,167487,5,0
281,271,167910,1,8
281,212,168121,2,0,B|261:207|261:207|281:179|281:179|257:159,1,65,8|8
390,172,168755,1,8
390,113,168966,2,8,B|390:45,1,65
272,48,169600,1,8
213,48,169811,2,8,B|168:48|177:104,1,65
172,208,170445,1,8
76,276,170868,5,4
192,276,171290,2,0,B|244:276,2,32.5,8|8|0
162,276,171607,2,0,B|162:224,2,32.5,8|8|0
132,276,171924,2,0,B|88:276,2,32.5,8|0|8
132,305,172241,2,0,B|132:349,2,32.5,0|8|0
161,305,172558,1,8
256,240,172980,5,8
256,240,173086,1,8
256,181,173297,1,8
256,181,173403,1,8
256,122,173614,1,8
256,63,173825,1,8
197,63,174037,1,8
197,121,174248,1,8
197,237,174670,6,0,B|197:317,2,65,0|0|8
279,154,175515,2,0,B|347:154,2,65,0|0|8
195,70,176361,2,0,B|195:-2,2,65,0|0|8
112,152,177206,2,0,B|28:152,2,65,0|0|8
