osu file format v12

[General]
AudioFilename: Prismatic Lollipops.mp3
AudioLeadIn: 0
PreviewTime: 64187
Countdown: 0
SampleSet: Soft
StackLeniency: 0.7
Mode: 3
LetterboxInBreaks: 0
SpecialStyle: 0
WidescreenStoryboard: 0

[Editor]
DistanceSpacing: 1.2
BeatDivisor: 4
GridSize: 8

[Metadata]
Title:Prismatic Lollipops
TitleUnicode:Prismatic Lollipops
Artist:Dj Mashiro
ArtistUnicode:Dj Mashiro
Creator:victorica_db
Version:4K Lv.14
Source:Cytus
Tags:Kagami Yuki simple_star richardfeder
BeatmapID:308417
BeatmapSetID:120289

[Difficulty]
HPDrainRate:7
CircleSize:4
OverallDifficulty:7
ApproachRate:5
SliderMultiplier:1.4
SliderTickRate:1

[Events]
//Background and Video events
0,0,"37945384.png",0,0
//Break Periods
//Storyboard Layer 0 (Background)
//Storyboard Layer 1 (Fail)
//Storyboard Layer 2 (Pass)
//Storyboard Layer 3 (Foreground)
//Storyboard Sound Samples
//Background Colour Transformations
3,100,163,162,255

[TimingPoints]
29,297.029702970297,4,2,1,30,1,0
64281,-100,4,2,1,30,0,1
85073,-100,4,2,1,30,0,0

[HitObjects]
64,192,326,128,0,1068:0:0:0:0:
448,192,326,128,0,1068:0:0:0:0:
192,192,1068,1,2,0:0:0:0:
320,192,1142,1,2,0:0:0:0:
64,192,1217,1,6,0:0:0:0:
448,192,1217,1,4,0:0:0:0:
192,192,1217,1,0,0:0:0:0:
64,192,1514,1,6,0:0:0:0:
448,192,1514,1,4,0:0:0:0:
320,192,1514,1,0,0:0:0:0:
320,192,1662,1,8,0:0:0:0:
448,192,1736,1,8,0:0:0:0:
64,192,1811,1,8,0:0:0:0:
192,192,1811,1,4,0:0:0:0:
320,192,1811,1,0,0:0:0:0:
64,192,2108,1,6,0:0:0:0:
448,192,2108,1,4,0:0:0:0:
320,192,2108,1,0,0:0:0:0:
320,192,2256,1,8,0:0:0:0:
448,192,2330,1,8,0:0:0:0:
320,192,2405,1,6,0:0:0:0:
64,192,2405,1,4,0:0:0:0:
192,192,2405,1,0,0:0:0:0:
64,192,2553,1,6,0:0:0:0:
320,192,2553,1,4,0:0:0:0:
448,192,2553,1,0,0:0:0:0:
320,192,2702,1,6,0:0:0:0:
448,192,2702,1,4,0:0:0:0:
64,192,2702,1,0,0:0:0:0:
64,192,2850,1,6,0:0:0:0:
192,192,2850,1,4,0:0:0:0:
320,192,2850,1,0,0:0:0:0:
192,192,2999,1,4,0:0:0:0:
448,192,2999,1,2,0:0:0:0:
64,192,2999,1,0,0:0:0:0:
64,192,3296,1,0,0:0:0:0:
192,192,3370,1,0,0:0:0:0:
320,192,3444,1,0,0:0:0:0:
448,192,3519,1,0,0:0:0:0:
64,192,3593,1,4,0:0:0:0:
320,192,3593,1,2,0:0:0:0:
320,192,3890,1,8,0:0:0:0:
64,192,3890,1,0,0:0:0:0:
64,192,4187,1,2,0:0:0:0:
320,192,4187,1,0,0:0:0:0:
192,192,4335,1,0,0:0:0:0:
448,192,4335,1,0,0:0:0:0:
448,192,4484,1,8,0:0:0:0:
64,192,4484,1,0,0:0:0:0:
320,192,4484,1,0,0:0:0:0:
320,192,4632,1,0,0:0:0:0:
64,192,4632,1,0,0:0:0:0:
64,192,4929,1,0,0:0:0:0:
448,192,4929,1,0,0:0:0:0:
448,192,5227,1,0,0:0:0:0:
320,192,5227,128,0,5375:0:0:0:0:
64,192,5375,1,4,0:0:0:0:
192,192,5375,128,0,5524:0:0:0:0:
448,192,5524,1,0,0:0:0:0:
320,192,5524,128,0,5672:0:0:0:0:
64,192,5672,1,8,0:0:0:0:
192,192,5672,128,0,5821:0:0:0:0:
448,192,5821,1,2,0:0:0:0:
64,192,5969,1,2,0:0:0:0:
448,192,5969,1,0,0:0:0:0:
320,192,5969,1,0,0:0:0:0:
192,192,6266,1,8,0:0:0:0:
448,192,6266,1,0,0:0:0:0:
64,192,6266,1,0,0:0:0:0:
448,192,6563,1,2,0:0:0:0:
64,192,6563,1,0,0:0:0:0:
320,192,6563,1,0,0:0:0:0:
192,192,6860,1,8,0:0:0:0:
448,192,6860,1,0,0:0:0:0:
64,192,6860,1,0,0:0:0:0:
320,192,7009,1,0,0:0:0:0:
64,192,7009,1,0,0:0:0:0:
64,192,7306,1,0,0:0:0:0:
320,192,7306,1,0,0:0:0:0:
320,192,7603,1,0,0:0:0:0:
448,192,7603,1,0,0:0:0:0:
192,192,7751,1,2,0:0:0:0:
320,192,7751,1,0,0:0:0:0:
64,192,7900,1,0,0:0:0:0:
192,192,7900,1,0,0:0:0:0:
192,192,8048,1,8,0:0:0:0:
320,192,8048,1,0,0:0:0:0:
320,192,8197,1,2,0:0:0:0:
448,192,8197,1,0,0:0:0:0:
448,192,8345,1,2,0:0:0:0:
64,192,8345,1,0,0:0:0:0:
64,192,8642,1,8,0:0:0:0:
320,192,8642,1,0,0:0:0:0:
64,192,8939,1,2,0:0:0:0:
192,192,8939,1,0,0:0:0:0:
192,192,9236,1,8,0:0:0:0:
448,192,9236,1,0,0:0:0:0:
64,192,9385,1,0,0:0:0:0:
320,192,9385,1,0,0:0:0:0:
192,192,9682,1,0,0:0:0:0:
448,192,9682,1,0,0:0:0:0:
192,192,9979,1,0,0:0:0:0:
320,192,9979,1,0,0:0:0:0:
64,192,10128,1,2,0:0:0:0:
192,192,10128,128,0,10276:0:0:0:0:
320,192,10276,128,0,10425:0:0:0:0:
448,192,10276,1,0,0:0:0:0:
448,192,10425,128,8,10573:0:0:0:0:
64,192,10425,1,0,0:0:0:0:
320,192,10573,1,2,0:0:0:0:
192,192,10573,128,0,10722:0:0:0:0:
64,192,10722,1,2,0:0:0:0:
320,192,10722,1,0,0:0:0:0:
448,192,10722,1,0,0:0:0:0:
192,192,11019,1,8,0:0:0:0:
448,192,11019,1,0,0:0:0:0:
320,192,11019,1,0,0:0:0:0:
320,192,11316,1,8,0:0:0:0:
448,192,11316,1,0,0:0:0:0:
192,192,11316,1,0,0:0:0:0:
64,192,11464,1,2,0:0:0:0:
448,192,11538,1,8,0:0:0:0:
320,192,11613,1,2,0:0:0:0:
320,192,11761,1,2,0:0:0:0:
448,192,11761,1,0,0:0:0:0:
192,192,11835,1,8,0:0:0:0:
64,192,11910,1,2,0:0:0:0:
320,192,12058,1,8,0:0:0:0:
448,192,12058,1,0,0:0:0:0:
64,192,12207,1,2,0:0:0:0:
320,192,12355,1,8,0:0:0:0:
448,192,12355,1,0,0:0:0:0:
64,192,12504,1,8,0:0:0:0:
448,192,12504,1,0,0:0:0:0:
192,192,12578,1,8,0:0:0:0:
320,192,12578,1,0,0:0:0:0:
448,192,12652,1,8,0:0:0:0:
64,192,12652,1,0,0:0:0:0:
448,192,12801,1,0,0:0:0:0:
64,192,12801,1,0,0:0:0:0:
192,192,12949,1,2,0:0:0:0:
320,192,12949,1,0,0:0:0:0:
64,192,13098,1,6,0:0:0:0:
448,192,13098,1,4,0:0:0:0:
192,192,13395,1,8,0:0:0:0:
64,192,13395,1,0,0:0:0:0:
64,192,13692,1,2,0:0:0:0:
448,192,13692,128,0,13840:0:0:0:0:
320,192,13840,128,0,13989:0:0:0:0:
192,192,13840,1,0,0:0:0:0:
192,192,13989,128,8,14137:0:0:0:0:
64,192,13989,1,0,0:0:0:0:
320,192,14137,1,0,0:0:0:0:
64,192,14137,128,0,14286:0:0:0:0:
448,192,14286,1,2,0:0:0:0:
64,192,14434,1,0,0:0:0:0:
448,192,14434,1,0,0:0:0:0:
320,192,14434,1,0,0:0:0:0:
320,192,14731,1,0,0:0:0:0:
448,192,14731,1,0,0:0:0:0:
64,192,14880,128,2,15028:0:0:0:0:
192,192,14880,1,0,0:0:0:0:
192,192,15028,128,0,15177:0:0:0:0:
320,192,15028,1,0,0:0:0:0:
320,192,15177,128,8,15326:0:0:0:0:
448,192,15177,1,0,0:0:0:0:
448,192,15326,128,2,15474:0:0:0:0:
64,192,15326,1,0,0:0:0:0:
192,192,15474,1,2,0:0:0:0:
64,192,15474,1,0,0:0:0:0:
64,192,15771,128,8,15920:0:0:0:0:
192,192,15771,1,0,0:0:0:0:
448,192,15771,1,0,0:0:0:0:
192,192,15920,128,0,16068:0:0:0:0:
448,192,15920,1,0,0:0:0:0:
320,192,16068,128,2,16217:0:0:0:0:
448,192,16068,1,0,0:0:0:0:
64,192,16217,1,0,0:0:0:0:
448,192,16217,128,0,16365:0:0:0:0:
192,192,16365,1,8,0:0:0:0:
320,192,16365,1,0,0:0:0:0:
64,192,16514,128,0,16662:0:0:0:0:
192,192,16662,1,2,0:0:0:0:
448,192,16662,1,0,0:0:0:0:
448,192,16811,128,0,16959:0:0:0:0:
64,192,16959,1,8,0:0:0:0:
192,192,16959,1,0,0:0:0:0:
192,192,17108,1,0,0:0:0:0:
320,192,17256,1,4,0:0:0:0:
448,192,17256,1,0,0:0:0:0:
448,192,17405,1,0,0:0:0:0:
192,192,17405,1,0,0:0:0:0:
64,192,17553,1,4,0:0:0:0:
192,192,17553,1,0,0:0:0:0:
64,192,17702,1,2,0:0:0:0:
192,192,17702,1,0,0:0:0:0:
448,192,17776,1,0,0:0:0:0:
320,192,17776,1,0,0:0:0:0:
64,192,17850,1,4,0:0:0:0:
192,192,17850,1,0,0:0:0:0:
448,192,18147,1,8,0:0:0:0:
320,192,18147,128,0,18296:0:0:0:0:
192,192,18147,1,0,0:0:0:0:
64,192,18444,1,2,0:0:0:0:
192,192,18444,128,0,18593:0:0:0:0:
448,192,18444,1,0,0:0:0:0:
320,192,18741,1,8,0:0:0:0:
448,192,18741,1,0,0:0:0:0:
64,192,18741,128,0,18890:0:0:0:0:
192,192,18890,128,0,19038:0:0:0:0:
320,192,19038,1,4,0:0:0:0:
448,192,19038,1,0,0:0:0:0:
64,192,19187,128,8,19335:0:0:0:0:
320,192,19335,1,2,0:0:0:0:
448,192,19335,1,0,0:0:0:0:
192,192,19484,1,8,0:0:0:0:
320,192,19632,1,2,0:0:0:0:
448,192,19632,1,0,0:0:0:0:
320,192,19781,1,8,0:0:0:0:
192,192,19781,1,0,0:0:0:0:
192,192,19929,1,2,0:0:0:0:
64,192,19929,1,0,0:0:0:0:
192,192,20078,1,8,0:0:0:0:
320,192,20078,1,0,0:0:0:0:
64,192,20227,1,8,0:0:0:0:
448,192,20227,1,0,0:0:0:0:
320,192,20301,1,8,0:0:0:0:
192,192,20375,1,8,0:0:0:0:
448,192,20375,1,0,0:0:0:0:
64,192,20449,1,8,0:0:0:0:
192,192,20524,1,8,0:0:0:0:
448,192,20524,1,0,0:0:0:0:
320,192,20598,1,8,0:0:0:0:
64,192,20672,1,8,0:0:0:0:
448,192,20672,1,0,0:0:0:0:
320,192,20746,1,8,0:0:0:0:
192,192,20821,1,8,0:0:0:0:
64,192,20821,1,0,0:0:0:0:
320,192,20895,1,8,0:0:0:0:
64,192,20969,1,8,0:0:0:0:
448,192,20969,1,0,0:0:0:0:
320,192,21043,1,8,0:0:0:0:
192,192,21118,1,8,0:0:0:0:
64,192,21192,1,8,0:0:0:0:
192,192,21266,1,8,0:0:0:0:
320,192,21340,1,8,0:0:0:0:
64,192,21415,1,2,0:0:0:0:
448,192,21415,1,0,0:0:0:0:
192,192,21415,1,0,0:0:0:0:
64,192,21637,1,2,0:0:0:0:
448,192,21637,1,0,0:0:0:0:
192,192,21637,1,0,0:0:0:0:
64,192,21860,1,2,0:0:0:0:
448,192,21860,1,0,0:0:0:0:
320,192,21860,1,0,0:0:0:0:
192,192,22009,1,2,0:0:0:0:
320,192,22009,1,0,0:0:0:0:
448,192,22083,1,2,0:0:0:0:
64,192,22083,1,0,0:0:0:0:
192,192,22157,1,2,0:0:0:0:
320,192,22157,1,0,0:0:0:0:
64,192,22306,1,2,0:0:0:0:
192,192,22306,1,0,0:0:0:0:
320,192,22454,1,2,0:0:0:0:
192,192,22454,1,0,0:0:0:0:
448,192,22603,1,2,0:0:0:0:
320,192,22603,1,0,0:0:0:0:
64,192,22900,1,2,0:0:0:0:
448,192,22900,1,0,0:0:0:0:
192,192,22974,1,0,0:0:0:0:
320,192,23048,1,8,0:0:0:0:
192,192,23123,1,8,0:0:0:0:
64,192,23197,1,8,0:0:0:0:
448,192,23197,1,0,0:0:0:0:
448,192,23494,1,2,0:0:0:0:
64,192,23494,1,0,0:0:0:0:
192,192,23568,1,0,0:0:0:0:
320,192,23642,1,8,0:0:0:0:
192,192,23717,1,8,0:0:0:0:
320,192,23791,1,8,0:0:0:0:
448,192,23791,1,2,0:0:0:0:
320,192,23939,1,2,0:0:0:0:
448,192,23939,1,0,0:0:0:0:
192,192,24088,1,2,0:0:0:0:
320,192,24088,1,0,0:0:0:0:
64,192,24236,1,2,0:0:0:0:
192,192,24236,1,0,0:0:0:0:
448,192,24385,1,2,0:0:0:0:
64,192,24385,1,0,0:0:0:0:
448,192,24682,1,8,0:0:0:0:
320,192,24756,1,8,0:0:0:0:
192,192,24830,1,8,0:0:0:0:
64,192,24905,1,8,0:0:0:0:
448,192,24979,1,6,0:0:0:0:
192,192,24979,1,4,0:0:0:0:
320,192,24979,128,0,25276:0:0:0:0:
192,192,25276,1,8,0:0:0:0:
192,192,25425,1,0,0:0:0:0:
448,192,25425,1,0,0:0:0:0:
64,192,25425,128,0,25573:0:0:0:0:
64,192,25722,1,2,0:0:0:0:
192,192,25722,1,0,0:0:0:0:
320,192,25722,128,0,25870:0:0:0:0:
448,192,25870,1,0,0:0:0:0:
192,192,25944,1,0,0:0:0:0:
320,192,26019,1,0,0:0:0:0:
64,192,26093,1,0,0:0:0:0:
192,192,26167,128,2,26316:0:0:0:0:
320,192,26167,128,0,26316:0:0:0:0:
448,192,26167,1,0,0:0:0:0:
192,192,26464,128,8,26613:0:0:0:0:
320,192,26464,128,0,26613:0:0:0:0:
64,192,26761,128,0,27058:0:0:0:0:
448,192,26761,128,0,26910:0:0:0:0:
192,192,26910,128,2,27355:0:0:0:0:
320,192,26910,128,0,27058:0:0:0:0:
448,192,27058,128,0,27355:0:0:0:0:
320,192,27207,128,0,27355:0:0:0:0:
64,192,27207,128,0,27355:0:0:0:0:
64,192,27504,1,0,0:0:0:0:
320,192,27504,1,0,0:0:0:0:
64,192,27652,128,8,27801:0:0:0:0:
320,192,27652,128,0,27801:0:0:0:0:
192,192,27801,128,0,28098:0:0:0:0:
448,192,27801,128,0,28098:0:0:0:0:
320,192,27949,128,0,28098:0:0:0:0:
64,192,27949,128,0,28098:0:0:0:0:
192,192,28246,128,0,28395:0:0:0:0:
320,192,28395,128,0,28543:0:0:0:0:
64,192,28543,1,2,0:0:0:0:
192,192,28543,1,0,0:0:0:0:
320,192,28692,128,0,28840:0:0:0:0:
64,192,28989,128,2,29137:0:0:0:0:
320,192,28989,1,0,0:0:0:0:
448,192,28989,1,0,0:0:0:0:
192,192,29137,1,2,0:0:0:0:
448,192,29137,1,0,0:0:0:0:
448,192,29286,1,0,0:0:0:0:
320,192,29360,1,0,0:0:0:0:
64,192,29434,128,2,29583:0:0:0:0:
192,192,29434,1,0,0:0:0:0:
448,192,29434,1,0,0:0:0:0:
192,192,29583,128,0,29731:0:0:0:0:
320,192,29731,128,2,29880:0:0:0:0:
64,192,29731,1,0,0:0:0:0:
448,192,29731,1,0,0:0:0:0:
448,192,30177,128,0,30326:0:0:0:0:
192,192,30326,128,0,30474:0:0:0:0:
64,192,30474,1,2,0:0:0:0:
448,192,30474,1,0,0:0:0:0:
448,192,30771,1,0,0:0:0:0:
320,192,30920,128,2,31068:0:0:0:0:
64,192,30920,1,0,0:0:0:0:
192,192,30920,1,0,0:0:0:0:
64,192,31217,128,8,31365:0:0:0:0:
320,192,31514,128,0,31662:0:0:0:0:
192,192,31662,1,2,0:0:0:0:
448,192,31662,1,0,0:0:0:0:
64,192,31811,128,0,31959:0:0:0:0:
320,192,31959,128,0,32108:0:0:0:0:
64,192,32108,128,2,32256:0:0:0:0:
192,192,32108,1,0,0:0:0:0:
448,192,32108,1,0,0:0:0:0:
448,192,32405,128,8,32553:0:0:0:0:
64,192,32553,1,2,0:0:0:0:
320,192,32553,1,0,0:0:0:0:
64,192,32702,128,0,32850:0:0:0:0:
192,192,32850,128,0,32999:0:0:0:0:
320,192,32999,128,2,33147:0:0:0:0:
448,192,32999,1,0,0:0:0:0:
64,192,32999,1,0,0:0:0:0:
448,192,33147,128,0,33296:0:0:0:0:
64,192,33296,1,2,0:0:0:0:
320,192,33296,1,0,0:0:0:0:
192,192,33296,1,0,0:0:0:0:
64,192,33593,128,0,33741:0:0:0:0:
192,192,33593,1,0,0:0:0:0:
448,192,33741,1,2,0:0:0:0:
320,192,33779,1,2,0:0:0:0:
192,192,33816,1,2,0:0:0:0:
64,192,33853,1,2,0:0:0:0:
320,192,33890,1,0,0:0:0:0:
448,192,33890,1,0,0:0:0:0:
448,192,34038,1,2,0:0:0:0:
192,192,34038,1,0,0:0:0:0:
64,192,34187,1,2,0:0:0:0:
448,192,34187,1,0,0:0:0:0:
320,192,34261,1,2,0:0:0:0:
192,192,34261,1,0,0:0:0:0:
448,192,34335,1,2,0:0:0:0:
64,192,34335,1,0,0:0:0:0:
192,192,34410,1,2,0:0:0:0:
320,192,34410,1,0,0:0:0:0:
64,192,34484,128,0,34632:0:0:0:0:
448,192,34484,1,0,0:0:0:0:
192,192,34781,1,4,0:0:0:0:
320,192,34781,1,2,0:0:0:0:
448,192,34781,128,0,34929:0:0:0:0:
64,192,34929,1,0,0:0:0:0:
320,192,34929,128,0,35078:0:0:0:0:
192,192,35078,1,2,0:0:0:0:
448,192,35078,1,0,0:0:0:0:
448,192,35227,1,0,0:0:0:0:
192,192,35227,1,0,0:0:0:0:
320,192,35375,1,8,0:0:0:0:
192,192,35449,1,0,0:0:0:0:
64,192,35524,1,0,0:0:0:0:
192,192,35598,1,0,0:0:0:0:
320,192,35672,1,2,0:0:0:0:
448,192,35672,1,0,0:0:0:0:
192,192,35821,1,0,0:0:0:0:
320,192,35969,1,8,0:0:0:0:
64,192,35969,1,0,0:0:0:0:
448,192,35969,1,0,0:0:0:0:
192,192,36118,1,0,0:0:0:0:
320,192,36266,1,2,0:0:0:0:
448,192,36266,1,0,0:0:0:0:
192,192,36415,1,0,0:0:0:0:
448,192,36563,1,8,0:0:0:0:
64,192,36563,1,0,0:0:0:0:
320,192,36563,1,0,0:0:0:0:
320,192,36712,1,0,0:0:0:0:
64,192,36860,1,2,0:0:0:0:
192,192,36860,1,0,0:0:0:0:
320,192,37009,1,0,0:0:0:0:
320,192,37157,1,8,0:0:0:0:
64,192,37157,1,0,0:0:0:0:
448,192,37157,1,0,0:0:0:0:
448,192,37306,1,0,0:0:0:0:
64,192,37454,1,2,0:0:0:0:
192,192,37454,1,0,0:0:0:0:
448,192,37603,1,0,0:0:0:0:
64,192,37751,1,8,0:0:0:0:
192,192,37751,1,0,0:0:0:0:
320,192,37751,1,0,0:0:0:0:
192,192,37900,1,0,0:0:0:0:
320,192,38048,1,2,0:0:0:0:
448,192,38048,1,0,0:0:0:0:
64,192,38197,1,0,0:0:0:0:
64,192,38345,1,8,0:0:0:0:
448,192,38345,1,0,0:0:0:0:
192,192,38345,1,0,0:0:0:0:
320,192,38494,1,0,0:0:0:0:
192,192,38642,1,2,0:0:0:0:
64,192,38642,1,0,0:0:0:0:
320,192,38791,1,0,0:0:0:0:
448,192,38939,1,8,0:0:0:0:
64,192,38939,1,0,0:0:0:0:
192,192,38939,1,0,0:0:0:0:
448,192,39088,1,0,0:0:0:0:
64,192,39236,1,4,0:0:0:0:
320,192,39236,1,2,0:0:0:0:
192,192,39236,1,0,0:0:0:0:
448,192,39236,1,0,0:0:0:0:
320,192,39682,1,0,0:0:0:0:
320,192,39830,128,0,39979:0:0:0:0:
192,192,40276,1,0,0:0:0:0:
192,192,40425,128,0,40573:0:0:0:0:
448,192,40425,1,0,0:0:0:0:
64,192,40722,128,8,40870:0:0:0:0:
320,192,40722,1,0,0:0:0:0:
448,192,41019,128,0,41167:0:0:0:0:
192,192,41019,1,0,0:0:0:0:
64,192,41316,128,8,41464:0:0:0:0:
320,192,41316,1,0,0:0:0:0:
192,192,41464,128,0,41613:0:0:0:0:
448,192,41464,1,0,0:0:0:0:
64,192,41613,1,10,0:0:0:0:
320,192,41613,1,8,0:0:0:0:
448,192,41687,1,8,0:0:0:0:
192,192,41761,1,8,0:0:0:0:
448,192,41835,1,8,0:0:0:0:
192,192,41910,1,8,0:0:0:0:
448,192,41984,1,8,0:0:0:0:
192,192,42058,1,8,0:0:0:0:
448,192,42132,1,8,0:0:0:0:
192,192,42207,1,8,0:0:0:0:
64,192,42207,1,2,0:0:0:0:
448,192,42281,1,8,0:0:0:0:
192,192,42355,1,8,0:0:0:0:
448,192,42429,1,8,0:0:0:0:
192,192,42504,1,8,0:0:0:0:
448,192,42578,1,8,0:0:0:0:
192,192,42652,1,8,0:0:0:0:
320,192,42727,1,8,0:0:0:0:
64,192,42801,1,10,0:0:0:0:
192,192,42801,1,8,0:0:0:0:
448,192,42801,128,0,43395:0:0:0:0:
64,192,43098,1,0,0:0:0:0:
192,192,43098,128,0,43395:0:0:0:0:
320,192,43395,1,0,0:0:0:0:
64,192,43395,128,0,43543:0:0:0:0:
448,192,43543,1,0,0:0:0:0:
192,192,43543,128,0,43692:0:0:0:0:
320,192,43692,1,0,0:0:0:0:
448,192,43692,128,0,43840:0:0:0:0:
192,192,43840,128,0,43989:0:0:0:0:
64,192,43840,1,0,0:0:0:0:
64,192,43989,1,6,0:0:0:0:
448,192,43989,1,4,0:0:0:0:
320,192,43989,1,0,0:0:0:0:
64,192,44286,1,8,0:0:0:0:
448,192,44286,1,0,0:0:0:0:
192,192,44286,1,0,0:0:0:0:
64,192,44583,1,2,0:0:0:0:
448,192,44583,1,0,0:0:0:0:
320,192,44583,1,0,0:0:0:0:
64,192,44880,1,8,0:0:0:0:
448,192,44880,1,0,0:0:0:0:
192,192,44880,1,0,0:0:0:0:
448,192,45177,1,2,0:0:0:0:
64,192,45177,1,0,0:0:0:0:
64,192,45326,1,0,0:0:0:0:
320,192,45326,1,0,0:0:0:0:
64,192,45474,1,8,0:0:0:0:
192,192,45474,1,0,0:0:0:0:
64,192,45623,1,0,0:0:0:0:
320,192,45623,1,0,0:0:0:0:
64,192,45771,1,2,0:0:0:0:
448,192,45771,1,0,0:0:0:0:
448,192,45920,1,2,0:0:0:0:
448,192,45994,1,2,0:0:0:0:
320,192,46068,1,2,0:0:0:0:
192,192,46068,1,0,0:0:0:0:
64,192,46068,1,0,0:0:0:0:
192,192,46217,1,2,0:0:0:0:
64,192,46365,1,4,0:0:0:0:
448,192,46365,1,0,0:0:0:0:
320,192,46365,1,0,0:0:0:0:
64,192,46662,1,8,0:0:0:0:
192,192,46662,1,0,0:0:0:0:
320,192,46662,1,0,0:0:0:0:
320,192,46959,1,2,0:0:0:0:
448,192,46959,1,0,0:0:0:0:
192,192,46959,1,0,0:0:0:0:
320,192,47256,1,8,0:0:0:0:
192,192,47256,1,0,0:0:0:0:
448,192,47256,1,0,0:0:0:0:
64,192,47405,1,0,0:0:0:0:
448,192,47553,1,2,0:0:0:0:
320,192,47553,1,0,0:0:0:0:
192,192,47553,1,0,0:0:0:0:
448,192,47850,1,2,0:0:0:0:
192,192,47850,1,0,0:0:0:0:
64,192,47850,1,0,0:0:0:0:
320,192,48147,1,2,0:0:0:0:
448,192,48147,1,0,0:0:0:0:
192,192,48147,1,0,0:0:0:0:
448,192,48444,1,2,0:0:0:0:
192,192,48444,1,0,0:0:0:0:
64,192,48444,1,0,0:0:0:0:
64,192,48741,1,6,0:0:0:0:
192,192,48741,1,4,0:0:0:0:
448,192,48741,1,0,0:0:0:0:
320,192,48741,1,0,0:0:0:0:
448,192,49038,1,8,0:0:0:0:
192,192,49038,1,0,0:0:0:0:
64,192,49335,1,2,0:0:0:0:
320,192,49335,1,0,0:0:0:0:
448,192,49335,1,0,0:0:0:0:
192,192,49632,1,8,0:0:0:0:
448,192,49632,1,0,0:0:0:0:
320,192,49781,1,0,0:0:0:0:
64,192,49781,1,0,0:0:0:0:
64,192,49929,1,2,0:0:0:0:
192,192,49929,1,0,0:0:0:0:
320,192,49929,128,0,50078:0:0:0:0:
64,192,50078,1,0,0:0:0:0:
448,192,50078,128,0,50227:0:0:0:0:
320,192,50227,1,8,0:0:0:0:
64,192,50227,128,0,50375:0:0:0:0:
448,192,50375,1,0,0:0:0:0:
192,192,50375,128,0,50524:0:0:0:0:
64,192,50524,1,2,0:0:0:0:
320,192,50524,1,0,0:0:0:0:
448,192,50524,1,0,0:0:0:0:
64,192,50672,1,2,0:0:0:0:
64,192,50746,1,2,0:0:0:0:
320,192,50821,1,8,0:0:0:0:
448,192,50821,1,2,0:0:0:0:
192,192,50969,1,2,0:0:0:0:
192,192,51118,1,6,0:0:0:0:
320,192,51118,1,4,0:0:0:0:
448,192,51118,1,0,0:0:0:0:
64,192,51118,1,0,0:0:0:0:
320,192,51415,1,8,0:0:0:0:
448,192,51415,1,0,0:0:0:0:
192,192,51712,1,2,0:0:0:0:
320,192,51712,1,0,0:0:0:0:
448,192,51712,1,0,0:0:0:0:
64,192,52009,1,8,0:0:0:0:
320,192,52009,1,0,0:0:0:0:
448,192,52009,1,0,0:0:0:0:
320,192,52157,1,2,0:0:0:0:
192,192,52306,1,2,0:0:0:0:
448,192,52306,1,0,0:0:0:0:
64,192,52306,1,0,0:0:0:0:
192,192,52603,1,2,0:0:0:0:
448,192,52603,1,0,0:0:0:0:
320,192,52603,1,0,0:0:0:0:
64,192,52900,1,2,0:0:0:0:
320,192,52900,1,0,0:0:0:0:
448,192,52900,1,0,0:0:0:0:
448,192,53197,1,2,0:0:0:0:
192,192,53197,1,0,0:0:0:0:
320,192,53271,1,2,0:0:0:0:
64,192,53271,1,0,0:0:0:0:
192,192,53345,1,2,0:0:0:0:
448,192,53345,1,0,0:0:0:0:
64,192,53420,1,2,0:0:0:0:
320,192,53420,1,0,0:0:0:0:
192,192,53494,1,6,0:0:0:0:
448,192,53494,1,4,0:0:0:0:
320,192,53791,1,8,0:0:0:0:
448,192,53791,1,0,0:0:0:0:
64,192,53791,1,0,0:0:0:0:
192,192,54088,1,2,0:0:0:0:
448,192,54088,1,0,0:0:0:0:
64,192,54088,1,0,0:0:0:0:
320,192,54385,1,8,0:0:0:0:
448,192,54385,1,0,0:0:0:0:
192,192,54385,1,0,0:0:0:0:
64,192,54682,1,2,0:0:0:0:
448,192,54682,128,0,54830:0:0:0:0:
192,192,54830,1,0,0:0:0:0:
320,192,54830,128,0,54979:0:0:0:0:
192,192,54979,128,8,55128:0:0:0:0:
448,192,54979,1,0,0:0:0:0:
64,192,55128,128,0,55276:0:0:0:0:
320,192,55128,1,0,0:0:0:0:
320,192,55276,1,2,0:0:0:0:
192,192,55276,1,0,0:0:0:0:
448,192,55276,1,0,0:0:0:0:
192,192,55425,1,2,0:0:0:0:
320,192,55499,1,2,0:0:0:0:
192,192,55573,1,8,0:0:0:0:
448,192,55573,1,2,0:0:0:0:
64,192,55573,1,0,0:0:0:0:
192,192,55722,1,2,0:0:0:0:
64,192,55870,128,6,56019:0:0:0:0:
192,192,55870,128,4,56019:0:0:0:0:
320,192,55870,128,0,56019:0:0:0:0:
64,192,56167,128,8,56316:0:0:0:0:
192,192,56167,128,0,56316:0:0:0:0:
320,192,56167,128,0,56316:0:0:0:0:
192,192,56464,128,2,56613:0:0:0:0:
320,192,56464,128,0,56613:0:0:0:0:
448,192,56464,128,0,56613:0:0:0:0:
192,192,56761,128,8,56910:0:0:0:0:
64,192,56761,128,0,56910:0:0:0:0:
320,192,56910,128,0,57058:0:0:0:0:
192,192,57058,128,2,57207:0:0:0:0:
64,192,57058,128,0,57207:0:0:0:0:
448,192,57058,128,0,57207:0:0:0:0:
64,192,57355,128,2,57504:0:0:0:0:
192,192,57355,128,0,57504:0:0:0:0:
320,192,57355,128,0,57504:0:0:0:0:
448,192,57652,128,2,57801:0:0:0:0:
192,192,57652,128,0,57801:0:0:0:0:
64,192,57652,128,0,57801:0:0:0:0:
64,192,57949,128,2,58098:0:0:0:0:
448,192,57949,128,0,58098:0:0:0:0:
320,192,57949,128,0,58098:0:0:0:0:
64,192,58246,1,6,0:0:0:0:
192,192,58246,1,4,0:0:0:0:
448,192,58246,1,0,0:0:0:0:
192,192,58543,1,8,0:0:0:0:
448,192,58543,1,0,0:0:0:0:
64,192,58840,1,2,0:0:0:0:
320,192,58840,1,0,0:0:0:0:
448,192,58840,1,0,0:0:0:0:
192,192,59137,1,8,0:0:0:0:
320,192,59286,1,0,0:0:0:0:
448,192,59434,128,2,59583:0:0:0:0:
320,192,59434,1,0,0:0:0:0:
320,192,59583,128,0,59731:0:0:0:0:
192,192,59583,1,0,0:0:0:0:
192,192,59731,128,8,59880:0:0:0:0:
64,192,59731,1,0,0:0:0:0:
64,192,59880,128,0,60028:0:0:0:0:
448,192,59880,1,0,0:0:0:0:
192,192,60028,1,2,0:0:0:0:
448,192,60028,1,0,0:0:0:0:
192,192,60177,1,2,0:0:0:0:
64,192,60251,1,2,0:0:0:0:
320,192,60326,1,8,0:0:0:0:
448,192,60326,1,2,0:0:0:0:
192,192,60326,1,0,0:0:0:0:
64,192,60474,1,2,0:0:0:0:
192,192,60623,1,6,0:0:0:0:
448,192,60623,1,4,0:0:0:0:
320,192,60623,1,0,0:0:0:0:
64,192,60771,1,0,0:0:0:0:
320,192,60920,1,8,0:0:0:0:
448,192,60920,1,0,0:0:0:0:
192,192,61068,1,0,0:0:0:0:
64,192,61217,1,6,0:0:0:0:
320,192,61217,1,4,0:0:0:0:
192,192,61365,1,0,0:0:0:0:
64,192,61439,1,0,0:0:0:0:
192,192,61514,1,8,0:0:0:0:
448,192,61514,1,0,0:0:0:0:
320,192,61662,1,0,0:0:0:0:
64,192,61811,1,2,0:0:0:0:
320,192,61811,1,0,0:0:0:0:
192,192,61811,1,0,0:0:0:0:
64,192,62108,1,2,0:0:0:0:
192,192,62108,1,0,0:0:0:0:
320,192,62108,1,0,0:0:0:0:
192,192,62405,1,2,0:0:0:0:
320,192,62405,1,0,0:0:0:0:
448,192,62405,1,0,0:0:0:0:
64,192,62702,1,2,0:0:0:0:
320,192,62702,1,0,0:0:0:0:
448,192,62702,1,0,0:0:0:0:
64,192,62999,1,6,0:0:0:0:
192,192,62999,1,4,0:0:0:0:
448,192,62999,1,0,0:0:0:0:
64,192,63296,1,2,0:0:0:0:
320,192,63296,1,0,0:0:0:0:
448,192,63296,1,0,0:0:0:0:
64,192,63444,1,2,0:0:0:0:
192,192,63444,1,0,0:0:0:0:
448,192,63444,1,0,0:0:0:0:
64,192,63890,1,0,0:0:0:0:
320,192,63964,1,0,0:0:0:0:
192,192,64038,1,0,0:0:0:0:
448,192,64113,1,0,0:0:0:0:
64,192,64187,1,6,0:0:0:0:
192,192,64187,1,4,0:0:0:0:
320,192,64335,1,0,0:0:0:0:
448,192,64484,1,8,0:0:0:0:
64,192,64484,1,0,0:0:0:0:
192,192,64484,1,0,0:0:0:0:
320,192,64632,1,0,0:0:0:0:
192,192,64781,1,2,0:0:0:0:
64,192,64781,1,0,0:0:0:0:
192,192,64929,1,0,0:0:0:0:
320,192,64929,1,0,0:0:0:0:
320,192,65078,1,8,0:0:0:0:
448,192,65078,1,0,0:0:0:0:
64,192,65078,1,0,0:0:0:0:
192,192,65227,1,0,0:0:0:0:
320,192,65227,1,0,0:0:0:0:
320,192,65375,1,2,0:0:0:0:
448,192,65375,1,0,0:0:0:0:
192,192,65524,1,0,0:0:0:0:
448,192,65524,1,0,0:0:0:0:
320,192,65672,1,8,0:0:0:0:
64,192,65672,1,0,0:0:0:0:
448,192,65672,1,0,0:0:0:0:
320,192,65821,1,0,0:0:0:0:
192,192,65821,1,0,0:0:0:0:
448,192,65969,1,2,0:0:0:0:
320,192,65969,1,0,0:0:0:0:
192,192,66118,1,0,0:0:0:0:
320,192,66118,1,0,0:0:0:0:
64,192,66266,1,8,0:0:0:0:
192,192,66266,1,0,0:0:0:0:
448,192,66266,1,0,0:0:0:0:
320,192,66415,1,2,0:0:0:0:
64,192,66415,1,0,0:0:0:0:
448,192,66415,1,0,0:0:0:0:
64,192,66563,1,2,0:0:0:0:
448,192,66563,1,0,0:0:0:0:
192,192,66563,1,0,0:0:0:0:
320,192,66712,1,0,0:0:0:0:
64,192,66860,1,8,0:0:0:0:
320,192,66860,1,0,0:0:0:0:
448,192,66860,1,0,0:0:0:0:
192,192,67009,1,0,0:0:0:0:
320,192,67157,1,2,0:0:0:0:
448,192,67157,1,0,0:0:0:0:
64,192,67157,1,0,0:0:0:0:
320,192,67306,1,0,0:0:0:0:
64,192,67454,1,8,0:0:0:0:
192,192,67454,1,0,0:0:0:0:
320,192,67454,1,0,0:0:0:0:
448,192,67603,1,0,0:0:0:0:
64,192,67603,1,0,0:0:0:0:
192,192,67751,1,2,0:0:0:0:
448,192,67751,1,0,0:0:0:0:
64,192,67900,1,0,0:0:0:0:
320,192,67900,1,0,0:0:0:0:
64,192,68048,1,8,0:0:0:0:
448,192,68048,1,0,0:0:0:0:
192,192,68048,1,0,0:0:0:0:
192,192,68197,1,0,0:0:0:0:
64,192,68197,1,0,0:0:0:0:
192,192,68345,1,2,0:0:0:0:
320,192,68345,1,0,0:0:0:0:
448,192,68494,1,2,0:0:0:0:
320,192,68494,1,0,0:0:0:0:
320,192,68642,1,8,0:0:0:0:
192,192,68642,1,0,0:0:0:0:
192,192,68791,1,2,0:0:0:0:
64,192,68791,1,0,0:0:0:0:
64,192,68939,1,2,0:0:0:0:
448,192,68939,1,0,0:0:0:0:
320,192,69088,1,0,0:0:0:0:
64,192,69236,1,8,0:0:0:0:
448,192,69236,1,0,0:0:0:0:
192,192,69236,1,0,0:0:0:0:
320,192,69385,1,0,0:0:0:0:
64,192,69533,1,2,0:0:0:0:
192,192,69533,1,0,0:0:0:0:
448,192,69533,1,0,0:0:0:0:
320,192,69682,1,0,0:0:0:0:
320,192,69830,1,8,0:0:0:0:
448,192,69830,1,0,0:0:0:0:
64,192,69830,1,0,0:0:0:0:
192,192,69979,1,0,0:0:0:0:
320,192,69979,1,0,0:0:0:0:
448,192,70128,1,2,0:0:0:0:
64,192,70128,1,0,0:0:0:0:
320,192,70128,1,0,0:0:0:0:
192,192,70276,1,0,0:0:0:0:
64,192,70425,1,8,0:0:0:0:
448,192,70425,1,0,0:0:0:0:
320,192,70425,1,0,0:0:0:0:
64,192,70573,1,0,0:0:0:0:
448,192,70573,1,0,0:0:0:0:
64,192,70722,1,0,0:0:0:0:
192,192,70722,1,0,0:0:0:0:
192,192,70870,1,0,0:0:0:0:
320,192,70870,1,0,0:0:0:0:
320,192,71019,1,8,0:0:0:0:
448,192,71019,1,0,0:0:0:0:
320,192,71167,1,2,0:0:0:0:
192,192,71167,1,0,0:0:0:0:
64,192,71316,1,2,0:0:0:0:
320,192,71316,1,0,0:0:0:0:
192,192,71316,1,0,0:0:0:0:
64,192,71464,1,0,0:0:0:0:
320,192,71613,1,8,0:0:0:0:
448,192,71613,1,0,0:0:0:0:
64,192,71761,1,0,0:0:0:0:
64,192,71910,1,8,0:0:0:0:
192,192,71910,1,0,0:0:0:0:
64,192,72058,1,2,0:0:0:0:
448,192,72058,1,0,0:0:0:0:
320,192,72058,1,0,0:0:0:0:
192,192,72132,1,8,0:0:0:0:
64,192,72207,1,2,0:0:0:0:
320,192,72207,1,0,0:0:0:0:
320,192,72355,1,2,0:0:0:0:
448,192,72355,1,0,0:0:0:0:
192,192,72429,1,8,0:0:0:0:
448,192,72504,1,2,0:0:0:0:
64,192,72504,1,0,0:0:0:0:
320,192,72652,1,2,0:0:0:0:
448,192,72652,1,0,0:0:0:0:
64,192,72801,1,2,0:0:0:0:
192,192,72801,1,0,0:0:0:0:
320,192,72949,1,2,0:0:0:0:
448,192,72949,1,0,0:0:0:0:
64,192,73098,1,2,0:0:0:0:
320,192,73098,1,0,0:0:0:0:
192,192,73172,1,2,0:0:0:0:
320,192,73246,1,2,0:0:0:0:
448,192,73321,1,0,0:0:0:0:
320,192,73395,1,2,0:0:0:0:
192,192,73395,128,0,73543:0:0:0:0:
64,192,73395,1,0,0:0:0:0:
320,192,73543,128,2,73692:0:0:0:0:
192,192,73692,1,6,0:0:0:0:
64,192,73692,1,4,0:0:0:0:
448,192,73692,128,0,73840:0:0:0:0:
64,192,73989,128,8,74137:0:0:0:0:
320,192,73989,1,0,0:0:0:0:
448,192,73989,1,0,0:0:0:0:
320,192,74286,1,2,0:0:0:0:
448,192,74286,128,0,74434:0:0:0:0:
192,192,74286,1,0,0:0:0:0:
64,192,74434,128,0,74583:0:0:0:0:
448,192,74583,128,8,74731:0:0:0:0:
320,192,74583,1,0,0:0:0:0:
192,192,74583,1,0,0:0:0:0:
192,192,74731,128,0,74880:0:0:0:0:
320,192,74880,1,2,0:0:0:0:
448,192,74880,1,0,0:0:0:0:
192,192,75029,128,0,75177:0:0:0:0:
320,192,75177,1,8,0:0:0:0:
448,192,75177,1,0,0:0:0:0:
64,192,75326,128,0,75474:0:0:0:0:
192,192,75474,128,2,75623:0:0:0:0:
320,192,75474,1,0,0:0:0:0:
448,192,75474,1,0,0:0:0:0:
320,192,75623,128,0,75771:0:0:0:0:
448,192,75771,128,8,75920:0:0:0:0:
64,192,75771,1,0,0:0:0:0:
192,192,75771,1,0,0:0:0:0:
320,192,75920,128,2,76068:0:0:0:0:
64,192,75920,1,0,0:0:0:0:
192,192,75920,1,0,0:0:0:0:
64,192,76068,1,2,0:0:0:0:
448,192,76068,1,0,0:0:0:0:
64,192,76365,1,8,0:0:0:0:
320,192,76365,1,0,0:0:0:0:
448,192,76365,128,0,76662:0:0:0:0:
64,192,76514,128,0,76662:0:0:0:0:
192,192,76662,128,2,76959:0:0:0:0:
320,192,76662,1,0,0:0:0:0:
320,192,76811,128,0,76959:0:0:0:0:
64,192,76959,1,8,0:0:0:0:
448,192,76959,1,0,0:0:0:0:
64,192,77108,128,0,77256:0:0:0:0:
448,192,77108,128,0,77256:0:0:0:0:
192,192,77256,1,2,0:0:0:0:
320,192,77256,1,0,0:0:0:0:
64,192,77405,128,0,77553:0:0:0:0:
448,192,77405,128,0,77553:0:0:0:0:
192,192,77553,1,8,0:0:0:0:
320,192,77553,1,0,0:0:0:0:
64,192,77702,128,0,77850:0:0:0:0:
192,192,77850,128,4,77999:0:0:0:0:
320,192,77850,1,0,0:0:0:0:
448,192,77850,1,0,0:0:0:0:
448,192,77999,1,2,0:0:0:0:
320,192,77999,1,0,0:0:0:0:
448,192,78147,1,4,0:0:0:0:
192,192,78147,1,0,0:0:0:0:
320,192,78296,1,2,0:0:0:0:
192,192,78296,1,0,0:0:0:0:
448,192,78370,1,0,0:0:0:0:
64,192,78370,1,0,0:0:0:0:
320,192,78444,1,4,0:0:0:0:
192,192,78444,1,0,0:0:0:0:
192,192,78741,1,8,0:0:0:0:
320,192,78741,1,0,0:0:0:0:
448,192,78741,128,0,78890:0:0:0:0:
64,192,79038,1,2,0:0:0:0:
192,192,79038,1,0,0:0:0:0:
320,192,79038,128,0,79187:0:0:0:0:
448,192,79335,1,8,0:0:0:0:
320,192,79335,1,0,0:0:0:0:
192,192,79335,128,0,79484:0:0:0:0:
64,192,79484,128,0,79632:0:0:0:0:
192,192,79632,1,4,0:0:0:0:
448,192,79632,1,0,0:0:0:0:
320,192,79632,1,0,0:0:0:0:
64,192,79781,1,0,0:0:0:0:
320,192,79781,1,0,0:0:0:0:
192,192,79929,1,8,0:0:0:0:
448,192,79929,1,0,0:0:0:0:
448,192,80078,128,0,80227:0:0:0:0:
64,192,80078,1,0,0:0:0:0:
192,192,80227,1,2,0:0:0:0:
320,192,80227,128,0,80375:0:0:0:0:
64,192,80227,1,0,0:0:0:0:
192,192,80375,128,0,80524:0:0:0:0:
64,192,80524,128,8,80672:0:0:0:0:
448,192,80524,1,0,0:0:0:0:
320,192,80524,1,0,0:0:0:0:
192,192,80672,128,2,80821:0:0:0:0:
320,192,80672,1,0,0:0:0:0:
448,192,80672,1,0,0:0:0:0:
320,192,80821,1,2,0:0:0:0:
64,192,80895,1,8,0:0:0:0:
192,192,80969,1,8,0:0:0:0:
320,192,80969,1,0,0:0:0:0:
448,192,81043,1,8,0:0:0:0:
64,192,81118,1,8,0:0:0:0:
320,192,81118,1,0,0:0:0:0:
192,192,81192,1,8,0:0:0:0:
64,192,81266,1,8,0:0:0:0:
448,192,81266,1,0,0:0:0:0:
192,192,81340,1,8,0:0:0:0:
64,192,81415,1,8,0:0:0:0:
320,192,81415,1,0,0:0:0:0:
448,192,81489,1,8,0:0:0:0:
192,192,81563,1,8,0:0:0:0:
320,192,81563,1,0,0:0:0:0:
64,192,81637,1,8,0:0:0:0:
192,192,81712,1,8,0:0:0:0:
320,192,81786,1,8,0:0:0:0:
192,192,81860,1,8,0:0:0:0:
448,192,81860,1,0,0:0:0:0:
320,192,81934,1,8,0:0:0:0:
64,192,82009,1,6,0:0:0:0:
448,192,82009,1,4,0:0:0:0:
192,192,82009,1,0,0:0:0:0:
448,192,82231,1,6,0:0:0:0:
64,192,82231,1,4,0:0:0:0:
320,192,82231,1,0,0:0:0:0:
64,192,82454,1,6,0:0:0:0:
448,192,82454,1,4,0:0:0:0:
192,192,82454,1,0,0:0:0:0:
448,192,82603,1,2,0:0:0:0:
64,192,82603,1,0,0:0:0:0:
192,192,82603,1,0,0:0:0:0:
320,192,82677,1,2,0:0:0:0:
448,192,82751,1,2,0:0:0:0:
64,192,82751,1,0,0:0:0:0:
192,192,82751,1,0,0:0:0:0:
64,192,82900,1,2,0:0:0:0:
320,192,82900,1,0,0:0:0:0:
448,192,82900,1,0,0:0:0:0:
192,192,83048,1,2,0:0:0:0:
448,192,83048,1,0,0:0:0:0:
320,192,83048,1,0,0:0:0:0:
64,192,83197,1,6,0:0:0:0:
448,192,83197,1,4,0:0:0:0:
192,192,83197,1,0,0:0:0:0:
320,192,83494,1,2,0:0:0:0:
192,192,83494,1,0,0:0:0:0:
64,192,83494,1,0,0:0:0:0:
64,192,83791,1,2,0:0:0:0:
448,192,83791,1,0,0:0:0:0:
320,192,83791,1,0,0:0:0:0:
64,192,84088,1,2,0:0:0:0:
320,192,84088,1,0,0:0:0:0:
192,192,84088,1,0,0:0:0:0:
192,192,84385,1,2,0:0:0:0:
448,192,84385,1,0,0:0:0:0:
320,192,84385,1,0,0:0:0:0:
320,192,84533,1,2,0:0:0:0:
64,192,84533,1,0,0:0:0:0:
448,192,84533,1,0,0:0:0:0:
320,192,84682,1,2,0:0:0:0:
448,192,84682,1,0,0:0:0:0:
64,192,84682,1,0,0:0:0:0:
192,192,84830,1,2,0:0:0:0:
64,192,84830,1,0,0:0:0:0:
320,192,84830,1,0,0:0:0:0:
320,192,84979,1,2,0:0:0:0:
448,192,84979,1,0,0:0:0:0:
64,192,84979,1,0,0:0:0:0:
