osu file format v11

[General]
AudioFilename: Prismatic Lollipops.mp3
AudioLeadIn: 1996
PreviewTime: -1
Countdown: 1
SampleSet: Normal
StackLeniency: 0.7
Mode: 0
LetterboxInBreaks: 0

[Editor]
DistanceSpacing: 1.2
BeatDivisor: 4
GridSize: 8

[Metadata]
Title:Prismatic Lollipops
TitleUnicode:Prismatic Lollipops
Artist:Dj Mashiro
ArtistUnicode:Dj Mashiro
Creator:Nidert
Version:Insane
Source:
Tags:
BeatmapID:217277
BeatmapSetID:77381

[Difficulty]
HPDrainRate:6
CircleSize:4
OverallDifficulty:8
ApproachRate:9
SliderMultiplier:2
SliderTickRate:1

[Events]
//Background and Video events
0,0,"shotprismaticlollipops.png"
//Break Periods
//Storyboard Layer 0 (Background)
//Storyboard Layer 1 (Fail)
//Storyboard Layer 2 (Pass)
//Storyboard Layer 3 (Foreground)
//Storyboard Sound Samples
//Background Colour Transformations
3,100,163,162,255

[TimingPoints]
1211,297.029702970297,4,1,1,70,1,0
43129,-100,4,1,1,40,0,0
43314,-100,4,1,1,70,0,0

[Colours]
Combo1 : 255,255,0
Combo2 : 255,128,128
Combo3 : 0,255,64
Combo4 : 255,0,0

[HitObjects]
256,192,468,12,0,1211,0:0:0
392,88,1508,5,8,0:0:0
256,144,1805,1,0,0:0:0
120,88,2102,1,8,0:0:0
88,232,2399,5,0,0:0:0
192,296,2547,1,0,0:0:0
320,296,2696,1,8,0:0:0
424,232,2844,2,0,P|480:272,2,50,0|0|4,0:0|0:0|0:0,0:0:0
456,88,3290,5,0,0:0:0
424,64,3364,1,0,0:0:0
384,72,3438,1,0,0:0:0
344,56,3512,1,0,0:0:0
312,80,3587,2,0,P|296:136|168:168,1,200
80,88,4032,5,0,0:0:0
40,200,4181,1,8,0:0:0
112,296,4329,1,0,0:0:0
224,264,4478,2,0,P|264:296|328:272,1,100,8|0,0:0|0:0,0:0:0
464,104,4923,1,0,0:0:0
232,48,5220,5,0,0:0:0
336,112,5369,1,8,0:0:0
232,168,5517,1,0,0:0:0
344,216,5666,1,8,0:0:0
264,304,5814,2,0,P|240:336|176:336,1,100
32,152,6260,1,0,0:0:0
192,336,6557,5,8,0:0:0
416,256,6854,1,0,0:0:0
416,256,7003,1,0,0:0:0
256,72,7300,1,0,0:0:0
32,152,7597,1,0,0:0:0
88,256,7745,1,8,0:0:0
192,312,7894,5,0,0:0:0
311,312,8042,1,8,0:0:0
416,256,8191,1,0,0:0:0
488,160,8339,1,0,0:0:0
256,88,8637,5,0,0:0:0
88,256,8933,2,0,P|42:255|10:215,1,100,8|0,0:0|0:0,0:0:0
95,129,9230,1,0,0:0:0
200,192,9379,1,0,0:0:0
297,51,9676,2,0,P|197:130|200:192,1,200
288,264,10121,1,8,0:0:0
376,176,10270,1,0,0:0:0
488,224,10418,1,8,0:0:0
504,344,10567,2,0,P|472:320|408:320,1,100
184,264,11012,5,0,0:0:0
16,96,11310,1,8,0:0:0
80,200,11458,1,0,0:0:0
256,32,11755,5,0,0:0:0
456,168,12052,1,0,0:0:0
216,152,12349,1,0,0:0:0
312,232,12498,5,8,0:0:0
312,232,12572,1,0,0:0:0
312,232,12646,1,0,0:0:0
200,264,12795,1,8,0:0:0
112,352,12943,1,0,0:0:0
40,256,13092,1,0,0:0:0
152,48,13389,5,0,0:0:0
376,128,13686,2,0,P|464:64,2,100,8|0|0,0:0|0:0|0:0,0:0:0
424,240,14131,1,0,0:0:0
264,352,14428,1,0,0:0:0
48,240,14725,2,0,P|32:128,1,100,0|8,0:0|0:0,0:0:0
152,160,15022,2,0,P|248:208,1,100,0|8,0:0|0:0,0:0:0
336,280,15319,2,0,P|408:192,1,100
136,24,15765,5,0,0:0:0
40,96,15913,1,0,0:0:0
56,216,16062,1,8,0:0:0
160,280,16210,2,0,P|191:231|327:223,2,200,0|0|0,0:0|0:0|0:0,0:0:0
392,352,17102,1,0,0:0:0
392,352,17250,1,8,0:0:0
448,248,17399,1,0,0:0:0
448,248,17547,1,8,0:0:0
400,136,17696,1,0,0:0:0
400,136,17770,1,0,0:0:0
400,136,17844,1,0,0:0:0
256,328,18141,5,0,0:0:0
184,96,18438,2,0,P|64:256,1,200,8|0,0:0|0:0,0:0:0
149,341,18884,2,0,P|269:181,1,200
464,40,19478,6,0,P|392:128,1,100,0|8,0:0|0:0,0:0:0
496,184,19775,2,0,P|424:272,1,100,0|8,0:0|0:0,0:0:0
347,346,20072,1,0,0:0:0
232,304,20220,1,0,0:0:0
256,184,20369,1,0,0:0:0
152,128,20517,1,0,0:0:0
200,16,20666,1,0,0:0:0
152,128,20814,6,0,P|80:232,1,100,8|0,0:0|0:0,0:0:0
360,128,21260,2,0,P|432:232,1,100
480,40,21631,1,0,0:0:0
480,220,21854,1,0,0:0:0
400,312,22003,1,8,0:0:0
368,336,22077,1,0,0:0:0
328,344,22151,1,0,0:0:0
168,344,22300,2,0,P|120:328|80:272,2,100,8|0|0,0:0|0:0|0:0,0:0:0
40,136,22894,1,8,0:0:0
344,32,23191,1,0,0:0:0
304,352,23488,1,8,0:0:0
136,64,23785,5,0,0:0:0
40,136,23933,1,0,0:0:0
80,248,24082,1,8,0:0:0
192,248,24230,1,0,0:0:0
232,136,24379,1,4,0:0:0
416,288,24676,6,0,P|456:240,3,50
376,256,24973,6,0,P|344:168|424:112,1,200
312,48,25418,1,0,0:0:0
176,248,25715,1,0,0:0:0
80,176,25864,1,0,0:0:0
88,136,25938,1,0,0:0:0
112,104,26012,1,0,0:0:0
144,80,26087,1,0,0:0:0
184,80,26161,1,0,0:0:0
256,312,26458,5,0,0:0:0
464,192,26755,1,8,0:0:0
368,248,26904,1,0,0:0:0
368,128,27052,1,8,0:0:0
280,72,27201,1,0,0:0:0
109,152,27349,2,0,P|168:72,2,100
48,48,27795,5,0,0:0:0
112,152,27943,2,0,P|134:195|160:248,1,100,8|0,0:0|0:0,0:0:0
48,288,28240,6,0,P|56:317|16:368,1,100,8|0,0:0|0:0,0:0:0
144,344,28537,2,0,P|248:280,1,100
469,291,28983,6,0,P|477:261|437:210,1,100,0|8,0:0|0:0,0:0:0
352,296,29280,1,0,0:0:0
352,296,29354,1,0,0:0:0
352,296,29428,1,8,0:0:0
216,336,29577,1,0,0:0:0
88,288,29725,6,0,P|48:240|88:88,1,200
144,192,30171,1,0,0:0:0
176,88,30319,2,0,P|240:168|224:264,1,200,8|0,0:0|0:0,0:0:0
320,152,30765,1,0,0:0:0
424,56,30913,1,0,0:0:0
144,88,31211,5,0,0:0:0
72,320,31508,1,8,0:0:0
312,280,31805,1,0,0:0:0
216,208,31953,1,0,0:0:0
320,152,32102,6,0,P|360:64|280:24,2,200,0|0|8,0:0|0:0|0:0,0:0:0
432,200,32844,1,0,0:0:0
424,320,32993,1,8,0:0:0
312,280,33141,2,0,P|200:312,1,100
72,312,33587,1,0,0:0:0
136,208,33735,2,0,P|168:232,4,25,0|0|0|0|8,0:0|0:0|0:0|0:0|0:0,0:0:0
72,104,34032,1,0,0:0:0
168,32,34181,5,8,0:0:0
200,56,34255,1,0,0:0:0
240,64,34329,1,0,0:0:0
280,56,34404,1,0,0:0:0
312,32,34478,1,0,0:0:0
464,216,34775,5,0,0:0:0
352,248,34923,2,0,P|368:320|488:328,1,200
464,216,35369,1,8,0:0:0
488,184,35443,1,0,0:0:0
496,144,35517,1,0,0:0:0
480,104,35592,1,0,0:0:0
448,80,35666,1,0,0:0:0
408,320,35963,6,0,P|304:368,1,100
200,352,36260,1,8,0:0:0
160,336,36334,1,0,0:0:0
120,320,36409,1,0,0:0:0
88,304,36483,1,0,0:0:0
48,288,36557,1,8,0:0:0
48,168,36706,6,0,P|160:216,1,100
248,248,37003,1,0,0:0:0
248,248,37151,1,0,0:0:0
360,296,37300,2,0,P|424:272|432:232,1,100,0|8,0:0|0:0,0:0:0
336,32,37745,5,0,0:0:0
224,72,37894,2,0,P|168:96|32:40,1,200
24,168,38339,1,0,0:0:0
144,200,38488,1,0,0:0:0
256,232,38636,1,8,0:0:0
376,264,38785,1,0,0:0:0
376,264,38859,1,0,0:0:0
376,264,38933,1,8,0:0:0
272,328,39082,6,0,P|256:224,1,100
88,56,39676,5,0,0:0:0
88,56,39824,1,0,0:0:0
448,88,40270,2,0,P|352:40,1,100
208,232,40715,1,0,0:0:0
432,320,41012,1,8,0:0:0
360,88,41310,5,0,0:0:0
424,192,41458,1,0,0:0:0
432,320,41607,2,0,P|368:360|248:336,1,200
80,168,42201,1,8,0:0:0
128,56,42349,1,0,0:0:0
80,168,42498,1,8,0:0:0
80,287,42646,1,0,0:0:0
192,240,42795,2,0,P|208:304|96:360,1,200
80,360,43129,2,0,P|48:336,5,25
24,296,43389,2,0,P|0:240|8:192,1,100,8|0,0:0|0:0,0:0:0
56,96,43686,2,0,P|80:152|72:200,1,100,8|0,0:0|0:0,0:0:0
184,232,43983,5,0,0:0:0
184,232,44131,1,0,0:0:0
280,168,44280,1,0,0:0:0
280,168,44428,1,0,0:0:0
376,96,44577,2,0,P|288:48,1,100,8|0,0:0|0:0,0:0:0
280,168,44874,2,0,P|256:288,1,100,8|0,0:0|0:0,0:0:0
376,296,45171,1,0,0:0:0
376,336,45245,1,0,0:0:0
376,376,45319,1,0,0:0:0
480,312,45468,5,0,0:0:0
480,312,45542,1,0,0:0:0
480,312,45616,1,0,0:0:0
432,200,45765,2,0,P|328:16,1,200,8|0,0:0|0:0,0:0:0
120,136,46359,5,0,0:0:0
32,360,46656,1,0,0:0:0
256,272,46953,1,0,0:0:0
328,40,47250,1,8,0:0:0
272,152,47399,1,0,0:0:0
384,200,47547,1,8,0:0:0
88,72,47844,5,8,0:0:0
384,200,48141,1,8,0:0:0
96,344,48438,1,8,0:0:0
256,64,48735,1,4,0:0:0
256,304,49032,5,0,0:0:0
80,144,49329,1,8,0:0:0
320,112,49626,2,0,P|384:224,1,100
464,120,49923,5,0,0:0:0
384,32,50072,1,0,0:0:0
256,32,50220,1,0,0:0:0
176,120,50369,1,0,0:0:0
208,232,50517,2,0,P|184:296|152:312,1,100,8|0,0:0|0:0,0:0:0
104,328,50740,2,0,P|72:360,3,25,0|0|8|0,0:0|0:0|0:0|0:0,0:0:0
56,136,51111,6,0,P|24:96|24:48,1,100
144,40,51409,2,0,P|181:73|165:137,1,100
296,120,51706,6,0,P|264:160|263:206,1,100,8|0,0:0|0:0,0:0:0
384,216,52004,2,0,P|421:183|418:135,1,100,8|0,0:0|0:0,0:0:0
480,240,52300,2,0,P|496:296|368:328,2,200,0|0|8,0:0|0:0|0:0,0:0:0
256,336,53191,5,0,0:0:0
224,320,53265,1,0,0:0:0
208,288,53339,1,0,0:0:0
176,264,53413,1,0,0:0:0
144,240,53488,2,0,P|128:192|192:64,1,200
429,65,54082,2,0,P|490:191|474:239,1,200,8|0,0:0|0:0,0:0:0
224,320,54676,5,0,0:0:0
139,235,54824,1,0,0:0:0
24,192,54973,5,0,0:0:0
108,107,55121,1,0,0:0:0
224,96,55270,6,0,P|192:40|144:24,2,100,8|0|8,0:0|0:0|0:0,0:0:0
456,192,55864,5,0,0:0:0
256,328,56161,1,0,0:0:0
88,152,56458,2,0,P|56:232|88:344,1,200,8|0,0:0|0:0,0:0:0
169,253,56904,1,0,0:0:0
288,253,57052,2,0,P|316:146|284:66,2,200,8|8|8,0:0|0:0|0:0,0:0:0
104,104,57943,1,8,0:0:0
200,328,58240,1,4,0:0:0
400,192,58537,1,0,0:0:0
248,8,58834,2,0,P|144:24|105:116,1,200,8|0,0:0|0:0,0:0:0
176,200,59280,5,0,0:0:0
200,320,59428,1,0,0:0:0
304,264,59577,1,0,0:0:0
408,320,59725,1,0,0:0:0
432,200,59874,1,0,0:0:0
368,96,60022,2,0,P|272:32,1,100,8|0,0:0|0:0,0:0:0
199,125,60319,2,0,P|104:64,1,100,8|0,0:0|0:0,0:0:0
48,176,60616,5,0,0:0:0
256,56,60913,1,0,0:0:0
48,176,61211,1,8,0:0:0
288,192,61508,1,0,0:0:0
48,176,61805,5,0,0:0:0
328,328,62102,1,8,0:0:0
368,0,62399,1,0,0:0:0
192,256,62696,1,8,0:0:0
464,88,62993,1,0,0:0:0
224,72,63290,6,0,P|288:160,1,100,8|4,0:0|0:0,0:0:0
256,192,63475,12,0,64181,0:0:0
256,144,64478,5,0,0:0:0
96,320,64775,2,0,P|48:272|64:240,1,100,8|0,0:0|0:0,0:0:0
175,250,65072,2,0,P|191:202|160:168,1,100,8|0,0:0|0:0,0:0:0
368,296,65517,5,0,0:0:0
376,56,65814,1,0,0:0:0
272,120,65963,1,8,0:0:0
184,40,66111,1,0,0:0:0
80,96,66260,1,8,0:0:0
168,176,66409,1,0,0:0:0
64,240,66557,6,0,P|232:368,1,200
392,191,67151,6,0,P|224:319,1,200,8|0,0:0|0:0,0:0:0
184,200,67597,1,0,0:0:0
268,115,67745,2,0,P|372:51,1,100
112,53,68191,1,0,0:0:0
232,24,68339,5,8,0:0:0
352,64,68488,1,0,0:0:0
392,176,68636,1,8,0:0:0
320,272,68785,2,0,P|352:320|400:312,2,100
392,176,69230,5,0,0:0:0
222,6,69527,1,8,0:0:0
40,160,69824,1,0,0:0:0
125,245,69973,1,0,0:0:0
304,88,70270,1,0,0:0:0
256,336,70567,5,0,0:0:0
376,360,70715,1,8,0:0:0
312,256,70864,1,0,0:0:0
432,280,71012,1,8,0:0:0
368,176,71161,1,0,0:0:0
488,208,71310,2,0,P|504:152|392:56,1,200
177,55,71904,2,0,P|217:71|259:120,1,100,8|0,0:0|0:0,0:0:0
16,336,72349,5,0,0:0:0
256,336,72646,1,0,0:0:0
64,192,72943,1,0,0:0:0
160,120,73092,1,8,0:0:0
160,120,73166,1,0,0:0:0
160,120,73240,1,0,0:0:0
272,168,73389,1,8,0:0:0
352,80,73537,1,0,0:0:0
464,112,73686,1,0,0:0:0
240,24,73983,5,0,0:0:0
256,264,74280,2,0,P|224:304|168:304,1,100,8|0,0:0|0:0,0:0:0
64,280,74577,2,0,P|96:240|160:248,1,100,8|0,0:0|0:0,0:0:0
360,336,75022,1,0,0:0:0
456,120,75319,6,0,P|376:192,1,100,0|8,0:0|0:0,0:0:0
381,66,75616,2,0,P|288:152,1,100,0|8,0:0|0:0,0:0:0
187,133,75913,2,0,P|272:56,1,100
80,224,76359,1,0,0:0:0
165,309,76508,1,0,0:0:0
284,309,76656,1,8,0:0:0
369,223,76805,1,0,0:0:0
224,32,77102,5,0,0:0:0
80,224,77399,1,0,0:0:0
264,376,77696,1,0,0:0:0
165,309,77844,1,8,0:0:0
264,376,77993,1,0,0:0:0
165,309,78141,1,8,0:0:0
80,224,78290,1,0,0:0:0
64,192,78364,1,0,0:0:0
72,152,78438,1,0,0:0:0
200,64,78735,5,0,0:0:0
344,136,79032,1,8,0:0:0
165,309,79329,2,0,P|253:365,1,100
456,232,79775,1,0,0:0:0
328,24,80072,1,0,0:0:0
256,120,80220,1,8,0:0:0
184,24,80369,1,0,0:0:0
80,80,80517,6,0,P|32:176,1,100,8|0,0:0|0:0,0:0:0
120,254,80814,2,0,P|176:144,1,100
250,250,81111,2,0,P|200:360,1,100
328,328,81409,6,0,P|352:280|312:216,1,100,8|0,0:0|0:0,0:0:0
472,40,81854,1,0,0:0:0
472,40,82003,1,0,0:0:0
344,168,82225,1,0,0:0:0
176,96,82448,1,0,0:0:0
64,144,82597,1,8,0:0:0
64,144,82671,1,0,0:0:0
64,144,82745,1,0,0:0:0
96,264,82894,2,0,P|208:320,1,100,8|0,0:0|0:0,0:0:0
344,328,83191,5,0,0:0:0
117,101,83488,1,8,0:0:0
395,101,83785,1,0,0:0:0
168,328,84082,1,8,0:0:0
256,24,84379,5,0,0:0:0
200,208,84527,1,0,0:0:0
352,96,84676,1,8,0:0:0
160,96,84824,1,0,0:0:0
312,208,84973,1,4,0:0:0
