osu file format v5

[General]
AudioFilename: dj furax-calabria.mp3
AudioLeadIn: 0
PreviewTime: -1
Countdown: 1
SampleSet: Normal

[Metadata]
Title:Calabria
Artist:Dj Furax
Creator:kaziu
Version:Normal

[Difficulty]
HPDrainRate:4
CircleSize:4
OverallDifficulty:5
SliderMultiplier:1.4
SliderTickRate:1

[Events]
//Background and Video events
//Break Periods
2,75654,82971
//Storyboard Layer 0 (Background)
//Storyboard Layer 1 (Failing)
//Storyboard Layer 2 (Passing)
//Storyboard Layer 3 (Foreground)
//Storyboard Sound Samples
//Background Colour Transformations
3,100,163,162,255

[TimingPoints]
315,399.534760824937,4,1,0,100

[HitObjects]
480,192,-8,1,0
416,192,400,1,0
288,192,796,1,0
192,192,1193,1,0
96,192,1634,1,0
160,96,2031,1,0
256,96,2428,1,0
352,96,2824,1,0
448,96,3662,1,0
448,192,4059,1,0
352,256,4456,1,0
240,258,4853,1,0
127,258,5293,1,0
60,167,5690,1,0
151,102,6087,1,0
253,56,6484,1,0
364,62,6881,1,0
450,133,7322,1,0
456,244,7718,1,0
344,249,8115,1,0
274,186,8512,1,0
354,86,8953,1,0
49,243,9350,5,0
138,176,9746,1,0
198,90,10143,1,0
307,91,10540,2,0,B|316:235|317:244|320:243,1,140
353,336,11378,1,0
256,192,11775,12,0,12183
370,42,12612,1,0
292,102,13009,1,0
217,166,13406,1,0
448,189,13803,2,0,B|308:260|300:264,1,140
236,291,14640,2,0,B|12:297|52:135|242:31|425:69,1,560
329,77,16668,2,0,B|124:291|115:291,1,280
72,160,17859,5,0
155,158,18300,1,0
238,161,18697,1,0
322,161,19093,1,0
405,156,19490,1,0
411,239,19887,1,0
327,241,20328,1,0
243,238,20725,1,0
159,244,21122,1,0
75,246,21518,1,0
326,242,22753,1,0
76,162,21959,2,0,B|359:156,1,280
242,247,23150,1,0
158,251,23546,1,0
116,61,23987,5,0
199,63,24384,1,0
283,63,24781,1,0
367,63,25178,1,0
450,67,25575,1,0
452,150,26015,1,0
452,234,26412,1,0
453,317,26809,1,0
369,315,27206,1,0
285,315,27647,1,0
201,320,28044,1,0
117,321,28440,1,0
33,326,28837,1,0
31,242,29234,1,0
41,158,29675,1,0
38,74,30072,1,0
121,78,30468,1,0
204,83,30865,1,0
288,75,31306,1,0
59,309,31703,5,0
282,272,32100,1,0
165,273,32497,1,0
391,265,32893,1,0
60,239,33334,1,0
152,216,33731,1,0
212,180,34128,1,0
278,158,34525,1,0
338,122,34921,1,0
402,96,35362,1,0
60,286,35759,1,0
376,284,36156,1,0
259,197,36553,1,0
54,48,36994,1,0
186,41,37390,2,0,B|484:44|476:352|119:328|128:353|103:32|132:20,1,700
157,90,39815,1,0
87,200,40212,1,0
114,200,40653,1,0
141,204,41050,1,0
168,204,41447,1,0
195,205,41844,1,0
168,204,42240,1,0
195,205,42681,1,0
222,206,43078,1,0
222,206,43475,1,0
249,210,43872,1,0
276,212,44268,1,0
304,212,44709,1,0
331,213,45106,1,0
358,212,45503,1,0
385,216,45900,1,0
412,213,46341,1,0
439,216,46737,1,0
447,135,47134,2,0,B|304:135|304:133|303:127,1,140
256,192,47928,12,0,49152
168,149,49559,1,0
198,150,50000,1,0
276,151,50397,1,0
312,153,50794,1,0
396,152,51190,1,0
79,264,51587,5,0
155,266,52028,1,0
242,273,52425,1,0
327,270,53219,1,0
448,192,53615,1,0
352,96,54056,1,0
224,96,54453,1,0
96,192,54850,1,0
224,256,55247,1,0
352,256,55688,1,0
288,128,56084,1,0
64,64,56481,2,0,B|64:160|64:224,1,140
64,192,57275,1,4
64,192,57672,6,0,B|416:192|448:64|32:64,1,560
96,64,59700,1,0
192,64,60537,1,0
288,64,60934,1,0
384,64,61331,1,0
288,160,61772,1,0
384,160,62169,1,0
288,256,62566,1,0
384,256,62962,1,0
224,96,63359,1,0
384,96,63800,1,0
96,256,64197,1,0
256,192,64594,1,0
256,192,64990,1,0
256,192,65387,1,0
256,192,65828,1,0
256,192,66225,1,0
256,192,66622,12,0,67030
256,192,67459,2,0,B|128:64,1,140
160,96,68253,5,0
96,256,68650,2,0,B|384:288|352:320|416:320,1,280
416,224,69884,2,0,B|320:96,1,140
320,96,70281,2,0,B|192:256|64:160,1,280
96,192,71516,1,0
224,192,71912,1,0
384,192,72309,1,0
480,192,72706,1,0
320,96,73147,1,0
128,96,73544,1,0
224,224,73941,1,0
96,224,74337,1,0
192,160,74734,1,0
288,256,75175,1,0
288,256,76762,1,0
288,256,77203,1,0
288,256,77600,1,0
288,256,77997,1,0
288,256,78394,1,0
224,96,79231,1,0
352,128,79628,1,0
96,224,80025,1,0
288,256,80422,1,0
224,96,80863,1,0
416,224,81259,1,0
288,256,83684,5,4
