osu file format v12

[General]
AudioFilename: Dj Fresh feat. Rita Ora - Hot Right Now (Radio Edit).mp3
AudioLeadIn: 0
PreviewTime: 82427
Countdown: 0
SampleSet: Normal
StackLeniency: 0.7
Mode: 0
LetterboxInBreaks: 1
WidescreenStoryboard: 0

[Editor]
Bookmarks: 11107,108999
DistanceSpacing: 1.5
BeatDivisor: 4
GridSize: 8

[Metadata]
Title:Hot Right Now (Radio Edit)
TitleUnicode:Hot Right Now (Radio Edit)
Artist:Dj Fresh feat. Rita Ora
ArtistUnicode:Dj Fresh feat. Rita Ora
Creator:[ Lionheart ]
Version:Insane
Source:
Tags:
BeatmapID:356557
BeatmapSetID:143314

[Difficulty]
HPDrainRate:5
CircleSize:4
OverallDifficulty:7
ApproachRate:9
SliderMultiplier:2
SliderTickRate:2

[Events]
//Background and Video events
0,0,"BG.jpg",0,0
//Break Periods
2,55193,59878
//Storyboard Layer 0 (Background)
//Storyboard Layer 1 (Fail)
//Storyboard Layer 2 (Pass)
//Storyboard Layer 3 (Foreground)
//Storyboard Sound Samples
//Background Colour Transformations
3,100,163,162,255

[TimingPoints]
136,685.714285714286,4,1,0,100,1,0
13850,-100,4,1,0,50,0,0
16593,-100,4,1,0,55,0,0
19336,-100,4,1,0,60,0,0
22078,-100,4,1,0,65,0,0
24821,-100,4,1,0,70,0,0
27564,-83.3333333333333,4,1,0,75,0,0
33050,-66.6666666666667,4,1,0,80,0,1
54993,-66.6666666666667,4,1,0,80,0,0
60650,-83.3333333333333,4,1,0,60,0,0
82421,-66.6666666666667,4,1,0,80,0,1
104364,-100,4,1,0,40,0,0
131793,-66.6666666666667,4,1,0,80,0,1
153050,-50,4,1,0,80,0,1
153735,-100,4,1,0,5,0,0

[Colours]
Combo1 : 255,0,255
Combo2 : 0,0,255
Combo3 : 0,255,255
Combo4 : 128,255,0

[HitObjects]
111,64,11107,2,0,P|80:102|72:152,1,100
304,280,11793,2,0,P|335:241|344:192,1,100
208,104,12478,2,0,P|176:142|167:191,1,100
400,319,13164,2,0,P|431:281|440:232,1,100
309,229,13850,1,4,2:0:0:0:
263,163,14193,6,0,P|288:120|330:95,1,100
363,287,14878,2,0,P|338:329|295:355,2,100
424,235,15907,1,0,0:0:0:0:
348,208,16250,6,0,P|379:170|426:153,2,100,0|4|2,0:0|2:0|0:0,0:0:0:0:
333,257,17107,1,0,0:0:0:0:
179,127,17450,1,2,0:0:0:0:
167,165,17621,2,0,P|142:207|99:233,1,100
142,300,18307,5,0,0:0:0:0:
166,305,18478,1,0,0:0:0:0:
191,304,18649,1,0,0:0:0:0:
370,84,18993,1,0,0:0:0:0:
345,78,19164,1,0,0:0:0:0:
320,79,19335,1,0,0:0:0:0:
229,281,19678,2,0,L|266:333,1,50,2|0,0:0|0:0,0:0:0:0:
283,103,20193,2,0,L|246:51,1,50,2|0,0:0|0:0,0:0:0:0:
254,62,20707,1,0,0:0:0:0:
132,109,21050,6,0,P|202:197|297:178,1,200,0|4,0:0|2:0,0:0:0:0:
346,153,22078,1,0,0:0:0:0:
254,62,22421,2,0,L|233:107,1,50
157,108,22764,2,0,L|137:63,1,50
61,63,23107,2,0,L|40:108,1,50
102,149,23450,2,0,L|163:232,1,100
296,268,24136,2,0,L|256:359,1,100
255,359,24821,1,0,0:0:0:0:
239,115,25164,5,0,0:0:0:0:
294,149,25336,2,0,L|338:177,2,50
239,115,25850,1,0,0:0:0:0:
155,100,26021,6,0,L|105:106,1,50
348,91,26536,1,0,0:0:0:0:
357,284,26878,1,0,0:0:0:0:
164,293,27221,1,0,0:0:0:0:
256,192,27564,1,4,2:0:0:0:
198,114,27907,6,0,B|175:145|175:145|141:140,1,59.9999981689454
314,270,28421,2,0,B|337:239|337:239|358:242,1,59.9999981689454
400,156,28936,1,0,0:0:0:0:
336,83,29278,2,0,P|326:131|258:166,1,119.999996337891
176,301,29964,2,0,P|186:253|254:218,1,119.999996337891,0|4,0:0|2:0,0:0:0:0:
285,241,30478,5,0,0:0:0:0:
318,181,30650,1,0,0:0:0:0:
295,117,30821,1,0,0:0:0:0:
233,91,30993,1,0,0:0:0:0:
172,121,31164,1,0,0:0:0:0:
154,187,31336,1,0,0:0:0:0:
191,244,31507,1,0,0:0:0:0:
191,244,31678,5,0,0:0:0:0:
167,219,31764,1,0,0:0:0:0:
154,187,31850,1,0,0:0:0:0:
156,152,31936,1,0,0:0:0:0:
172,121,32021,1,0,0:0:0:0:
199,100,32107,1,0,0:0:0:0:
233,91,32193,5,0,0:0:0:0:
267,98,32278,1,0,0:0:0:0:
295,117,32364,1,0,0:0:0:0:
314,147,32450,1,0,0:0:0:0:
318,181,32536,1,0,0:0:0:0:
307,214,32621,1,0,0:0:0:0:
285,240,32707,1,0,0:0:0:0:
236,175,32878,1,0,0:0:0:0:
236,175,33050,5,4,0:0:0:0:
252,293,33221,2,0,P|271:336|302:350,1,75.0000028610231,0|8,0:0|0:0,0:0:0:0:
180,250,33564,2,0,P|133:244|105:264,1,75.0000028610231,0|0,0:0|0:0,0:0:0:0:
252,206,33907,2,0,P|279:168|276:134,2,75.0000028610231,0|8|0,0:0|0:0|0:0,0:0:0:0:
407,176,34421,6,0,P|380:96|308:77,2,150.000005722046,0|8|0,0:0|0:0|0:0,0:0:0:0:
176,200,35278,1,0,0:0:0:0:
256,192,35449,1,8,0:0:0:0:
336,184,35621,1,0,0:0:0:0:
105,208,35793,6,0,P|132:288|204:307,2,150.000005722046,0|8|0,0:0|0:0|0:0,0:0:0:0:
128,64,36650,2,0,P|76:109|73:131,1,75.0000028610231,0|8,0:0|0:0,0:0:0:0:
217,162,36993,2,0,P|269:207|272:229,1,75.0000028610231
120,225,37336,2,0,P|68:270|65:292,2,75.0000028610231,0|8|0,0:0|0:0|0:0,0:0:0:0:
142,268,37764,1,0,0:0:0:0:
183,294,37850,1,0,0:0:0:0:
343,372,38021,2,0,P|395:327|398:305,1,75.0000028610231,0|8,0:0|0:0,0:0:0:0:
428,216,38364,1,0,0:0:0:0:
301,112,38536,5,0,0:0:0:0:
175,195,38707,2,2,B|192:196|192:196|219:166|219:166|238:167,1,75.0000028610231,2|10,0:0|0:0,0:0:0:0:
349,266,39050,2,2,B|332:267|332:267|305:237|305:237|286:238,1,75.0000028610231
254,91,39393,5,0,0:0:0:0:
118,154,39564,2,0,B|65:174|65:174|60:205,1,75.0000028610231,8|0,0:0|0:0,0:0:0:0:
169,244,39907,5,0,0:0:0:0:
292,330,40078,2,0,B|335:366|335:366|365:355,1,75.0000028610231,0|8,0:0|0:0,0:0:0:0:
344,241,40421,5,0,0:0:0:0:
357,91,40593,2,0,B|367:36|367:36|342:16,2,75.0000028610231,0|0|8,0:0|0:0|0:0,0:0:0:0:
256,376,41278,1,0,0:0:0:0:
198,108,41621,5,8,0:0:0:0:
98,219,41793,1,4,2:0:0:0:
314,108,42136,5,8,0:0:0:0:
414,219,42307,1,4,2:0:0:0:
128,192,42650,2,0,B|64:192|64:192|40:168|40:168|40:112,1,150.000005722046,0|8,0:0|0:0,0:0:0:0:
384,192,43336,2,0,B|448:192|448:192|472:216|472:216|472:272,1,150.000005722046,0|8,0:0|0:0,0:0:0:0:
472,352,43850,1,0,0:0:0:0:
328,312,44021,6,0,P|312:264|280:216,1,75.0000028610231
154,206,44364,2,0,P|164:241|181:275,1,75.0000028610231,8|0,0:0|0:0,0:0:0:0:
358,177,44707,2,0,P|347:142|330:108,1,75.0000028610231
184,72,45050,2,0,P|194:107|211:141,1,75.0000028610231,8|0,0:0|0:0,0:0:0:0:
272,343,45393,6,0,P|352:316|371:244,2,150.000005722046,0|8|0,0:0|0:0|0:0,0:0:0:0:
248,112,46250,1,0,0:0:0:0:
256,192,46421,1,8,0:0:0:0:
264,272,46593,1,0,0:0:0:0:
240,41,46765,6,0,P|160:68|141:140,2,150.000005722046,0|8|0,0:0|0:0|0:0,0:0:0:0:
384,1,47621,2,0,P|406:65|398:86,2,75.0000028610231,0|8|0,0:0|0:0|0:0,0:0:0:0:
378,152,48136,2,0,P|429:218|404:288,2,150.000005722046,0|8|0,0:0|0:0|0:0,0:0:0:0:
296,192,48993,1,0,0:0:0:0:
256,272,49164,1,8,0:0:0:0:
216,192,49336,1,0,0:0:0:0:
134,152,49507,6,0,P|82:218|107:288,1,150.000005722046,0|8,0:0|0:0,0:0:0:0:
215,371,50021,1,0,0:0:0:0:
334,279,50193,2,0,P|250:287|204:228,1,150.000005722046,0|8,0:0|0:0,0:0:0:0:
138,110,50707,1,0,0:0:0:0:
240,0,50878,2,0,P|250:35|267:69,1,75.0000028610231
378,152,51221,6,0,P|429:218|404:288,2,150.000005722046
261,247,52250,6,0,P|181:272|124:224,1,150.000005722046
89,300,52764,2,0,P|63:220|111:163,1,150.000005722046
131,237,53278,1,0,0:0:0:0:
256,360,53621,5,0,0:0:0:0:
157,56,53964,1,8,0:0:0:0:
415,243,54307,1,0,0:0:0:0:
96,243,54650,1,8,0:0:0:0:
354,56,54993,1,0,0:0:0:0:
144,56,60478,5,4,2:0:0:0:
144,56,60650,2,0,P|111:85|100:121,1,59.9999981689454
144,179,60993,1,0,0:0:0:0:
144,269,61164,2,0,P|111:298|100:334,2,59.9999981689454
184,349,61678,1,0,0:0:0:0:
233,273,61850,2,0,P|276:264|303:238,1,59.9999981689454
317,340,62193,2,0,P|371:278|363:199,1,119.999996337891
375,243,62878,1,0,0:0:0:0:
146,235,63221,5,0,0:0:0:0:
122,152,63393,2,0,P|126:103|138:84,1,59.9999981689454
215,25,63736,2,0,P|211:74|199:93,1,59.9999981689454
264,250,64078,2,0,P|268:201|280:182,1,59.9999981689454
272,192,64421,1,0,0:0:0:0:
377,45,64593,2,0,P|391:125|343:189,2,119.999996337891
377,45,65621,1,0,0:0:0:0:
377,45,65964,1,4,2:0:0:0:
198,108,66307,5,0,0:0:0:0:
146,181,66478,1,4,2:0:0:0:
314,108,66821,5,0,0:0:0:0:
366,181,66993,1,4,2:0:0:0:
256,248,67336,1,0,0:0:0:0:
342,262,67678,2,0,P|347:313|370:348,1,59.9999981689454
400,384,68021,1,0,0:0:0:0:
170,262,68364,2,0,P|165:313|142:348,1,59.9999981689454
112,384,68707,1,0,0:0:0:0:
314,276,69050,5,0,0:0:0:0:
366,203,69221,1,4,2:0:0:0:
198,276,69564,5,0,0:0:0:0:
146,203,69736,1,4,2:0:0:0:
122,61,70421,5,0,0:0:0:0:
122,61,70593,1,0,0:0:0:0:
122,61,70764,2,0,P|157:105|179:169,1,119.999996337891
239,60,71450,1,0,0:0:0:0:
80,141,71621,5,0,0:0:0:0:
42,222,71793,2,0,B|38:248|38:248|61:281,1,59.9999981689454
144,253,72136,2,0,B|163:280|163:280|147:367,1,119.999996337891
249,299,72650,5,0,0:0:0:0:
292,220,72821,2,0,P|302:191|300:162,1,59.9999981689454
337,313,73164,1,0,0:0:0:0:
337,313,73336,1,0,0:0:0:0:
403,252,73507,2,0,P|422:306|405:379,1,119.999996337891
492,205,74193,5,0,0:0:0:0:
452,124,74364,2,0,P|437:98|413:80,1,59.9999981689454
326,109,74707,2,0,P|341:134|365:152,1,59.9999981689454
365,152,75050,1,0,0:0:0:0:
236,103,75221,2,0,P|221:77|197:59,1,59.9999981689454
164,142,75564,2,0,P|191:192|257:228,3,119.999996337891
341,71,76936,5,4,2:0:0:0:
377,277,77278,1,0,0:0:0:0:
171,313,77621,1,0,0:0:0:0:
135,107,77964,1,0,0:0:0:0:
401,90,78307,5,0,0:0:0:0:
357,337,78650,1,0,0:0:0:0:
110,293,78993,1,0,0:0:0:0:
154,46,79336,1,0,0:0:0:0:
473,201,79678,5,4,2:0:0:0:
416,181,79850,1,0,0:0:0:0:
356,177,80021,1,0,0:0:0:0:
297,185,80193,1,0,0:0:0:0:
238,196,80364,1,0,0:0:0:0:
178,200,80536,1,0,0:0:0:0:
119,191,80707,1,0,0:0:0:0:
64,167,80878,1,0,0:0:0:0:
15,111,81050,5,0,0:0:0:0:
5,140,81136,1,0,0:0:0:0:
0,169,81221,1,0,0:0:0:0:
1,199,81307,1,0,0:0:0:0:
8,228,81393,1,0,0:0:0:0:
21,255,81478,1,0,0:0:0:0:
39,279,81564,5,0,0:0:0:0:
62,299,81650,1,0,0:0:0:0:
88,313,81736,1,0,0:0:0:0:
116,323,81821,1,0,0:0:0:0:
146,326,81907,1,0,0:0:0:0:
176,323,81993,1,0,0:0:0:0:
205,315,82078,5,0,0:0:0:0:
421,378,82421,2,0,P|390:357|378:322,1,75.0000028610231
237,286,82764,2,0,P|270:270|306:278,1,75.0000028610231,8|0,0:0|0:0,0:0:0:0:
405,170,83107,2,0,P|402:206|378:234,2,75.0000028610231,0|0|8,0:0|0:0|0:0,0:0:0:0:
405,170,83621,1,0,0:0:0:0:
240,343,83793,6,0,P|160:316|141:244,2,150.000005722046,0|8|0,0:0|0:0|0:0,0:0:0:0:
264,112,84650,1,0,0:0:0:0:
256,192,84821,1,8,0:0:0:0:
248,272,84993,1,0,0:0:0:0:
272,41,85165,6,0,P|352:68|371:140,2,150.000005722046,0|8|0,0:0|0:0|0:0,0:0:0:0:
242,335,86193,1,8,0:0:0:0:
256,192,86364,1,0,0:0:0:0:
270,49,86536,1,0,0:0:0:0:
256,192,86878,1,8,0:0:0:0:
256,192,87221,1,0,0:0:0:0:
61,78,87564,6,0,P|94:62|130:70,1,75.0000028610231,8|0,0:0|0:0,0:0:0:0:
275,160,87907,2,0,P|206:127|133:149,1,150.000005722046,0|8,0:0|0:0,0:0:0:0:
274,326,88421,1,0,0:0:0:0:
60,243,88593,2,0,P|131:217|202:245,1,150.000005722046,0|8,0:0|0:0,0:0:0:0:
275,160,89107,1,0,0:0:0:0:
355,298,89278,2,0,P|371:264|363:229,1,75.0000028610231
187,27,89621,6,0,P|166:96|197:163,1,150.000005722046,8|0,0:0|0:0,0:0:0:0:
197,163,90136,1,0,0:0:0:0:
207,299,90307,2,0,P|229:229|198:163,1,150.000005722046,8|0,0:0|0:0,0:0:0:0:
398,37,90993,6,0,P|413:70|405:106,1,75.0000028610231,8|4,0:0|2:0,0:0:0:0:
347,323,91507,2,0,P|331:289|339:253,1,75.0000028610231,8|4,0:0|2:0,0:0:0:0:
256,192,92021,1,0,0:0:0:0:
252,46,92364,2,0,B|278:103|218:124|256:192,1,150.000005722046,8|0,0:0|0:0,0:0:0:0:
78,162,93050,6,0,B|60:185|60:185|87:238,1,75.0000028610231,8|0,0:0|0:0,0:0:0:0:
137,323,93393,1,0,0:0:0:0:
226,370,93564,2,0,B|249:388|249:388|302:361,1,75.0000028610231,0|8,0:0|0:0,0:0:0:0:
387,311,93907,1,0,0:0:0:0:
434,222,94078,6,0,B|452:199|452:199|425:146,1,75.0000028610231
375,61,94421,1,8,0:0:0:0:
286,14,94593,2,0,B|263:-4|263:-4|210:23,1,75.0000028610231
125,73,95107,1,8,0:0:0:0:
125,73,95450,1,0,0:0:0:0:
129,221,96136,5,0,0:0:0:0:
293,67,96478,1,8,0:0:0:0:
344,286,96821,1,0,0:0:0:0:
223,248,97164,5,8,0:0:0:0:
223,135,97336,1,0,0:0:0:0:
320,192,97507,1,0,0:0:0:0:
256,192,97850,1,8,0:0:0:0:
256,280,98193,5,0,0:0:0:0:
204,120,98364,1,0,0:0:0:0:
339,219,98536,1,8,0:0:0:0:
172,219,98707,1,0,0:0:0:0:
307,120,98878,1,0,0:0:0:0:
98,36,99221,6,0,P|62:58|52:96,1,75.0000028610231,8|0,0:0|0:0,0:0:0:0:
152,148,99564,1,0,0:0:0:0:
414,36,99907,2,0,P|446:53|460:87,1,75.0000028610231,8|0,0:0|0:0,0:0:0:0:
360,148,100250,1,0,0:0:0:0:
413,249,100421,2,0,P|446:232|460:198,1,75.0000028610231,0|8,0:0|0:0,0:0:0:0:
360,148,100936,1,0,0:0:0:0:
252,337,101278,2,0,B|278:281|218:260|256:192,1,150.000005722046,8|0,0:0|0:0,0:0:0:0:
198,108,101964,5,8,0:0:0:0:
98,219,102136,1,0,0:0:0:0:
314,108,102478,5,0,0:0:0:0:
414,219,102650,1,8,0:0:0:0:
252,46,102993,2,0,B|278:103|218:124|256:192,2,150.000005722046,0|8|0,0:0|0:0|0:0,0:0:0:0:
256,192,104021,1,8,0:0:0:0:
256,192,104364,1,0,0:0:0:0:
256,192,104707,12,0,108478,2:0:0:0:
402,54,108993,6,0,L|427:97,1,50
361,133,109336,2,0,L|352:182,2,50
402,54,109850,2,0,P|351:33|283:63,1,100,4|0,2:0|0:0,0:0:0:0:
160,16,110536,2,0,L|121:47,1,50
270,66,111050,2,0,L|231:97,1,50
126,297,111736,5,0,0:0:0:0:
126,222,111907,1,0,0:0:0:0:
191,260,112078,1,0,0:0:0:0:
107,292,112250,5,0,0:0:0:0:
138,208,112421,1,0,0:0:0:0:
196,277,112593,1,4,2:0:0:0:
256,192,112936,1,0,0:0:0:0:
352,16,113278,6,0,L|390:47,1,50,0|4,0:0|2:0,0:0:0:0:
242,66,113793,2,0,L|280:97,1,50,0|4,0:0|2:0,0:0:0:0:
386,297,114307,5,0,0:0:0:0:
386,222,114478,1,0,0:0:0:0:
321,260,114650,1,0,0:0:0:0:
404,292,114993,5,0,0:0:0:0:
373,208,115336,1,4,2:0:0:0:
315,277,115678,1,0,0:0:0:0:
198,108,116021,5,0,0:0:0:0:
146,181,116193,1,4,2:0:0:0:
314,108,116536,5,0,0:0:0:0:
366,181,116707,1,4,2:0:0:0:
236,241,117393,5,0,0:0:0:0:
206,172,117564,1,0,0:0:0:0:
275,142,117736,1,0,0:0:0:0:
305,211,117907,1,0,0:0:0:0:
256,192,118078,12,0,119450,0:0:0:0:
434,52,119964,6,0,L|405:92,1,50
404,92,120307,1,0,0:0:0:0:
354,92,120478,2,0,L|334:47,1,50
288,24,120821,2,0,P|237:45|169:15,1,100,4|0,2:0|0:0,0:0:0:0:
352,368,121507,6,0,L|390:336,1,50,0|4,0:0|2:0,0:0:0:0:
242,318,122021,2,0,L|280:286,1,50,0|4,0:0|2:0,0:0:0:0:
233,198,122707,5,0,0:0:0:0:
161,174,122878,1,0,0:0:0:0:
161,99,123050,1,0,0:0:0:0:
233,76,123221,1,0,0:0:0:0:
277,137,123393,1,0,0:0:0:0:
233,198,123564,5,4,2:0:0:0:
233,76,123907,1,0,0:0:0:0:
160,368,124250,6,0,L|121:336,1,50,0|4,0:0|2:0,0:0:0:0:
270,318,124764,2,0,L|231:286,1,50,0|4,0:0|2:0,0:0:0:0:
379,262,125278,1,0,0:0:0:0:
391,188,125450,1,0,0:0:0:0:
449,235,125621,1,0,0:0:0:0:
310,293,125964,1,0,0:0:0:0:
40,248,126307,5,4,2:0:0:0:
80,136,126650,1,0,0:0:0:0:
120,272,126993,1,0,0:0:0:0:
160,88,127336,1,0,0:0:0:0:
200,320,127678,5,0,0:0:0:0:
240,40,128021,1,0,0:0:0:0:
280,368,128364,1,0,0:0:0:0:
320,0,128707,1,0,0:0:0:0:
472,160,129050,5,4,2:0:0:0:
432,224,129221,1,0,0:0:0:0:
392,160,129393,1,0,0:0:0:0:
352,224,129564,1,0,0:0:0:0:
312,160,129736,1,0,0:0:0:0:
272,224,129907,1,0,0:0:0:0:
232,160,130078,1,0,0:0:0:0:
192,224,130250,1,0,0:0:0:0:
32,192,130421,5,0,0:0:0:0:
52,177,130507,1,0,0:0:0:0:
74,166,130593,1,0,0:0:0:0:
99,160,130678,1,0,0:0:0:0:
123,158,130764,1,0,0:0:0:0:
148,161,130850,1,0,0:0:0:0:
173,167,130936,1,0,0:0:0:0:
196,175,131021,1,0,0:0:0:0:
219,185,131107,5,0,0:0:0:0:
242,194,131193,1,0,0:0:0:0:
265,204,131278,1,0,0:0:0:0:
289,212,131364,1,0,0:0:0:0:
313,218,131450,1,0,0:0:0:0:
406,193,131793,6,0,P|432:160|424:112,1,75.0000028610231
312,36,132136,2,0,P|286:69|294:117,1,75.0000028610231,8|0,0:0|0:0,0:0:0:0:
168,193,132478,2,0,P|194:160|186:112,1,75.0000028610231
74,39,132821,2,0,P|48:72|56:120,1,75.0000028610231,8|0,0:0|0:0,0:0:0:0:
240,343,133164,6,0,P|160:316|141:244,2,150.000005722046,0|8|0,0:0|0:0|0:0,0:0:0:0:
264,112,134021,1,0,0:0:0:0:
256,192,134192,1,8,0:0:0:0:
248,272,134364,1,0,0:0:0:0:
272,41,134536,6,0,P|352:68|371:140,2,150.000005722046,0|8|0,0:0|0:0|0:0,0:0:0:0:
426,305,135564,2,0,P|452:272|444:224,1,75.0000028610231,8|0,0:0|0:0,0:0:0:0:
371,130,135907,1,0,0:0:0:0:
140,130,136250,1,8,0:0:0:0:
60,240,136421,2,0,P|61:277|86:305,1,75.0000028610231
216,262,136764,2,0,P|216:225|192:198,1,75.0000028610231,0|8,0:0|0:0,0:0:0:0:
294,262,137107,6,0,P|295:225|320:198,2,75.0000028610231
444,268,137621,1,8,0:0:0:0:
294,262,137793,2,0,P|295:225|320:198,1,75.0000028610231
452,37,138307,2,0,P|450:73|426:101,1,75.0000028610231,8|0,0:0|0:0,0:0:0:0:
249,166,138650,2,0,P|250:129|275:102,2,75.0000028610231,0|0|8,0:0|0:0|0:0,0:0:0:0:
210,311,139336,1,0,0:0:0:0:
88,223,139678,1,8,0:0:0:0:
210,311,140021,1,0,0:0:0:0:
314,108,140364,5,8,0:0:0:0:
414,219,140536,1,4,2:0:0:0:
198,108,140878,5,8,0:0:0:0:
98,219,141050,1,4,2:0:0:0:
376,330,141393,6,0,B|323:323|323:323|377:210,1,150.000005722046,0|8,0:0|0:0,0:0:0:0:
136,54,142078,2,0,B|189:61|189:61|135:174,1,150.000005722046,0|8,0:0|0:0,0:0:0:0:
147,148,142593,1,0,0:0:0:0:
55,266,142764,6,0,P|62:303|104:331,1,75.0000028610231
225,263,143107,2,0,P|249:291|299:294,1,75.0000028610231,8|0,0:0|0:0,0:0:0:0:
274,185,143450,1,0,0:0:0:0:
387,188,143621,2,0,P|422:200|467:178,2,75.0000028610231,0|8|0,0:0|0:0|0:0,0:0:0:0:
324,65,144136,5,0,0:0:0:0:
187,318,144478,1,8,0:0:0:0:
256,192,144821,1,0,0:0:0:0:
256,192,145164,1,8,0:0:0:0:
376,336,145507,6,0,B|424:312|424:312|445:272|445:272|493:251,1,150.000005722046,0|8,0:0|0:0,0:0:0:0:
136,48,146193,2,0,B|88:72|88:72|67:112|67:112|19:133,1,150.000005722046,0|8,0:0|0:0,0:0:0:0:
184,143,146707,2,0,B|258:147,1,75.0000028610231
258,147,147050,1,0,0:0:0:0:
397,183,147221,2,0,B|293:177|293:177|259:147,1,150.000005722046,8|0,0:0|0:0,0:0:0:0:
196,320,147736,6,0,B|230:350|230:350|319:357,1,75.0000028610231,0|8,0:0|0:0,0:0:0:0:
398,297,148078,1,0,0:0:0:0:
175,76,148250,6,0,B|131:90|131:90|81:164,1,75.0000028610231
94,262,148593,1,8,0:0:0:0:
396,179,148764,2,0,B|406:135|406:135|367:54,1,75.0000028610231
256,104,149278,5,8,0:0:0:0:
204,264,149450,1,0,0:0:0:0:
339,165,149621,1,0,0:0:0:0:
172,165,149793,1,0,0:0:0:0:
307,264,149964,1,8,0:0:0:0:
256,192,150307,5,0,0:0:0:0:
256,192,150650,5,8,0:0:0:0:
256,192,150993,5,0,0:0:0:0:
256,128,151336,5,8,0:0:0:0:
256,0,151507,1,4,2:0:0:0:
256,256,151850,5,8,0:0:0:0:
256,384,152021,1,4,2:0:0:0:
256,0,152364,5,0,0:0:0:0:
256,384,152707,1,8,0:0:0:0:
256,192,153050,2,0,B|298:121|435:265|154:393|81:162|259:135|287:139|252:23,1,400
