osu file format v12

[General]
AudioFilename: Dj Fresh feat. Rita Ora - Hot Right Now (Radio Edit).mp3
AudioLeadIn: 0
PreviewTime: 82427
Countdown: 0
SampleSet: Normal
StackLeniency: 0.7
Mode: 0
LetterboxInBreaks: 1
WidescreenStoryboard: 1

[Editor]
Bookmarks: 11113,108999
DistanceSpacing: 1
BeatDivisor: 4
GridSize: 8

[Metadata]
Title:Hot Right Now (Radio Edit)
TitleUnicode:Hot Right Now (Radio Edit)
Artist:Dj Fresh feat. Rita Ora
ArtistUnicode:Dj Fresh feat. Rita Ora
Creator:[ Lionheart ]
Version:Hard
Source:
Tags:
BeatmapID:356556
BeatmapSetID:143314

[Difficulty]
HPDrainRate:4
CircleSize:4
OverallDifficulty:5
ApproachRate:8
SliderMultiplier:2
SliderTickRate:2

[Events]
//Background and Video events
0,0,"BG.jpg",0,0
//Break Periods
2,55193,59728
2,104563,108243
//Storyboard Layer 0 (Background)
//Storyboard Layer 1 (Fail)
//Storyboard Layer 2 (Pass)
//Storyboard Layer 3 (Foreground)
//Storyboard Sound Samples
//Background Colour Transformations
3,100,163,162,255

[TimingPoints]
136,685.714285714286,4,1,0,100,1,0
13850,-100,4,1,0,50,0,0
16593,-100,4,1,0,55,0,0
19336,-100,4,1,0,60,0,0
22078,-100,4,1,0,65,0,0
24821,-100,4,1,0,70,0,0
27564,-83.3333333333333,4,1,0,75,0,0
33050,-66.6666666666667,4,1,0,80,0,1
54993,-83.3333333333333,4,1,0,60,0,0
82421,-66.6666666666667,4,1,0,80,0,1
104364,-100,4,1,0,40,0,0
131793,-66.6666666666667,4,1,0,80,0,1
153050,-50,4,1,0,80,0,1
153735,-100,4,1,0,80,0,0

[Colours]
Combo1 : 255,0,255
Combo2 : 0,0,255
Combo3 : 0,255,255
Combo4 : 128,255,0

[HitObjects]
143,55,11107,2,0,P|88:109|90:163,1,100
87,228,11793,1,0,0:0:0:0:
127,319,12136,2,0,P|182:265|180:211,1,100
183,146,12822,1,0,0:0:0:0:
272,102,13164,2,0,P|217:48|219:-6,2,100,0|0|4,0:0|0:0|2:0,0:0:0:0:
350,39,14193,5,0,0:0:0:0:
410,118,14536,1,0,0:0:0:0:
335,184,14878,1,0,0:0:0:0:
403,257,15221,2,0,P|385:302|344:330,1,100
309,236,15907,2,0,P|268:263|250:309,1,100
172,245,16593,1,4,2:0:0:0:
98,177,16936,6,0,L|58:128,1,50
157,97,17450,2,0,L|197:48,1,50,0|0,0:0|0:0,0:0:0:0:
284,29,17964,1,0,0:0:0:0:
378,60,18307,2,0,B|410:76|410:76|456:148,1,100
377,204,18993,2,0,B|361:236|361:236|289:282,1,100,0|4,0:0|2:0,0:0:0:0:
239,196,19678,6,0,L|190:156,1,50
159,255,20192,2,0,L|110:295,1,50,0|0,0:0|0:0,0:0:0:0:
56,208,20707,2,0,P|111:154|109:100,1,100
145,39,21393,2,0,P|164:113|212:138,1,100
249,197,22078,2,0,P|174:176|128:205,2,100,4|0|0,2:0|0:0|0:0,0:0:0:0:
284,232,22936,5,0,0:0:0:0:
323,262,23107,2,0,P|351:270|392:257,2,50
226,290,23793,2,0,B|210:322|210:322|138:368,2,100
326,290,24821,2,0,B|342:322|342:322|414:368,1,100,4|0,2:0|0:0,0:0:0:0:
440,380,25336,1,0,0:0:0:0:
482,353,25507,2,0,B|492:289|492:289|479:256,1,100
457,211,26021,1,0,0:0:0:0:
426,171,26193,6,0,P|351:150|305:179,2,100
504,233,27221,1,0,0:0:0:0:
401,295,27564,6,0,P|351:328|269:307,1,119.999996337891,4|0,2:0|0:0,0:0:0:0:
311,203,28250,2,0,P|252:216|182:169,1,119.999996337891
259,87,28936,2,0,P|199:80|150:11,2,119.999996337891
374,55,29964,1,0,0:0:0:0:
390,173,30307,5,4,2:0:0:0:
390,173,30478,2,0,L|423:235,2,59.9999981689454
329,173,30993,5,0,0:0:0:0:
329,173,31164,2,0,L|296:111,2,59.9999981689454
268,173,31678,6,0,L|290:213,7,29.9999990844727
267,173,32364,6,0,L|245:133,4,29.9999990844727
216,134,33050,6,0,P|144:160|140:232,1,150.000005722046,0|8,0:0|0:0,0:0:0:0:
217,285,33736,2,0,P|289:259|293:187,1,150.000005722046,0|8,0:0|0:0,0:0:0:0:
279,120,34250,2,0,L|299:26,1,75.0000028610231
443,29,34764,2,0,B|489:52|489:52|466:158,1,150.000005722046,8|0,0:0|0:0,0:0:0:0:
435,295,35450,1,0,0:0:0:0:
304,368,35793,2,0,B|258:345|258:345|281:239,1,150.000005722046,0|8,0:0|0:0,0:0:0:0:
312,102,36479,1,0,0:0:0:0:
163,83,36821,6,0,P|133:63|92:54,2,75.0000028610231,8|0|0,0:0|0:0|0:0,0:0:0:0:
304,133,37507,1,8,0:0:0:0:
425,220,37850,1,0,0:0:0:0:
340,344,38193,6,0,P|370:364|411:373,2,75.0000028610231,8|0|0,0:0|0:0|0:0,0:0:0:0:
241,230,38878,2,0,P|211:210|170:201,2,75.0000028610231,8|0|0,0:0|0:0|0:0,0:0:0:0:
357,294,39564,5,8,0:0:0:0:
288,160,39907,2,0,P|346:108|421:91,1,150.000005722046,0|8,0:0|0:0,0:0:0:0:
491,225,40593,1,0,0:0:0:0:
198,287,41278,5,0,0:0:0:0:
243,144,41621,2,0,P|265:173|276:209,1,75.0000028610231,8|4,0:0|2:0,0:0:0:0:
290,359,42136,2,0,P|267:329|256:293,1,75.0000028610231,8|4,0:0|2:0,0:0:0:0:
227,110,42650,5,0,0:0:0:0:
341,208,42993,1,8,0:0:0:0:
199,257,43336,1,0,0:0:0:0:
405,40,43850,5,0,0:0:0:0:
405,40,44021,2,0,L|447:114,2,75.0000028610231,0|0|8,0:0|0:0|0:0,0:0:0:0:
135,112,44707,2,0,B|192:137|192:137|281:89,1,150.000005722046,0|8,0:0|0:0,0:0:0:0:
397,16,45393,2,0,B|372:73|372:73|420:162,2,150.000005722046,0|8|0,0:0|0:0|0:0,0:0:0:0:
243,273,46764,5,0,0:0:0:0:
98,233,47107,2,0,B|140:311|140:311|115:368,2,150.000005722046,8|0|8,0:0|0:0|0:0,0:0:0:0:
66,165,47964,2,0,B|143:123|143:123,1,75.0000028610231
266,63,48478,1,8,0:0:0:0:
266,63,48821,1,0,0:0:0:0:
46,73,49507,6,0,P|17:137|64:213,1,150.000005722046,0|8,0:0|0:0,0:0:0:0:
173,289,50193,2,0,P|202:225|155:149,1,150.000005722046,0|8,0:0|0:0,0:0:0:0:
195,87,50707,1,0,0:0:0:0:
262,53,50878,2,0,P|302:110|392:107,1,150.000005722046,0|8,0:0|0:0,0:0:0:0:
484,8,51564,1,0,0:0:0:0:
432,304,52250,6,0,B|392:304|392:304|368:280|368:280|288:280,1,150.000005722046,0|8,0:0|0:0,0:0:0:0:
291,280,52764,1,0,0:0:0:0:
220,280,53107,5,0,0:0:0:0:
220,280,53279,2,0,B|144:280|144:280|120:304|120:304|80:304,2,150.000005722046,8|0|8,0:0|0:0|0:0,0:0:0:0:
192,132,54307,5,0,0:0:0:0:
338,166,54650,1,8,0:0:0:0:
236,276,54993,1,0,0:0:0:0:
128,56,60478,6,0,P|72:120|80:152,1,119.999996337891,4|0,2:0|0:0,0:0:0:0:
156,237,61164,2,0,P|212:173|204:141,1,119.999996337891
312,88,61850,1,0,0:0:0:0:
319,207,62193,1,0,0:0:0:0:
222,308,62536,2,0,B|259:347|259:347|349:329,1,119.999996337891
432,192,63221,5,0,0:0:0:0:
432,192,63393,1,0,0:0:0:0:
432,192,63564,2,0,B|384:152|384:152|336:192,1,119.999996337891
328,308,64250,2,0,B|283:344|283:344|235:304,1,119.999996337891
151,218,64936,1,0,0:0:0:0:
215,116,65278,6,0,P|157:95|87:127,2,119.999996337891,0|0|4,0:0|0:0|2:0,0:0:0:0:
334,99,66307,2,0,L|388:55,1,59.9999981689454
414,158,66821,2,0,L|470:205,1,59.9999981689454,0|0,0:0|0:0,0:0:0:0:
507,307,67336,1,0,0:0:0:0:
389,329,67678,2,0,P|332:345|277:324,1,119.999996337891
226,215,68364,1,0,0:0:0:0:
179,325,68707,6,0,P|123:345|67:329,1,119.999996337891,4|0,2:0|0:0,0:0:0:0:
21,290,69221,1,0,0:0:0:0:
122,232,69564,1,0,0:0:0:0:
169,193,69736,2,0,P|225:176|280:197,1,119.999996337891
346,297,70421,2,0,P|356:329|390:347,2,59.9999981689454
342,176,71107,1,0,0:0:0:0:
342,176,71450,2,0,L|404:127,1,59.9999981689454,4|0,2:0|0:0,0:0:0:0:
393,67,71793,6,0,P|337:50|282:71,2,119.999996337891
399,186,72821,2,0,L|446:223,2,59.9999981689454
280,152,73507,2,0,L|248:272,1,119.999996337891
70,292,74193,5,0,0:0:0:0:
70,292,74364,1,0,0:0:0:0:
70,292,74536,2,0,L|29:367,2,59.9999981689454
129,280,75050,1,0,0:0:0:0:
129,280,75221,2,0,L|170:205,2,59.9999981689454
233,220,75907,1,0,0:0:0:0:
129,160,76250,1,0,0:0:0:0:
129,280,76593,1,0,0:0:0:0:
240,323,76936,6,0,P|296:340|351:319,1,119.999996337891,4|0,2:0|0:0,0:0:0:0:
460,369,77621,2,0,P|477:313|456:258,1,119.999996337891
507,148,78307,2,0,P|451:131|396:152,1,119.999996337891
287,102,78993,2,0,P|270:158|291:213,1,119.999996337891
174,182,79678,6,0,B|156:179|156:179|121:219,2,59.9999981689454,4|0|0,2:0|0:0|0:0,0:0:0:0:
234,182,80193,2,0,B|252:179|252:179|287:219,2,59.9999981689454
234,121,80707,2,0,B|252:124|252:124|287:84,1,59.9999981689454
173,121,81050,2,0,B|143:95,12,29.9999990844727
47,203,82421,6,0,P|77:223|118:232,1,75.0000028610231
146,163,82764,2,0,P|182:171|213:191,1,75.0000028610231,8|0,0:0|0:0,0:0:0:0:
194,264,83107,2,0,P|225:284|261:292,1,75.0000028610231
310,235,83450,6,0,P|346:243|377:263,2,75.0000028610231,8|0|0,0:0|0:0|0:0,0:0:0:0:
160,240,84136,1,8,0:0:0:0:
230,108,84478,1,0,0:0:0:0:
446,316,85164,5,0,0:0:0:0:
298,334,85507,1,8,0:0:0:0:
357,196,85850,1,0,0:0:0:0:
346,319,86193,5,8,0:0:0:0:
346,244,86364,1,0,0:0:0:0:
411,282,86536,1,0,0:0:0:0:
367,280,86878,5,8,0:0:0:0:
367,280,87221,1,0,0:0:0:0:
219,307,87564,6,0,B|196:288|196:288|211:233,1,75.0000028610231,8|0,0:0|0:0,0:0:0:0:
229,172,87907,2,0,L|283:19,1,150.000005722046,0|8,0:0|0:0,0:0:0:0:
278,30,88421,1,0,0:0:0:0:
278,30,88593,1,0,0:0:0:0:
436,64,88936,5,8,0:0:0:0:
436,64,89107,1,0,0:0:0:0:
415,135,89278,2,0,B|403:178|403:178|426:197,1,75.0000028610231
492,233,89621,2,0,L|442:374,2,150.000005722046
350,181,90650,1,0,0:0:0:0:
300,322,90993,6,0,B|270:323|270:323|243:273,1,75.0000028610231,8|8,0:0|0:0,0:0:0:0:
240,133,91507,2,0,B|269:131|269:131|296:181,1,75.0000028610231,0|8,0:0|0:0,0:0:0:0:
170,260,92021,5,0,0:0:0:0:
34,199,92364,1,8,0:0:0:0:
155,111,92707,1,0,0:0:0:0:
23,39,93050,6,0,B|42:16|42:16|97:31,1,75.0000028610231,8|0,0:0|0:0,0:0:0:0:
158,49,93393,2,0,L|311:103,1,150.000005722046,0|8,0:0|0:0,0:0:0:0:
337,163,93907,5,0,0:0:0:0:
364,233,94078,1,0,0:0:0:0:
305,280,94250,1,0,0:0:0:0:
242,239,94421,1,8,0:0:0:0:
262,167,94593,5,0,0:0:0:0:
337,163,94764,2,0,B|428:195|428:195|441:250,2,150.000005722046,0|8|0,0:0|0:0|0:0,0:0:0:0:
175,221,96136,2,0,B|83:188|83:188|71:134,2,150.000005722046,0|8|0,0:0|0:0|0:0,0:0:0:0:
305,146,97164,5,8,0:0:0:0:
380,152,97336,1,0,0:0:0:0:
337,214,97507,1,0,0:0:0:0:
337,214,97850,1,8,0:0:0:0:
348,64,98193,1,0,0:0:0:0:
123,48,98536,6,0,P|88:63|76:114,1,75.0000028610231,8|0,0:0|0:0,0:0:0:0:
144,119,98878,2,0,P|179:134|206:242,1,150.000005722046,0|8,0:0|0:0,0:0:0:0:
140,203,99393,2,0,P|127:237|141:271,1,75.0000028610231
273,342,99907,5,8,0:0:0:0:
322,284,100079,1,0,0:0:0:0:
282,220,100250,1,0,0:0:0:0:
209,238,100422,1,0,0:0:0:0:
204,313,100593,1,8,0:0:0:0:
260,282,100936,5,0,0:0:0:0:
69,50,101621,5,0,0:0:0:0:
300,322,101964,2,0,B|270:323|270:323|243:273,1,75.0000028610231,8|4,0:0|2:0,0:0:0:0:
240,133,102478,2,0,B|269:131|269:131|296:181,1,75.0000028610231,8|4,0:0|2:0,0:0:0:0:
402,271,102993,2,0,B|444:242|444:242|406:141,2,150.000005722046,0|8|0,0:0|0:0|0:0,0:0:0:0:
255,239,104021,2,0,B|213:268|213:268|251:369,1,150.000005722046,8|0,0:0|0:0,0:0:0:0:
188,313,108993,6,0,P|157:311|139:284,2,50
215,271,109507,2,0,P|246:273|264:300,2,50,0|0|4,0:0|0:0|2:0,0:0:0:0:
114,267,110193,1,0,0:0:0:0:
146,172,110536,2,0,L|95:121,1,50
191,77,111050,2,0,L|140:26,1,50
305,52,111736,6,0,L|360:62,1,50
354,60,112078,1,0,0:0:0:0:
370,159,112250,2,0,L|315:169,1,50
320,167,112593,1,4,2:0:0:0:
234,117,112936,1,0,0:0:0:0:
137,91,113278,6,0,L|80:65,1,50
44,158,113793,2,0,L|-13:184,1,50
55,261,114307,1,0,0:0:0:0:
98,237,114478,1,0,0:0:0:0:
142,213,114650,1,0,0:0:0:0:
176,119,114993,6,0,P|218:79|292:62,1,100,0|4,0:0|2:0,0:0:0:0:
354,86,115678,2,0,P|312:126|238:143,1,100,0|0,0:0|0:0,0:0:0:0:
223,143,116193,1,0,0:0:0:0:
122,143,116536,2,0,L|67:194,1,50
248,292,117393,5,0,0:0:0:0:
297,284,117564,1,0,0:0:0:0:
306,333,117736,1,0,0:0:0:0:
257,342,117907,1,0,0:0:0:0:
248,292,118078,6,0,P|181:240|191:204,1,100,4|0,2:0|0:0,0:0:0:0:
83,213,118764,2,0,P|135:146|171:156,2,100
224,163,119964,1,0,0:0:0:0:
224,163,120136,1,0,0:0:0:0:
273,157,120307,2,0,L|323:194,1,50
316,236,120650,2,0,L|337:288,1,50,0|4,0:0|2:0,0:0:0:0:
254,341,121164,5,0,0:0:0:0:
177,276,121507,1,0,0:0:0:0:
136,305,121678,1,0,0:0:0:0:
83,219,122021,1,0,0:0:0:0:
42,190,122193,6,0,P|94:123|130:133,1,100,4|0,2:0|0:0,0:0:0:0:
164,103,122707,6,0,L|231:79,5,50
305,54,123907,1,0,0:0:0:0:
366,132,124250,2,0,L|395:185,1,50
294,205,124764,2,0,L|265:258,1,50
328,329,125278,1,0,0:0:0:0:
345,282,125450,1,0,0:0:0:0:
377,320,125621,1,0,0:0:0:0:
255,192,125964,1,0,0:0:0:0:
256,262,126307,5,4,2:0:0:0:
185,192,126650,1,0,0:0:0:0:
256,121,126993,1,0,0:0:0:0:
326,192,127336,1,0,0:0:0:0:
191,256,127678,5,0,0:0:0:0:
191,127,128021,1,0,0:0:0:0:
320,127,128364,1,0,0:0:0:0:
320,256,128707,1,0,0:0:0:0:
320,256,129050,6,0,L|361:300,2,50,4|0|0,2:0|0:0|0:0,0:0:0:0:
256,256,129564,1,0,0:0:0:0:
191,256,129736,6,0,L|151:300,2,50
192,192,130250,1,0,0:0:0:0:
191,127,130421,6,0,L|162:101,12,25
243,273,131793,5,4,2:0:0:0:
98,233,132136,2,0,B|140:311|140:311|115:368,2,150.000005722046,8|0|0,0:0|0:0|0:0,0:0:0:0:
66,165,132993,2,0,B|143:123|143:123,1,75.0000028610231
266,63,133507,1,8,0:0:0:0:
266,63,133850,1,0,0:0:0:0:
212,267,134536,5,0,0:0:0:0:
212,116,134878,1,8,0:0:0:0:
342,192,135221,1,0,0:0:0:0:
234,229,135564,5,8,0:0:0:0:
299,192,135735,1,0,0:0:0:0:
234,154,135907,1,0,0:0:0:0:
256,192,136250,5,8,0:0:0:0:
256,192,136593,1,0,0:0:0:0:
134,103,136936,6,0,L|73:172,1,75.0000028610231,8|0,0:0|0:0,0:0:0:0:
77,233,137278,2,0,B|78:314|78:314|140:354,1,150.000005722046,0|8,0:0|0:0,0:0:0:0:
168,204,137964,2,0,B|167:123|167:123|105:83,1,150.000005722046,0|8,0:0|0:0,0:0:0:0:
109,85,138478,1,0,0:0:0:0:
155,26,138650,6,0,L|240:54,1,75.0000028610231
202,120,138993,2,0,L|302:232,1,150.000005722046,8|0,0:0|0:0,0:0:0:0:
301,232,140021,5,0,0:0:0:0:
435,163,140364,2,0,L|371:108,1,75.0000028610231,8|4,0:0|2:0,0:0:0:0:
235,160,140878,1,8,0:0:0:0:
178,208,141049,1,4,2:0:0:0:
28,193,141393,5,0,0:0:0:0:
119,74,141736,1,8,0:0:0:0:
267,55,142078,1,0,0:0:0:0:
407,231,142593,6,0,L|315:286,1,75.0000028610231
295,210,142936,2,0,L|189:230,1,75.0000028610231,0|8,0:0|0:0,0:0:0:0:
209,150,143278,2,0,L|103:132,2,75.0000028610231
209,150,143793,1,8,0:0:0:0:
209,150,143964,1,0,0:0:0:0:
283,159,144136,5,0,0:0:0:0:
280,309,144478,1,8,0:0:0:0:
152,231,144821,1,0,0:0:0:0:
229,225,145507,5,0,0:0:0:0:
232,75,145849,1,8,0:0:0:0:
360,153,146192,1,0,0:0:0:0:
251,188,146536,5,8,0:0:0:0:
252,113,146707,1,0,0:0:0:0:
316,152,146878,1,0,0:0:0:0:
362,15,147221,2,0,P|430:87|437:151,1,150.000005722046,8|0,0:0|0:0,0:0:0:0:
364,265,147907,5,8,0:0:0:0:
292,244,148078,1,0,0:0:0:0:
251,180,148250,2,0,P|235:111|156:82,1,150.000005722046,0|8,0:0|0:0,0:0:0:0:
132,147,148764,1,0,0:0:0:0:
107,218,148936,2,0,P|123:287|202:316,1,150.000005722046,0|8,0:0|0:0,0:0:0:0:
207,244,149450,5,0,0:0:0:0:
276,215,149621,1,0,0:0:0:0:
266,290,149793,1,0,0:0:0:0:
207,244,149964,1,8,0:0:0:0:
375,131,150307,1,0,0:0:0:0:
375,131,150650,1,8,0:0:0:0:
375,131,150993,1,0,0:0:0:0:
256,40,151336,6,0,L|196:116,1,75.0000028610231,8|0,0:0|0:0,0:0:0:0:
256,240,151850,2,0,L|316:316,1,75.0000028610231,0|8,0:0|0:0,0:0:0:0:
144,192,152364,5,0,0:0:0:0:
368,192,152707,5,8,0:0:0:0:
256,192,153050,6,0,B|298:121|435:265|154:393|81:162|259:135|287:139|252:23,1,400
