osu file format v12

[General]
AudioFilename: Dj Fortify - PewDiePie Song.mp3
AudioLeadIn: 0
PreviewTime: 40436
Countdown: 1
SampleSet: None
StackLeniency: 0.9
Mode: 0
LetterboxInBreaks: 0
WidescreenStoryboard: 0

[Editor]
Bookmarks: 151,13865,27579,41293,55008,68722,82436,96151,109865,123579,137293,151008,164722
DistanceSpacing: 0.5
BeatDivisor: 4
GridSize: 4
TimelineZoom: 1

[Metadata]
Title:PewDiePie Song
TitleUnicode:PewDiePie Song
Artist:Dj Fortify
ArtistUnicode:Dj Fortify
Creator:inverness
Version:Invade
Source:
Tags:LP Lets Plays Dubstep
BeatmapID:410476
BeatmapSetID:169431

[Difficulty]
HPDrainRate:6
CircleSize:4
OverallDifficulty:8
ApproachRate:9
SliderMultiplier:2.2
SliderTickRate:2

[Events]
//Background and Video events
0,0,"pewdiepiewBG.jpg",0,0
//Break Periods
2,68922,81836
2,110065,122979
//Storyboard Layer 0 (Background)
//Storyboard Layer 1 (Fail)
//Storyboard Layer 2 (Pass)
//Storyboard Layer 3 (Foreground)
//Storyboard Sound Samples
//Background Colour Transformations
3,100,163,162,255

[TimingPoints]
151,428.571428571429,4,1,0,45,1,0
41293,-76.9230769230769,4,1,0,50,0,1
46436,-153.846153846154,4,1,0,50,0,1
47401,-76.9230769230769,4,1,0,50,0,1
53293,-153.846153846154,4,1,0,50,0,1
54151,-76.9230769230769,4,1,0,50,0,1
60151,-153.846153846154,4,1,0,50,0,1
61008,-76.9230769230769,4,1,0,50,0,1
67008,-153.846153846154,4,1,0,50,0,1
68722,-111.111111111111,4,1,0,50,0,0
96151,-100,4,1,0,45,0,0
137293,-76.9230769230769,4,1,0,50,0,1
142436,-153.846153846154,4,1,0,50,0,1
143293,-76.9230769230769,4,1,0,50,0,1
149293,-153.846153846154,4,1,0,50,0,1
150151,-76.9230769230769,4,1,0,50,0,1
156151,-153.846153846154,4,1,0,50,0,1
157008,-76.9230769230769,4,1,0,50,0,1
164722,-76.9230769230769,4,1,0,40,0,0

[Colours]
Combo1 : 98,176,255
Combo2 : 67,137,188
Combo3 : 62,158,255
Combo4 : 63,113,154

[HitObjects]
256,336,13865,5,4,0:0:0:0:
288,328,13972,1,0,0:0:0:0:
312,308,14079,1,0,0:0:0:0:
320,276,14186,1,0,0:0:0:0:
320,244,14293,2,0,L|300:132,1,110,0|0,0:0|0:0,0:0:0:0:
193,90,14722,1,8,0:0:0:0:
209,117,14829,1,0,0:0:0:0:
235,133,14936,1,0,0:0:0:0:
266,142,15043,1,0,0:0:0:0:
300,136,15151,1,0,0:0:0:0:
280,28,15365,1,0,0:0:0:0:
96,96,15579,5,0,0:0:0:0:
92,128,15686,1,0,0:0:0:0:
80,160,15793,1,0,0:0:0:0:
56,180,15901,1,0,0:0:0:0:
28,200,16008,2,0,L|47:308,1,110
152,344,16436,2,0,P|184:352|224:348,1,55,8|0,0:0|0:0,0:0:0:0:
244,284,16651,2,0,P|212:276|172:280,1,55
304,336,16865,2,0,P|324:288|300:224,1,110
212,180,17293,5,0,0:0:0:0:
232,152,17401,1,0,0:0:0:0:
260,132,17508,1,0,0:0:0:0:
292,128,17615,1,0,0:0:0:0:
324,128,17722,2,0,L|343:20,1,110
296,220,18151,1,8,0:0:0:0:
301,250,18258,1,0,0:0:0:0:
319,275,18365,1,0,0:0:0:0:
345,294,18472,1,0,0:0:0:0:
379,301,18580,1,0,0:0:0:0:
396,192,18793,1,0,0:0:0:0:
244,348,19008,5,0,0:0:0:0:
216,332,19115,1,0,0:0:0:0:
184,324,19222,1,0,0:0:0:0:
152,328,19329,1,0,0:0:0:0:
120,340,19436,2,0,P|64:348|12:300,2,110,0|0|8,0:0|0:0|0:0,0:0:0:0:
152,328,19972,1,0,0:0:0:0:
184,324,20079,1,0,0:0:0:0:
216,332,20186,1,0,0:0:0:0:
244,348,20293,1,0,0:0:0:0:
344,292,20508,1,0,0:0:0:0:
444,340,20722,6,0,P|454:313|452:280,1,55
424,164,20936,2,0,P|413:190|416:224,1,55
480,108,21151,2,0,P|488:56|472:0,1,110
384,64,21579,1,8,0:0:0:0:
352,76,21686,1,0,0:0:0:0:
320,76,21793,1,0,0:0:0:0:
288,64,21901,1,0,0:0:0:0:
268,36,22008,2,0,L|152:40,1,110
32,132,22436,5,0,0:0:0:0:
64,130,22543,1,0,0:0:0:0:
97,129,22650,1,0,0:0:0:0:
130,128,22757,1,0,0:0:0:0:
164,128,22865,1,0,0:0:0:0:
288,64,23079,2,0,P|264:112|284:164,1,110,0|8,0:0|0:0,0:0:0:0:
308,184,23401,1,0,0:0:0:0:
324,212,23508,1,0,0:0:0:0:
328,244,23615,1,0,0:0:0:0:
324,276,23722,2,0,P|384:272|432:316,1,110
244,316,24151,5,0,0:0:0:0:
212,328,24258,1,0,0:0:0:0:
180,324,24365,1,0,0:0:0:0:
152,308,24472,1,0,0:0:0:0:
136,280,24579,2,0,L|20:276,1,110
220,232,25007,1,8,0:0:0:0:
250,228,25114,1,0,0:0:0:0:
276,212,25222,1,0,0:0:0:0:
297,188,25329,1,0,0:0:0:0:
307,155,25436,1,0,0:0:0:0:
264,56,25650,1,0,0:0:0:0:
307,156,25865,5,0,0:0:0:0:
339,158,25972,1,0,0:0:0:0:
372,159,26079,1,0,0:0:0:0:
405,160,26186,1,0,0:0:0:0:
439,160,26294,1,0,0:0:0:0:
480,260,26508,2,0,P|420:256|376:308,1,110,0|8,0:0|0:0,0:0:0:0:
368,316,26829,1,0,0:0:0:0:
344,340,26936,1,0,0:0:0:0:
312,348,27043,1,0,0:0:0:0:
280,348,27151,1,0,0:0:0:0:
300,240,27365,1,0,0:0:0:0:
256,336,27579,5,0,0:0:0:0:
228,320,27686,1,0,0:0:0:0:
196,312,27793,1,0,0:0:0:0:
164,312,27901,1,0,0:0:0:0:
132,316,28008,2,0,P|84:314|40:272,1,110,0|0,0:0|0:0,0:0:0:0:
128,208,28436,2,0,P|153:200|181:204,1,55,8|0,0:0|0:0,0:0:0:0:
305,220,28651,2,0,P|279:227|251:223,1,55
376,204,28865,2,0,L|492:208,1,110
432,108,29293,5,0,0:0:0:0:
400,106,29400,1,0,0:0:0:0:
367,105,29507,1,0,0:0:0:0:
334,104,29614,1,0,0:0:0:0:
300,104,29722,1,0,0:0:0:0:
512,112,29936,1,0,0:0:0:0:
216,104,30151,1,8,0:0:0:0:
227,134,30258,1,0,0:0:0:0:
228,168,30365,1,0,0:0:0:0:
216,200,30472,1,0,0:0:0:0:
196,224,30579,2,0,P|168:292|188:336,1,110
276,319,31008,5,0,0:0:0:0:
243,310,31115,1,0,0:0:0:0:
210,312,31222,1,0,0:0:0:0:
178,323,31329,1,0,0:0:0:0:
148,340,31436,2,0,P|92:360|28:316,1,110
92,140,31865,1,8,0:0:0:0:
94,172,31972,1,0,0:0:0:0:
95,205,32079,1,0,0:0:0:0:
96,238,32186,1,0,0:0:0:0:
96,272,32294,1,0,0:0:0:0:
40,68,32508,6,0,P|83:48|140:66,1,110
171,82,32829,1,0,0:0:0:0:
203,92,32936,1,0,0:0:0:0:
236,93,33043,1,0,0:0:0:0:
269,82,33150,1,0,0:0:0:0:
356,12,33365,2,0,L|352:128,1,110,0|8,0:0|0:0,0:0:0:0:
384,192,33686,2,0,P|412:191|436:180,1,55,0|0,0:0|0:0,0:0:0:0:
308,184,33901,2,0,P|279:184|255:195,1,55,0|0,0:0|0:0,0:0:0:0:
484,124,34222,1,0,0:0:0:0:
204,248,34436,5,0,0:0:0:0:
172,252,34543,1,0,0:0:0:0:
140,256,34651,1,0,0:0:0:0:
108,260,34758,1,0,0:0:0:0:
76,264,34865,1,0,0:0:0:0:
256,352,35079,1,0,0:0:0:0:
308,248,35293,1,0,0:0:0:0:
340,252,35400,1,0,0:0:0:0:
372,256,35508,1,0,0:0:0:0:
404,260,35615,1,0,0:0:0:0:
436,264,35722,1,0,0:0:0:0:
256,328,35936,1,0,0:0:0:0:
204,156,36151,5,0,0:0:0:0:
172,160,36258,1,0,0:0:0:0:
140,164,36366,1,0,0:0:0:0:
108,168,36473,1,0,0:0:0:0:
76,172,36580,1,0,0:0:0:0:
256,300,36793,1,0,0:0:0:0:
308,156,37008,1,0,0:0:0:0:
340,160,37115,1,0,0:0:0:0:
372,164,37223,1,0,0:0:0:0:
404,168,37330,1,0,0:0:0:0:
436,172,37437,1,0,0:0:0:0:
256,276,37651,1,0,0:0:0:0:
148,132,37865,5,0,0:0:0:0:
364,132,38079,1,0,0:0:0:0:
140,164,38293,1,0,0:0:0:0:
372,164,38508,1,0,0:0:0:0:
132,196,38722,1,0,0:0:0:0:
380,196,38936,1,0,0:0:0:0:
124,228,39151,1,0,0:0:0:0:
388,228,39365,1,0,0:0:0:0:
112,260,39579,1,0,0:0:0:0:
132,300,39686,1,0,0:0:0:0:
168,328,39793,1,0,0:0:0:0:
212,340,39901,1,0,0:0:0:0:
256,344,40008,1,0,0:0:0:0:
296,340,40115,1,0,0:0:0:0:
340,328,40223,1,0,0:0:0:0:
376,300,40330,1,0,0:0:0:0:
396,260,40437,1,4,0:0:0:0:
396,260,41293,6,0,P|352:200|384:132,1,142.99999345398,4|2,0:0|0:0,0:0:0:0:
428,192,41615,1,0,0:0:0:0:
284,156,41722,2,0,B|292:112|324:84|324:84|324:12,1,142.99999345398,2|0,0:0|0:0,0:0:0:0:
280,232,42151,1,8,0:0:0:0:
248,252,42258,1,0,0:0:0:0:
212,252,42365,1,0,0:0:0:0:
180,236,42472,1,0,0:0:0:0:
160,208,42579,2,0,L|8:216,1,142.99999345398,0|0,0:0|0:0,0:0:0:0:
284,156,43008,6,0,L|436:148,1,142.99999345398
504,144,43329,1,0,0:0:0:0:
464,208,43436,2,0,P|428:145|464:79,1,142.99999345398,2|0,0:0|0:0,0:0:0:0:
476,284,43865,1,8,0:0:0:0:
476,284,43972,1,0,0:0:0:0:
476,284,44079,2,2,L|333:291,2,142.99999345398,0|0|2,0:0|0:0|0:0,0:0:0:0:
292,356,44722,6,0,P|256:293|292:227,1,142.99999345398,0|0,0:0|0:0,0:0:0:0:
340,192,45043,1,0,0:0:0:0:
400,152,45151,2,0,P|426:92|390:29,1,142.99999345398,2|0,0:0|0:0,0:0:0:0:
340,192,45579,1,8,0:0:0:0:
325,192,45686,1,0,0:0:0:0:
311,193,45793,1,0,0:0:0:0:
297,194,45900,1,0,0:0:0:0:
282,195,46008,1,0,0:0:0:0:
268,195,46114,1,0,0:0:0:0:
254,196,46221,1,0,0:0:0:0:
240,197,46328,1,0,0:0:0:0:
226,198,46436,6,0,L|83:205,2,142.99999345398,2|0|8,0:0|0:0|0:0,0:0:0:0:
232,208,47508,1,0,0:0:0:0:
236,216,47722,1,0,0:0:0:0:
240,224,47936,1,2,0:0:0:0:
244,232,48151,6,0,P|303:258|366:222,1,142.99999345398,0|2,0:0|0:0,0:0:0:0:
302,186,48472,1,0,0:0:0:0:
380,308,48579,2,0,B|416:288|436:244|436:244|496:244,1,142.99999345398,2|0,0:0|0:0,0:0:0:0:
302,186,49008,1,8,0:0:0:0:
276,160,49115,1,0,0:0:0:0:
268,124,49222,1,0,0:0:0:0:
272,88,49329,1,0,0:0:0:0:
292,60,49436,2,0,L|149:67,1,142.99999345398,0|0,0:0|0:0,0:0:0:0:
352,108,49865,6,0,P|411:134|474:98,1,142.99999345398,0|0,0:0|0:0,0:0:0:0:
410,62,50186,1,0,0:0:0:0:
272,88,50293,2,0,L|279:231,1,142.99999345398,2|0,0:0|0:0,0:0:0:0:
444,360,50722,1,8,0:0:0:0:
444,360,50829,1,0,0:0:0:0:
444,360,50936,2,2,P|380:334|320:368,2,142.99999345398,0|0|2,0:0|0:0|0:0,0:0:0:0:
184,324,51579,6,0,L|177:181,1,142.99999345398,0|0,0:0|0:0,0:0:0:0:
172,108,51901,1,0,0:0:0:0:
112,156,52008,2,0,P|175:182|238:146,1,142.99999345398,2|0,0:0|0:0,0:0:0:0:
300,16,52436,1,8,0:0:0:0:
300,31,52543,1,0,0:0:0:0:
301,45,52650,1,0,0:0:0:0:
302,59,52757,1,0,0:0:0:0:
303,74,52864,1,0,0:0:0:0:
303,88,52971,1,0,0:0:0:0:
304,102,53078,1,0,0:0:0:0:
305,116,53185,1,0,0:0:0:0:
306,130,53293,6,0,L|313:273,2,142.99999345398,2|0|8,0:0|0:0|0:0,0:0:0:0:
312,136,54365,1,0,0:0:0:0:
316,144,54579,1,0,0:0:0:0:
320,152,54793,1,2,0:0:0:0:
324,160,55008,6,0,P|393:189|451:147,1,142.99999345398,0|2,0:0|0:0,0:0:0:0:
384,116,55329,1,0,0:0:0:0:
244,168,55436,2,0,L|251:311,1,142.99999345398,2|0,0:0|0:0,0:0:0:0:
392,284,55865,2,0,P|357:273|324:281,1,71.4999967269899,8|0,0:0|0:0,0:0:0:0:
183,309,56079,2,0,P|217:319|250:311,1,71.4999967269899,0|0,0:0|0:0,0:0:0:0:
140,240,56293,2,0,P|104:300|128:368,1,142.99999345398,0|0,0:0|0:0,0:0:0:0:
56,220,56722,6,0,B|76:188|104:172|104:172|104:80,1,142.99999345398
104,20,57043,1,0,0:0:0:0:
43,62,57151,2,0,P|113:93|171:51,1,142.99999345398,2|0,0:0|0:0,0:0:0:0:
56,220,57579,1,8,0:0:0:0:
56,220,57686,1,0,0:0:0:0:
56,220,57793,2,2,L|63:363,2,142.99999345398,0|0|2,0:0|0:0|0:0,0:0:0:0:
43,62,58436,6,0,P|113:93|171:51,1,142.99999345398,0|0,0:0|0:0,0:0:0:0:
104,20,58758,1,0,0:0:0:0:
240,56,58865,2,0,L|383:49,2,142.99999345398,2|0|8,0:0|0:0|0:0,0:0:0:0:
236,69,59401,1,0,0:0:0:0:
231,83,59508,1,0,0:0:0:0:
225,96,59615,1,0,0:0:0:0:
217,108,59722,1,0,0:0:0:0:
208,119,59829,1,0,0:0:0:0:
198,129,59936,1,0,0:0:0:0:
188,140,60043,1,0,0:0:0:0:
176,148,60151,6,0,L|183:291,2,142.99999345398,2|0|8,0:0|0:0|0:0,0:0:0:0:
156,76,61222,1,0,0:0:0:0:
104,28,61436,1,0,0:0:0:0:
32,12,61651,1,2,0:0:0:0:
156,76,61865,6,0,P|215:102|278:66,1,142.99999345398,0|2,0:0|0:0,0:0:0:0:
214,30,62186,1,0,0:0:0:0:
300,144,62293,2,0,B|328:132|352:88|352:88|420:88,1,142.99999345398,2|0,0:0|0:0,0:0:0:0:
284,216,62722,2,0,P|244:196|228:148,1,71.4999967269899,8|0,0:0|0:0,0:0:0:0:
348,252,62936,2,0,P|315:282|264:281,1,71.4999967269899,0|0,0:0|0:0,0:0:0:0:
372,180,63151,2,0,P|416:224|372:324,1,142.99999345398,0|0,0:0|0:0,0:0:0:0:
106,298,63579,6,0,P|96:224|140:180,1,142.99999345398
168,252,63901,1,0,0:0:0:0:
44,164,64008,2,0,B|68:136|96:120|96:120|96:28,1,142.99999345398,2|0,0:0|0:0,0:0:0:0:
216,184,64436,1,8,0:0:0:0:
216,184,64543,1,0,0:0:0:0:
216,184,64651,2,2,P|285:213|343:171,2,142.99999345398,0|0|2,0:0|0:0|0:0,0:0:0:0:
380,116,65293,6,0,P|413:169|384:238,1,142.99999345398
338,180,65615,1,0,0:0:0:0:
320,276,65722,2,0,L|177:283,2,142.99999345398,2|0|8,0:0|0:0|0:0,0:0:0:0:
333,272,66258,1,0,0:0:0:0:
347,266,66365,1,0,0:0:0:0:
359,260,66472,1,0,0:0:0:0:
371,251,66579,1,0,0:0:0:0:
381,242,66686,1,0,0:0:0:0:
391,231,66793,1,0,0:0:0:0:
399,219,66900,1,0,0:0:0:0:
408,208,67008,6,0,L|401:65,2,142.99999345398,2|0|8,0:0|0:0|0:0,0:0:0:0:
456,329,68079,1,0,0:0:0:0:
346,261,68293,1,0,0:0:0:0:
476,252,68508,1,2,0:0:0:0:
376,335,68722,1,4,0:0:0:0:
156,116,82436,6,0,L|52:112,2,98.9999969787599,4|0|0,0:0|0:0|0:0,0:0:0:0:
256,120,83079,1,0,0:0:0:0:
332,180,83293,2,0,P|392:204|432:192,1,98.9999969787599,8|0,0:0|0:0,0:0:0:0:
256,120,83722,2,0,P|248:60|212:28,1,98.9999969787599,0|2,0:0|0:0,0:0:0:0:
240,212,84151,5,0,0:0:0:0:
216,232,84258,1,0,0:0:0:0:
200,256,84365,1,0,0:0:0:0:
192,284,84472,1,0,0:0:0:0:
188,312,84579,1,0,0:0:0:0:
272,200,84793,1,0,0:0:0:0:
300,199,84901,1,0,0:0:0:0:
328,197,85008,1,8,0:0:0:0:
356,195,85115,1,0,0:0:0:0:
384,193,85222,2,0,L|499:185,2,98.9999969787599,0|0|2,0:0|0:0|0:0,0:0:0:0:
132,212,85865,6,0,L|16:220,2,98.9999969787599
220,257,86508,2,0,P|232:201|200:145,1,98.9999969787599,0|8,0:0|0:0,0:0:0:0:
128,21,86936,2,0,P|116:77|148:133,2,98.9999969787599,0|0|2,0:0|0:0|0:0,0:0:0:0:
216,68,87579,5,0,0:0:0:0:
247,80,87686,1,0,0:0:0:0:
280,81,87793,1,0,0:0:0:0:
313,74,87900,1,0,0:0:0:0:
345,60,88007,1,0,0:0:0:0:
376,56,88114,1,0,0:0:0:0:
404,60,88221,1,0,0:0:0:0:
432,68,88328,1,0,0:0:0:0:
460,80,88436,2,0,L|468:200,1,98.9999969787599,8|0,0:0|0:0,0:0:0:0:
488,372,88865,2,0,L|480:252,1,98.9999969787599,0|2,0:0|0:0,0:0:0:0:
388,244,89293,6,0,P|330:241|284:195,1,98.9999969787599
365,146,89722,1,0,0:0:0:0:
200,224,89936,2,0,L|80:232,1,98.9999969787599,0|8,0:0|0:0,0:0:0:0:
298,217,90365,2,0,L|418:209,2,98.9999969787599,0|0|2,0:0|0:0|0:0,0:0:0:0:
200,224,91008,5,0,0:0:0:0:
181,198,91115,1,0,0:0:0:0:
175,170,91222,1,0,0:0:0:0:
181,142,91329,1,0,0:0:0:0:
195,115,91436,1,0,0:0:0:0:
298,217,91651,1,0,0:0:0:0:
317,243,91758,1,0,0:0:0:0:
323,271,91865,1,8,0:0:0:0:
317,299,91972,1,0,0:0:0:0:
303,326,92079,1,0,0:0:0:0:
224,96,92293,2,0,P|272:112|336:84,1,98.9999969787599,0|2,0:0|0:0,0:0:0:0:
500,56,92722,6,0,P|452:40|388:68,2,98.9999969787599
448,140,93365,1,0,0:0:0:0:
440,240,93579,2,0,L|448:360,1,98.9999969787599,8|0,0:0|0:0,0:0:0:0:
448,140,94008,2,0,L|440:20,1,98.9999969787599,0|2,0:0|0:0,0:0:0:0:
360,184,94436,5,0,0:0:0:0:
330,188,94543,1,0,0:0:0:0:
301,184,94650,1,0,0:0:0:0:
274,172,94757,1,0,0:0:0:0:
250,154,94864,1,0,0:0:0:0:
233,130,94971,1,0,0:0:0:0:
223,102,95078,1,0,0:0:0:0:
221,73,95185,1,0,0:0:0:0:
228,44,95293,2,0,L|129:50,2,98.9999969787599,8|0|0,0:0|0:0|0:0,0:0:0:0:
328,80,95936,1,0,0:0:0:0:
360,184,96151,5,0,0:0:0:0:
327,186,96259,1,0,0:0:0:0:
295,189,96366,1,0,0:0:0:0:
263,192,96473,1,0,0:0:0:0:
231,195,96580,2,0,L|110:202,2,110,0|0|8,0:0|0:0|0:0,0:0:0:0:
32,208,97222,1,2,0:0:0:0:
180,109,97437,1,0,0:0:0:0:
188,288,97651,1,2,0:0:0:0:
76,104,97865,5,0,0:0:0:0:
80,72,97972,1,0,0:0:0:0:
96,44,98079,1,0,0:0:0:0:
120,24,98186,1,0,0:0:0:0:
152,12,98293,1,0,0:0:0:0:
180,109,98508,2,0,P|156:172|104:200,1,110,0|8,0:0|0:0,0:0:0:0:
76,104,98936,1,0,0:0:0:0:
260,196,99151,1,2,0:0:0:0:
60,96,99365,1,2,0:0:0:0:
260,196,99579,5,0,0:0:0:0:
292,206,99686,1,0,0:0:0:0:
323,205,99793,1,0,0:0:0:0:
353,193,99900,1,0,0:0:0:0:
376,170,100007,1,0,0:0:0:0:
296,4,100222,2,0,P|280:69|308:121,1,110,0|8,0:0|0:0,0:0:0:0:
392,56,100651,1,0,0:0:0:0:
176,60,100865,1,2,0:0:0:0:
408,56,101079,1,2,0:0:0:0:
176,60,101293,5,0,0:0:0:0:
174,91,101400,1,0,0:0:0:0:
183,124,101507,1,0,0:0:0:0:
204,152,101614,1,0,0:0:0:0:
228,176,101722,2,0,P|243:213|227:278,1,110,0|0,0:0|0:0,0:0:0:0:
52,276,102151,2,0,P|77:243|141:224,1,110,8|0,0:0|0:0,0:0:0:0:
228,376,102579,2,0,P|187:370|139:324,1,110,0|0,0:0|0:0,0:0:0:0:
228,176,103008,5,0,0:0:0:0:
260,188,103115,1,0,0:0:0:0:
292,184,103222,1,0,0:0:0:0:
320,168,103329,1,0,0:0:0:0:
340,144,103436,2,0,L|456:140,2,110,0|0|8,0:0|0:0|0:0,0:0:0:0:
200,156,104079,1,2,0:0:0:0:
357,237,104294,1,0,0:0:0:0:
345,58,104508,1,2,0:0:0:0:
252,248,104722,5,0,0:0:0:0:
225,265,104829,1,0,0:0:0:0:
192,270,104936,1,0,0:0:0:0:
161,264,105043,1,0,0:0:0:0:
132,247,105151,2,0,P|72:228|16:252,1,110
140,140,105579,2,0,P|200:159|256:135,1,110,8|0,0:0|0:0,0:0:0:0:
196,60,106008,1,2,0:0:0:0:
80,328,106222,1,2,0:0:0:0:
272,128,106437,5,0,0:0:0:0:
300,112,106544,1,0,0:0:0:0:
332,108,106651,1,0,0:0:0:0:
364,112,106758,1,0,0:0:0:0:
396,124,106866,2,0,P|456:143|499:129,1,110,0|0,0:0|0:0,0:0:0:0:
388,231,107293,2,0,P|328:212|284:225,1,110,8|0,0:0|0:0,0:0:0:0:
332,308,107722,1,2,0:0:0:0:
452,40,107936,1,2,0:0:0:0:
244,144,108151,5,0,0:0:0:0:
216,160,108258,1,0,0:0:0:0:
184,164,108365,1,0,0:0:0:0:
152,160,108472,1,0,0:0:0:0:
120,148,108579,1,0,0:0:0:0:
304,72,108793,2,0,P|336:120|328:180,1,110,0|8,0:0|0:0,0:0:0:0:
316,200,109115,5,0,0:0:0:0:
304,232,109222,1,0,0:0:0:0:
304,264,109329,1,0,0:0:0:0:
316,296,109436,1,0,0:0:0:0:
396,248,109651,1,0,0:0:0:0:
116,248,109865,1,4,0:0:0:0:
156,192,123579,6,0,P|182:185|210:189,3,55
156,192,124008,2,0,L|40:188,1,110
356,192,124436,2,0,P|330:199|302:195,3,55,8|0|0|0,0:0|0:0|0:0|0:0,0:0:0:0:
356,192,124865,2,0,L|472:196,1,110
256,72,125293,2,0,P|282:65|310:69,3,55
256,72,125722,2,0,L|140:68,1,110
256,312,126151,2,0,P|230:319|202:315,3,55,8|0|0|0,0:0|0:0|0:0|0:0,0:0:0:0:
256,312,126580,2,0,L|372:316,1,110
256,192,127008,5,0,0:0:0:0:
283,176,127115,1,0,0:0:0:0:
299,149,127222,1,0,0:0:0:0:
308,119,127329,1,0,0:0:0:0:
302,85,127437,1,0,0:0:0:0:
194,104,127651,1,0,0:0:0:0:
256,192,127865,1,8,0:0:0:0:
229,208,127972,1,0,0:0:0:0:
213,234,128079,1,0,0:0:0:0:
204,265,128186,1,0,0:0:0:0:
210,299,128294,1,0,0:0:0:0:
318,279,128508,1,0,0:0:0:0:
192,104,128722,5,0,0:0:0:0:
160,102,128829,1,0,0:0:0:0:
127,101,128936,1,0,0:0:0:0:
94,100,129043,1,0,0:0:0:0:
60,100,129151,1,0,0:0:0:0:
256,192,129365,1,0,0:0:0:0:
320,280,129579,1,8,0:0:0:0:
352,282,129686,1,0,0:0:0:0:
385,283,129793,1,0,0:0:0:0:
418,284,129900,1,0,0:0:0:0:
452,284,130008,1,0,0:0:0:0:
256,192,130222,1,0,0:0:0:0:
192,280,130436,6,0,P|178:303|155:320,4,55
256,168,131079,1,0,0:0:0:0:
320,280,131293,2,0,P|333:303|356:320,4,55
256,148,131936,1,0,0:0:0:0:
171,260,132151,6,0,P|152:279|126:290,4,55
256,124,132793,1,0,0:0:0:0:
340,260,133008,2,0,P|359:279|385:290,4,55
256,100,133651,1,0,0:0:0:0:
156,236,133865,5,0,0:0:0:0:
356,236,134079,1,0,0:0:0:0:
148,204,134293,1,0,0:0:0:0:
364,204,134507,1,0,0:0:0:0:
140,172,134722,1,0,0:0:0:0:
372,172,134936,1,0,0:0:0:0:
132,140,135151,1,0,0:0:0:0:
380,140,135365,1,0,0:0:0:0:
126,104,135579,1,0,0:0:0:0:
144,67,135686,1,0,0:0:0:0:
177,42,135793,1,0,0:0:0:0:
217,32,135901,1,0,0:0:0:0:
256,29,136008,1,0,0:0:0:0:
292,32,136115,1,0,0:0:0:0:
331,42,136223,1,0,0:0:0:0:
363,67,136330,1,0,0:0:0:0:
382,104,136436,1,4,0:0:0:0:
382,104,137293,6,0,P|356:163|392:226,1,142.99999345398,0|2,0:0|0:0,0:0:0:0:
428,162,137614,1,0,0:0:0:0:
306,240,137721,2,0,B|326:276|370:296|370:296|370:356,1,142.99999345398,2|0,0:0|0:0,0:0:0:0:
212,284,138151,1,8,0:0:0:0:
196,252,138258,1,0,0:0:0:0:
196,216,138365,1,0,0:0:0:0:
212,184,138472,1,0,0:0:0:0:
240,160,138579,2,0,L|232:8,1,142.99999345398,0|0,0:0|0:0,0:0:0:0:
360,64,139008,6,0,L|367:207,1,142.99999345398,0|0,0:0|0:0,0:0:0:0:
372,280,139330,1,0,0:0:0:0:
432,232,139437,2,0,P|369:206|306:242,1,142.99999345398,2|0,0:0|0:0,0:0:0:0:
116,168,139865,1,8,0:0:0:0:
116,168,139972,1,0,0:0:0:0:
116,168,140079,2,2,P|179:194|242:158,2,142.99999345398,0|0|2,0:0|0:0|0:0,0:0:0:0:
432,232,140722,6,0,P|363:203|305:245,1,142.99999345398,0|0,0:0|0:0,0:0:0:0:
372,276,141043,1,0,0:0:0:0:
456,156,141150,2,0,L|449:13,1,142.99999345398,2|0,0:0|0:0,0:0:0:0:
280,100,141579,1,8,0:0:0:0:
280,115,141686,1,0,0:0:0:0:
281,129,141793,1,0,0:0:0:0:
282,143,141900,1,0,0:0:0:0:
283,158,142007,1,0,0:0:0:0:
283,172,142114,1,0,0:0:0:0:
284,186,142221,1,0,0:0:0:0:
285,200,142328,1,0,0:0:0:0:
286,214,142436,6,0,L|293:357,2,142.99999345398,2|0|8,0:0|0:0|0:0,0:0:0:0:
292,220,143508,1,0,0:0:0:0:
296,228,143722,1,0,0:0:0:0:
300,236,143936,1,2,0:0:0:0:
304,244,144151,6,0,P|373:273|431:231,1,142.99999345398,0|2,0:0|0:0,0:0:0:0:
364,200,144472,1,0,0:0:0:0:
224,252,144579,2,0,L|81:259,1,142.99999345398,2|0,0:0|0:0,0:0:0:0:
364,200,145008,1,8,0:0:0:0:
384,172,145115,1,0,0:0:0:0:
388,136,145222,1,0,0:0:0:0:
380,100,145329,1,0,0:0:0:0:
356,76,145436,2,0,L|499:69,1,142.99999345398,0|0,0:0|0:0,0:0:0:0:
256,84,145865,6,0,P|230:143|266:206,1,142.99999345398,0|0,0:0|0:0,0:0:0:0:
302,142,146186,1,0,0:0:0:0:
188,228,146293,2,0,B|200:256|244:280|244:280|244:348,1,142.99999345398,2|0,0:0|0:0,0:0:0:0:
152,156,146722,1,8,0:0:0:0:
152,156,146829,1,0,0:0:0:0:
152,156,146936,2,2,L|145:13,2,142.99999345398,0|0|2,0:0|0:0|0:0,0:0:0:0:
132,280,147579,6,0,P|191:306|254:270,1,142.99999345398,0|0,0:0|0:0,0:0:0:0:
304,216,147901,1,0,0:0:0:0:
348,160,148008,2,0,P|406:123|470:149,1,142.99999345398,2|0,0:0|0:0,0:0:0:0:
304,216,148436,1,8,0:0:0:0:
289,216,148543,1,0,0:0:0:0:
275,217,148650,1,0,0:0:0:0:
261,218,148757,1,0,0:0:0:0:
246,219,148865,1,0,0:0:0:0:
232,219,148971,1,0,0:0:0:0:
218,220,149078,1,0,0:0:0:0:
204,221,149185,1,0,0:0:0:0:
190,222,149293,6,0,L|47:229,2,142.99999345398,2|0|8,0:0|0:0|0:0,0:0:0:0:
196,232,150365,1,0,0:0:0:0:
200,240,150579,1,0,0:0:0:0:
204,248,150793,1,2,0:0:0:0:
208,256,151008,6,0,P|267:282|330:246,1,142.99999345398,0|2,0:0|0:0,0:0:0:0:
266,210,151329,1,0,0:0:0:0:
344,332,151436,2,0,B|380:312|400:268|400:268|460:268,1,142.99999345398,2|0,0:0|0:0,0:0:0:0:
265,210,151865,2,0,P|276:175|268:142,1,71.4999967269899,8|0,0:0|0:0,0:0:0:0:
208,256,152079,2,0,P|198:290|206:323,1,71.4999967269899,0|0,0:0|0:0,0:0:0:0:
324,92,152293,2,0,P|265:66|202:102,1,142.99999345398,0|0,0:0|0:0,0:0:0:0:
380,148,152722,6,0,P|449:177|507:135,1,142.99999345398,0|0,0:0|0:0,0:0:0:0:
440,104,153043,1,0,0:0:0:0:
344,216,153150,2,0,L|351:359,1,142.99999345398,2|0,0:0|0:0,0:0:0:0:
324,92,153579,1,8,0:0:0:0:
324,92,153686,1,0,0:0:0:0:
324,92,153793,2,2,P|265:66|202:102,2,142.99999345398,0|0|2,0:0|0:0|0:0,0:0:0:0:
20,176,154436,6,0,L|163:169,1,142.99999345398,0|0,0:0|0:0,0:0:0:0:
232,192,154758,1,0,0:0:0:0:
300,220,154865,2,0,L|443:213,2,142.99999345398,2|0|8,0:0|0:0|0:0,0:0:0:0:
300,236,155401,1,0,0:0:0:0:
291,247,155508,1,0,0:0:0:0:
281,257,155615,1,0,0:0:0:0:
270,265,155722,1,0,0:0:0:0:
257,271,155829,1,0,0:0:0:0:
243,275,155936,1,0,0:0:0:0:
228,275,156043,1,0,0:0:0:0:
216,272,156151,6,0,P|157:246|94:282,2,142.99999345398,0|0|8,0:0|0:0|0:0,0:0:0:0:
232,192,157222,1,0,0:0:0:0:
280,140,157436,1,0,0:0:0:0:
344,112,157651,1,2,0:0:0:0:
144,104,157865,6,0,L|151:247,1,142.99999345398,0|2,0:0|0:0,0:0:0:0:
156,320,158187,1,0,0:0:0:0:
216,272,158294,2,0,P|153:246|90:282,1,142.99999345398,2|0,0:0|0:0,0:0:0:0:
144,104,158722,2,0,P|179:115|212:107,1,71.4999967269899,8|0,0:0|0:0,0:0:0:0:
353,79,158936,2,0,P|319:69|286:77,1,71.4999967269899,0|0,0:0|0:0,0:0:0:0:
396,148,159150,2,0,P|432:88|408:20,1,142.99999345398,0|0,0:0|0:0,0:0:0:0:
480,168,159579,6,0,B|460:200|432:216|432:216|432:308,1,142.99999345398
432,368,159900,1,0,0:0:0:0:
493,326,160008,2,0,P|423:295|365:337,1,142.99999345398,2|0,0:0|0:0,0:0:0:0:
152,340,160436,1,8,0:0:0:0:
152,340,160543,1,0,0:0:0:0:
152,340,160651,2,2,L|295:333,2,142.99999345398,0|0|2,0:0|0:0|0:0,0:0:0:0:
144,100,161293,6,0,P|214:131|272:89,1,142.99999345398,0|0,0:0|0:0,0:0:0:0:
205,58,161615,1,0,0:0:0:0:
80,148,161722,2,0,L|87:291,2,142.99999345398,2|0|8,0:0|0:0|0:0,0:0:0:0:
60,116,162258,2,0,P|59:80|76:49,6,71.4999967269899
256,192,163008,12,4,164722,2:0:0:0:
