osu file format v12

[General]
AudioFilename: PEWDIEPIE Song - Dj Fortify.mp3
AudioLeadIn: 0
PreviewTime: 136436
Countdown: 0
SampleSet: Normal
StackLeniency: 0.7
Mode: 0
LetterboxInBreaks: 1

[Editor]
DistanceSpacing: 1.4
BeatDivisor: 4
GridSize: 4

[Metadata]
Title:PewDiePie Song
TitleUnicode:PewDiePie Song
Artist:Dj Fortify
ArtistUnicode:Dj Fortify
Creator:GamerX4life
Version:Insane
Source:
Tags:LP Lets Plays YouTube Brostep Dubstep Intro Deni
BeatmapID:180021
BeatmapSetID:60182

[Difficulty]
HPDrainRate:7
CircleSize:4
OverallDifficulty:6
ApproachRate:8
SliderMultiplier:2
SliderTickRate:1

[Events]
//Background and Video events
0,0,"pewdiepiewBG.jpg",0,0
//Break Periods
2,68922,81686
//Storyboard Layer 0 (Background)
//Storyboard Layer 1 (Fail)
//Storyboard Layer 2 (Pass)
//Storyboard Layer 3 (Foreground)
//Storyboard Sound Samples
//Background Colour Transformations
3,100,163,162,255

[TimingPoints]
151,428.571428571429,4,1,0,40,1,0
12151,-100,4,1,0,5,0,0
13865,-100,4,1,0,40,0,0
27151,-200,4,1,0,40,0,0
27579,-100,4,1,0,40,0,0
40436,-200,4,1,0,40,0,0
41079,-200,4,1,0,5,0,0
41293,-76.9230769230769,4,1,0,40,0,1
68722,-76.9230769230769,4,1,0,40,0,0
82436,-100,4,1,0,40,0,0
136543,-100,4,1,0,5,0,0
137293,-76.9230769230769,4,1,0,40,0,1
164722,-100,4,1,0,40,0,0

[Colours]
Combo1 : 225,4,4
Combo2 : 240,240,0
Combo3 : 0,183,0

[HitObjects]
256,192,12151,12,0,13651,0:0:0:0:
256,264,13865,5,4,0:0:0:0:
256,264,14079,2,0,B|250:210|275:159|330:142|382:157,1,200,0|0,0:0|0:0,0:0:0:0:
432,220,14722,1,8,0:0:0:0:
432,220,14936,2,0,B|437:273|411:324|356:341|303:327,1,200
228,296,15579,1,0,0:0:0:0:
168,244,15793,1,0,0:0:0:0:
156,164,16008,1,0,0:0:0:0:
184,88,16222,2,0,B|207:37|262:36,1,100,0|8,0:0|0:0,0:0:0:0:
258,117,16651,1,0,0:0:0:0:
276,112,16758,1,0,0:0:0:0:
296,108,16865,2,0,B|349:93|385:135,1,100,8|0,0:0|0:0,0:0:0:0:
323,185,17293,5,0,0:0:0:0:
323,185,17508,2,0,B|415:247|399:357,1,200
328,320,18151,1,8,0:0:0:0:
328,320,18365,2,0,B|236:258|252:148,1,200
324,184,19008,2,0,B|376:164|376:164|420:168,1,100
480,112,19436,1,0,0:0:0:0:
420,60,19651,2,0,B|376:64|376:64|324:44,1,100,0|8,0:0|0:0,0:0:0:0:
286,114,20079,1,0,0:0:0:0:
268,124,20186,1,0,0:0:0:0:
252,132,20293,2,0,B|208:160|212:220,1,100,0|0,0:0|0:0,0:0:0:0:
252,288,20722,6,0,B|296:260|292:200,2,100
184,328,21365,1,0,0:0:0:0:
104,316,21579,2,0,P|39:280|16:212,1,150,8|0,0:0|0:0,0:0:0:0:
13,191,22008,1,0,0:0:0:0:
52,120,22222,1,0,0:0:0:0:
120,76,22436,1,0,0:0:0:0:
200,60,22651,1,0,0:0:0:0:
256,116,22865,1,0,0:0:0:0:
312,60,23079,2,0,B|369:68|409:34,1,100,0|8,0:0|0:0,0:0:0:0:
200,60,23508,2,0,B|148:60,2,50,0|0|8,0:0|0:0|0:0,0:0:0:0:
200,60,23936,1,0,0:0:0:0:
256,120,24151,5,0,0:0:0:0:
261,138,24258,1,0,0:0:0:0:
272,156,24365,1,0,0:0:0:0:
286,168,24472,2,0,B|337:226|364:165|417:225,1,150
256,264,25008,1,8,0:0:0:0:
251,246,25115,1,0,0:0:0:0:
241,229,25222,1,0,0:0:0:0:
226,216,25329,2,0,B|174:157|147:217|95:158,1,150
60,84,25865,2,0,B|84:40,1,50
144,92,26186,2,0,B|212:56|292:80,1,150
352,128,26722,1,8,0:0:0:0:
400,192,26936,2,0,B|424:240,1,50
429,255,27151,2,0,B|380:280|384:340,1,100,8|0,0:0|0:0,0:0:0:0:
312,300,27793,5,0,0:0:0:0:
264,236,28008,1,0,0:0:0:0:
288,160,28222,1,0,0:0:0:0:
356,120,28436,1,8,0:0:0:0:
432,148,28651,2,0,B|437:201|412:252|357:269|305:254,1,200
252,192,29293,1,0,0:0:0:0:
240,112,29508,2,0,B|225:60|184:21|126:25|82:59,1,200
28,120,30151,1,8,0:0:0:0:
32,200,30365,1,0,0:0:0:0:
32,220,30472,1,0,0:0:0:0:
36,240,30579,2,0,B|40:291|85:323,1,100,8|0,0:0|0:0,0:0:0:0:
120,252,31008,6,0,B|168:272,1,50
236,236,31329,2,0,B|374:293,1,150
452,272,31865,1,8,0:0:0:0:
480,196,32079,1,0,0:0:0:0:
484,176,32186,1,0,0:0:0:0:
488,156,32293,1,0,0:0:0:0:
440,92,32508,1,0,0:0:0:0:
364,64,32722,2,0,B|316:84,1,50
248,44,33043,2,0,B|109:101,1,150
52,156,33579,1,8,0:0:0:0:
44,236,33793,1,0,0:0:0:0:
52,256,33901,1,0,0:0:0:0:
60,276,34008,2,0,B|84:324|84:324|124:348,1,100
144,272,34436,5,0,0:0:0:0:
221,325,34865,1,0,0:0:0:0:
315,316,35293,1,8,0:0:0:0:
381,248,35722,1,0,0:0:0:0:
388,155,36151,1,0,0:0:0:0:
333,78,36579,1,0,0:0:0:0:
242,55,37008,1,8,0:0:0:0:
157,95,37436,1,0,0:0:0:0:
118,181,37865,5,0,0:0:0:0:
157,95,38079,1,0,0:0:0:0:
242,55,38293,1,0,0:0:0:0:
333,78,38508,1,0,0:0:0:0:
388,155,38722,1,8,0:0:0:0:
381,248,38936,1,0,0:0:0:0:
315,316,39151,1,0,0:0:0:0:
221,325,39365,1,0,0:0:0:0:
144,272,39579,5,0,0:0:0:0:
156,256,39686,1,0,0:0:0:0:
165,238,39793,1,0,0:0:0:0:
167,218,39901,1,0,0:0:0:0:
162,198,40008,1,0,0:0:0:0:
152,180,40115,1,0,0:0:0:0:
136,167,40222,1,0,0:0:0:0:
117,160,40329,1,0,0:0:0:0:
97,160,40436,2,0,B|28:180|48:248|48:248|28:280,1,150,8|0,0:0|0:0,0:0:0:0:
104,340,41293,5,4,0:0:0:0:
208,320,41508,1,0,0:0:0:0:
240,220,41722,2,0,B|296:179|363:200,1,129.999994049073
312,292,42151,1,8,0:0:0:0:
240,220,42365,2,0,B|261:153|220:97,2,129.999994049073
148,172,43008,1,0,0:0:0:0:
98,81,43222,5,0,0:0:0:0:
114,61,43329,1,0,0:0:0:0:
130,41,43436,1,0,0:0:0:0:
224,84,43651,2,0,B|287:54|287:54|351:61,1,129.999994049073,0|8,0:0|0:0,0:0:0:0:
372,64,43972,1,0,0:0:0:0:
396,68,44079,1,0,0:0:0:0:
408,169,44293,2,0,B|465:209|465:209|491:267,1,129.999994049073,0|0,0:0|0:0,0:0:0:0:
408,169,44722,5,2,0:0:0:0:
332,240,44936,2,0,B|296:292,2,64.9999970245363
256,168,45365,1,0,0:0:0:0:
180,240,45579,2,0,B|216:292,1,64.9999970245363,8|0,0:0|0:0,0:0:0:0:
180,240,45793,2,0,B|163:301,1,64.9999970245363
180,240,46008,2,0,B|122:266,1,64.9999970245363
180,240,46222,2,0,B|122:212,1,64.9999970245363
180,240,46436,6,0,B|197:176|197:176|170:158|158:128,1,129.999994049073
152,101,46758,1,0,0:0:0:0:
153,75,46865,1,0,0:0:0:0:
162,50,46972,1,0,0:0:0:0:
181,33,47079,1,0,0:0:0:0:
205,23,47186,1,0,0:0:0:0:
232,28,47293,2,0,B|292:48|292:48|356:32,1,129.999994049073,8|0,0:0|0:0,0:0:0:0:
480,200,47722,2,0,B|420:180|420:180|356:196,1,129.999994049073
416,280,48151,5,2,0:0:0:0:
316,100,48365,2,0,B|323:35,2,64.9999970245363
184,260,48793,2,0,B|112:232|96:168,1,129.999994049073,0|8,0:0|0:0,0:0:0:0:
80,68,49222,1,0,0:0:0:0:
172,21,49436,1,0,0:0:0:0:
194,33,49543,1,0,0:0:0:0:
210,53,49651,1,0,0:0:0:0:
219,76,49758,1,0,0:0:0:0:
218,101,49865,1,0,0:0:0:0:
320,120,50079,6,0,B|372:168,2,64.9999970245363
268,212,50508,1,0,0:0:0:0:
176,260,50722,1,8,0:0:0:0:
150,263,50829,1,0,0:0:0:0:
125,267,50936,2,0,B|56:263|56:263|4:225,2,129.999994049073
96,168,51579,5,2,0:0:0:0:
184,116,51793,1,0,0:0:0:0:
164,96,51901,1,0,0:0:0:0:
144,76,52008,1,0,0:0:0:0:
348,36,52222,1,0,0:0:0:0:
144,76,52436,2,0,B|64:88|56:160|56:160|92:228|32:276,1,259.999988098145,8|0,0:0|0:0,0:0:0:0:
108,348,53079,1,0,0:0:0:0:
196,292,53293,5,0,0:0:0:0:
256,208,53508,2,0,B|256:128,2,64.9999970245363
316,292,53936,1,0,0:0:0:0:
404,348,54151,2,0,B|448:351|484:296|465:257,1,129.999994049073,8|0,0:0|0:0,0:0:0:0:
380,68,54579,2,0,B|335:64|299:119|318:158,1,129.999994049073
256,240,55008,5,2,0:0:0:0:
193,158,55222,2,0,B|212:119|176:64|132:68,1,129.999994049073
47,256,55651,1,0,0:0:0:0:
148,236,55865,1,8,0:0:0:0:
180,336,56079,1,0,0:0:0:0:
204,344,56186,1,0,0:0:0:0:
228,332,56293,1,0,0:0:0:0:
248,316,56401,1,0,0:0:0:0:
268,300,56508,1,0,0:0:0:0:
288,284,56615,1,0,0:0:0:0:
308,268,56722,6,0,B|336:240|336:240|304:200|332:156,1,129.999994049073
348,136,57043,1,0,0:0:0:0:
372,124,57151,1,0,0:0:0:0:
256,28,57365,1,0,0:0:0:0:
140,124,57579,1,8,0:0:0:0:
164,136,57686,1,0,0:0:0:0:
180,156,57793,1,0,0:0:0:0:
372,124,58008,1,0,0:0:0:0:
140,124,58222,1,0,0:0:0:0:
256,220,58436,6,0,B|259:255|243:288|207:300|173:290,1,129.999994049073,2|0,0:0|0:0,0:0:0:0:
150,279,58758,1,0,0:0:0:0:
134,258,58865,1,0,0:0:0:0:
58,194,59079,2,0,B|54:158|70:125|106:113|140:123,1,129.999994049073,0|8,0:0|0:0,0:0:0:0:
188,32,59508,1,0,0:0:0:0:
256,112,59722,1,0,0:0:0:0:
324,32,59936,1,0,0:0:0:0:
372,124,60151,6,0,B|424:180|400:244,1,129.999994049073
387,266,60472,1,0,0:0:0:0:
369,284,60579,1,0,0:0:0:0:
346,297,60686,1,0,0:0:0:0:
320,300,60793,1,0,0:0:0:0:
293,296,60901,1,0,0:0:0:0:
270,282,61008,2,0,B|248:264|248:264|200:296|156:256,1,129.999994049073,8|0,0:0|0:0,0:0:0:0:
242,102,61436,2,0,B|264:120|264:120|312:88|356:128,1,129.999994049073
256,192,61865,5,2,0:0:0:0:
152,192,62079,2,0,B|84:192,2,64.9999970245363
256,192,62508,1,0,0:0:0:0:
348,140,62722,1,8,0:0:0:0:
400,252,62936,1,0,0:0:0:0:
375,258,63043,1,0,0:0:0:0:
357,277,63151,1,0,0:0:0:0:
348,301,63258,1,0,0:0:0:0:
349,326,63365,1,0,0:0:0:0:
363,347,63472,1,0,0:0:0:0:
385,359,63579,6,0,B|460:352|481:285,1,129.999994049073
489,259,63901,1,0,0:0:0:0:
484,233,64008,1,0,0:0:0:0:
452,132,64222,2,0,B|431:59|355:59,1,129.999994049073,0|8,0:0|0:0,0:0:0:0:
333,64,64543,1,0,0:0:0:0:
310,77,64651,1,0,0:0:0:0:
256,164,64865,1,0,0:0:0:0:
202,77,65079,1,0,0:0:0:0:
202,77,65293,6,0,B|128:76|107:149,2,129.999994049073,2|0|0,0:0|0:0|0:0,0:0:0:0:
256,164,65936,1,0,0:0:0:0:
180,235,66151,1,8,0:0:0:0:
192,257,66258,1,0,0:0:0:0:
208,276,66365,1,0,0:0:0:0:
231,287,66472,1,0,0:0:0:0:
256,292,66579,1,0,0:0:0:0:
281,287,66686,1,0,0:0:0:0:
304,276,66793,1,0,0:0:0:0:
320,257,66901,1,0,0:0:0:0:
332,236,67008,6,0,B|352:183|255:79|158:183|180:236,1,259.999988098145
116,316,67651,1,0,0:0:0:0:
76,220,67865,1,8,0:0:0:0:
116,124,68079,2,0,L|64:84,2,64.9999970245363,0|0|8,0:0|0:0|0:0,0:0:0:0:
199,61,68508,1,8,0:0:0:0:
301,76,68722,1,4,0:0:0:0:
308,68,82436,6,0,B|388:84|388:84|432:132|408:196,1,200
256,192,83079,1,0,0:0:0:0:
103,193,83293,2,0,B|80:132|124:84|124:84|204:68,1,200,8|0,0:0|0:0,0:0:0:0:
304,44,83936,1,0,0:0:0:0:
368,120,84151,2,0,B|302:268|206:136|140:284,1,300
92,348,85008,1,8,0:0:0:0:
164,376,85223,1,0,0:0:0:0:
348,376,85436,1,0,0:0:0:0:
420,348,85651,1,0,0:0:0:0:
352,300,85865,6,0,B|299:250|309:165|309:165|256:188|204:165|204:165|213:250|161:300,1,400,0|8,0:0|0:0,0:0:0:0:
80,292,86936,1,0,0:0:0:0:
52,216,87151,1,0,0:0:0:0:
64,136,87365,1,0,0:0:0:0:
116,76,87579,2,0,B|176:56|208:88|208:88|256:124|304:88|304:88|336:56|396:76,1,300
448,136,88436,2,0,B|444:188|444:188|408:224,1,100,8|0,0:0|0:0,0:0:0:0:
256,260,88865,2,0,B|260:208|260:208|296:172,1,100,8|0,0:0|0:0,0:0:0:0:
374,161,89293,6,0,B|373:111|373:111|348:60|306:27|256:10|205:27|163:60|138:111|138:111|138:161,1,400,0|8,0:0|0:0,0:0:0:0:
84,220,90365,1,0,0:0:0:0:
88,300,90579,1,0,0:0:0:0:
159,335,90793,1,0,0:0:0:0:
208,271,91008,2,0,B|208:195|208:195|208:131|208:131|228:99|256:91|284:99|304:131|304:131|304:195|304:195|304:271,1,400,0|8,0:0|0:0,0:0:0:0:
353,335,92079,2,0,B|404:348,2,50,0|0|8,0:0|0:0|0:0,0:0:0:0:
400,248,92508,1,0,0:0:0:0:
396,148,92722,6,0,P|228:72|140:228,1,400,0|8,0:0|0:0,0:0:0:0:
176,300,93793,1,0,0:0:0:0:
336,300,94222,1,0,0:0:0:0:
372,228,94436,2,0,P|284:72|116:148,1,400,0|8,0:0|0:0,0:0:0:0:
96,224,95508,1,0,0:0:0:0:
116,228,95615,1,0,0:0:0:0:
132,236,95722,2,0,B|172:280|172:280|180:324,1,100,8|0,0:0|0:0,0:0:0:0:
248,156,96151,6,0,B|208:112|208:112|200:68,1,100
356,37,96793,1,0,0:0:0:0:
309,190,97222,2,0,B|349:234|349:234|357:278,2,100
232,172,97865,2,0,B|121:169|66:265,2,200,0|0|8,0:0|0:0|0:0,0:0:0:0:
308,144,98936,1,0,0:0:0:0:
326,135,99043,1,0,0:0:0:0:
341,122,99151,2,0,B|380:84|380:32,1,100,8|0,0:0|0:0,0:0:0:0:
404,192,99579,5,0,0:0:0:0:
404,192,99793,2,0,B|326:267|326:371,1,200
256,332,100436,1,8,0:0:0:0:
240,252,100651,1,0,0:0:0:0:
188,192,100865,2,0,B|150:153|99:153,1,100
324,192,101293,2,0,B|400:270|504:270,2,200,0|0|8,0:0|0:0|0:0,0:0:0:0:
264,140,102365,5,0,0:0:0:0:
246,130,102472,1,0,0:0:0:0:
226,124,102579,1,8,0:0:0:0:
206,121,102686,1,0,0:0:0:0:
186,121,102793,1,0,0:0:0:0:
166,123,102901,1,0,0:0:0:0:
146,128,103008,6,0,B|1:172|4:346|147:368|229:340,1,400,0|8,0:0|0:0,0:0:0:0:
304,316,104079,1,0,0:0:0:0:
324,240,104293,2,0,B|344:188|344:188|380:160,1,100
188,144,104722,2,0,B|148:248|148:248|76:303,1,200
28,240,105365,1,0,0:0:0:0:
128,364,105579,1,8,0:0:0:0:
78,302,105793,1,0,0:0:0:0:
64,288,105901,1,0,0:0:0:0:
56,272,106008,2,0,B|55:214|91:177,1,100,8|0,0:0|0:0,0:0:0:0:
132,248,106436,6,0,B|198:179|196:63,1,200
256,12,107079,1,0,0:0:0:0:
315,64,107293,2,0,B|313:179|380:248,1,200,8|0,0:0|0:0,0:0:0:0:
324,304,107936,1,0,0:0:0:0:
256,260,108151,2,0,B|256:160,2,100
188,304,108793,1,0,0:0:0:0:
132,248,109008,2,0,B|199:179|197:64,1,200,8|8,0:0|0:0,0:0:0:0:
204,44,109543,1,0,0:0:0:0:
219,30,109651,1,8,0:0:0:0:
238,25,109758,1,0,0:0:0:0:
257,26,109865,6,0,B|312:40,1,50,4|0,0:0|0:0,0:0:0:0:
308,120,110186,2,0,B|455:157,1,150,4|0,0:0|0:0,0:0:0:0:
476,236,110722,1,8,0:0:0:0:
476,316,110936,1,0,0:0:0:0:
408,356,111151,1,0,0:0:0:0:
332,328,111365,1,0,0:0:0:0:
256,300,111579,5,0,0:0:0:0:
237,291,111686,1,0,0:0:0:0:
221,278,111793,1,0,0:0:0:0:
211,260,111901,2,0,B|179:227|180:190|192:155|232:135,1,150
272,208,112436,2,0,B|328:212|328:212|368:188,1,100,8|0,0:0|0:0,0:0:0:0:
383,179,112758,1,0,0:0:0:0:
401,170,112865,1,0,0:0:0:0:
436,100,113079,1,0,0:0:0:0:
368,48,113293,6,0,B|328:16,1,50
260,60,113615,2,0,B|185:47|185:47|113:70,1,150
36,92,114151,2,0,B|20:140|20:140|28:189,1,100,8|0,0:0|0:0,0:0:0:0:
96,232,114579,1,0,0:0:0:0:
124,308,114793,1,0,0:0:0:0:
188,356,115008,5,0,0:0:0:0:
207,353,115115,1,0,0:0:0:0:
225,345,115222,1,0,0:0:0:0:
241,333,115329,2,0,B|307:283|315:207,1,150
256,152,115865,1,8,0:0:0:0:
216,84,116079,1,0,0:0:0:0:
296,84,116293,1,0,0:0:0:0:
256,152,116508,1,0,0:0:0:0:
197,207,116722,6,0,B|205:283|271:333,1,150
288,340,117151,1,0,0:0:0:0:
368,352,117365,2,0,B|409:312|409:312|457:309,1,100,0|8,0:0|0:0,0:0:0:0:
480,236,117793,1,0,0:0:0:0:
464,156,118008,1,0,0:0:0:0:
400,108,118222,1,0,0:0:0:0:
324,92,118436,5,0,0:0:0:0:
324,92,118543,1,0,0:0:0:0:
272,152,118758,2,0,B|188:160|148:228,1,150
168,304,119293,1,8,0:0:0:0:
216,368,119508,1,0,0:0:0:0:
296,368,119722,1,0,0:0:0:0:
344,304,119936,1,0,0:0:0:0:
364,228,120151,6,0,B|324:160|240:152,1,150
220,152,120579,1,0,0:0:0:0:
376,116,120793,2,0,B|402:160|457:165,1,100,0|8,0:0|0:0,0:0:0:0:
480,244,121222,1,0,0:0:0:0:
488,264,121329,1,0,0:0:0:0:
496,284,121436,1,0,0:0:0:0:
448,348,121651,1,0,0:0:0:0:
368,356,121865,5,0,0:0:0:0:
368,356,121972,1,0,0:0:0:0:
292,332,122186,2,0,B|214:302|186:231,1,150
256,192,122722,1,8,0:0:0:0:
324,236,122936,2,0,B|356:288,2,50,0|0|8,0:0|0:0|0:0,0:0:0:0:
328,156,123365,1,0,0:0:0:0:
256,192,123579,5,0,0:0:0:0:
244,176,123686,2,0,B|216:128|160:120,1,100
64,184,124222,1,0,0:0:0:0:
44,260,124436,1,8,0:0:0:0:
96,320,124651,1,0,0:0:0:0:
176,320,124865,1,0,0:0:0:0:
236,268,125079,1,0,0:0:0:0:
256,192,125293,5,0,0:0:0:0:
272,180,125401,2,0,B|320:156|372:164,1,100
448,184,125936,1,0,0:0:0:0:
468,260,126151,1,8,0:0:0:0:
416,320,126365,1,0,0:0:0:0:
336,320,126579,1,0,0:0:0:0:
276,268,126793,1,0,0:0:0:0:
200,244,127008,5,0,0:0:0:0:
200,244,127115,1,0,0:0:0:0:
176,168,127329,2,0,B|91:150|63:79,1,150
132,44,127865,1,8,0:0:0:0:
212,52,128079,1,0,0:0:0:0:
276,96,128293,1,0,0:0:0:0:
300,172,128508,1,0,0:0:0:0:
284,252,128722,5,0,0:0:0:0:
284,252,128829,1,0,0:0:0:0:
224,304,129043,2,0,B|159:354|80:327,1,150
92,176,129579,1,8,0:0:0:0:
220,100,129793,1,0,0:0:0:0:
376,116,130008,2,0,L|372:140,7,25
372,140,130436,5,0,0:0:0:0:
140,244,130865,1,0,0:0:0:0:
374,237,131293,1,8,0:0:0:0:
137,146,131722,1,0,0:0:0:0:
308,308,132151,1,0,0:0:0:0:
204,76,132579,1,0,0:0:0:0:
210,310,133008,1,8,0:0:0:0:
301,73,133436,1,0,0:0:0:0:
140,244,133865,5,0,0:0:0:0:
42,143,134079,1,0,0:0:0:0:
120,26,134293,1,0,0:0:0:0:
218,127,134507,1,0,0:0:0:0:
372,140,134722,1,0,0:0:0:0:
470,241,134936,1,0,0:0:0:0:
392,358,135150,1,0,0:0:0:0:
294,257,135364,1,0,0:0:0:0:
153,265,135579,5,0,0:0:0:0:
141,248,135686,1,0,0:0:0:0:
136,228,135793,1,0,0:0:0:0:
137,207,135901,1,0,0:0:0:0:
144,188,136008,1,0,0:0:0:0:
157,173,136115,1,0,0:0:0:0:
173,161,136222,1,0,0:0:0:0:
192,157,136329,1,0,0:0:0:0:
213,161,136436,2,0,B|261:181|317:165,1,100,8|0,0:0|0:0,0:0:0:0:
329,159,136758,1,0,0:0:0:0:
345,148,136865,2,0,B|397:122|406:74,1,100
292,36,137293,5,4,0:0:0:0:
188,48,137508,2,0,B|120:56,2,64.9999970245363
292,36,137936,1,0,0:0:0:0:
336,132,138151,2,0,B|360:196|332:260,2,129.999994049073
261,327,138793,1,0,0:0:0:0:
234,327,138901,1,0,0:0:0:0:
209,317,139008,5,0,0:0:0:0:
96,144,139222,1,0,0:0:0:0:
99,169,139329,1,0,0:0:0:0:
110,192,139436,1,0,0:0:0:0:
256,44,139651,1,0,0:0:0:0:
402,192,139865,1,8,0:0:0:0:
413,169,139972,1,0,0:0:0:0:
416,144,140079,1,0,0:0:0:0:
256,44,140293,2,0,B|225:105|286:105|256:167,1,129.999994049073
256,272,140722,5,2,0:0:0:0:
176,204,140936,2,0,B|128:256,2,64.9999970245363
336,204,141365,1,0,0:0:0:0:
256,136,141579,1,8,0:0:0:0:
244,112,141686,1,0,0:0:0:0:
224,96,141793,1,0,0:0:0:0:
200,88,141901,1,0,0:0:0:0:
176,88,142008,1,0,0:0:0:0:
152,92,142115,1,0,0:0:0:0:
128,104,142222,1,0,0:0:0:0:
112,124,142329,1,0,0:0:0:0:
104,148,142436,6,0,B|92:220|92:220|112:280,1,129.999994049073
123,296,142758,1,0,0:0:0:0:
143,312,142865,1,0,0:0:0:0:
166,321,142972,1,0,0:0:0:0:
191,325,143079,1,0,0:0:0:0:
216,325,143186,1,0,0:0:0:0:
241,320,143293,2,0,B|296:280|364:296,1,129.999994049073,8|0,0:0|0:0,0:0:0:0:
271,64,143722,2,0,B|216:104|148:88,1,129.999994049073
56,40,144151,5,2,0:0:0:0:
148,88,144365,2,0,B|131:156|171:211,2,129.999994049073
240,136,145008,2,0,B|372:156,1,129.999994049073,8|0,0:0|0:0,0:0:0:0:
368,155,145329,1,0,0:0:0:0:
369,155,145436,2,0,B|349:287,1,129.999994049073
256,332,145865,5,0,0:0:0:0:
162,283,146079,2,0,B|152:219,2,64.9999970245363
256,332,146508,1,0,0:0:0:0:
256,52,146722,1,8,0:0:0:0:
252,76,146829,1,0,0:0:0:0:
240,100,146936,2,0,B|208:164|136:172,2,129.999994049073
140,68,147579,5,2,0:0:0:0:
139,171,147793,2,0,B|84:215|92:286,1,129.999994049073
256,192,148222,1,0,0:0:0:0:
419,286,148436,2,0,B|427:215|373:171,3,129.999994049073
256,192,149293,1,0,0:0:0:0:
324,332,149508,5,0,0:0:0:0:
300,320,149615,1,0,0:0:0:0:
276,308,149722,1,0,0:0:0:0:
252,296,149829,1,0,0:0:0:0:
226,304,149936,1,0,0:0:0:0:
201,312,150043,1,0,0:0:0:0:
175,321,150151,1,8,0:0:0:0:
148,220,150365,1,0,0:0:0:0:
204,132,150579,1,0,0:0:0:0:
308,132,150793,1,0,0:0:0:0:
364,220,151008,5,2,0:0:0:0:
148,220,151222,2,0,B|88:240,2,64.9999970245363
308,132,151651,1,0,0:0:0:0:
204,132,151865,2,0,B|184:100|184:100|132:108|100:72,1,129.999994049073,8|0,0:0|0:0,0:0:0:0:
100,72,152186,1,0,0:0:0:0:
100,72,152293,2,0,B|95:119|48:144|48:144|51:181,1,129.999994049073
148,220,152722,5,0,0:0:0:0:
51,258,152936,1,0,0:0:0:0:
53,283,153043,1,0,0:0:0:0:
63,306,153151,1,0,0:0:0:0:
160,340,153365,1,0,0:0:0:0:
256,300,153579,2,0,B|256:236,2,64.9999970245363,8|0|0,0:0|0:0|0:0,0:0:0:0:
352,340,154008,1,0,0:0:0:0:
449,306,154222,1,0,0:0:0:0:
472,204,154436,6,0,B|475:167|475:167|428:142|423:95,1,129.999994049073,2|0,0:0|0:0,0:0:0:0:
423,95,154758,1,0,0:0:0:0:
423,95,154865,2,0,B|391:131|339:123|339:123|319:155,1,129.999994049073
256,240,155293,1,8,0:0:0:0:
239,260,155401,1,0,0:0:0:0:
215,271,155508,1,0,0:0:0:0:
189,277,155615,1,0,0:0:0:0:
163,278,155722,1,0,0:0:0:0:
137,271,155829,1,0,0:0:0:0:
113,259,155936,1,0,0:0:0:0:
95,240,156043,1,0,0:0:0:0:
84,216,156151,6,0,B|40:179|75:41|210:85|216:142,1,259.999988098145
256,44,156793,1,0,0:0:0:0:
295,140,157008,1,8,0:0:0:0:
384,196,157222,1,0,0:0:0:0:
404,212,157329,1,0,0:0:0:0:
424,232,157436,2,0,B|472:284|456:352,1,129.999994049073
56,352,157865,6,0,B|40:284|88:232,2,129.999994049073,2|0|0,0:0|0:0|0:0,0:0:0:0:
152,308,158508,1,0,0:0:0:0:
196,212,158722,1,8,0:0:0:0:
276,148,158936,1,0,0:0:0:0:
301,139,159043,1,0,0:0:0:0:
326,131,159151,1,0,0:0:0:0:
352,122,159258,1,0,0:0:0:0:
365,98,159365,1,0,0:0:0:0:
377,75,159472,1,0,0:0:0:0:
389,50,159579,5,0,0:0:0:0:
462,199,159793,2,0,B|448:136,2,64.9999970245363
389,50,160222,1,0,0:0:0:0:
284,48,160436,1,8,0:0:0:0:
260,52,160543,1,0,0:0:0:0:
236,56,160651,2,0,B|168:72|168:72|136:136,2,129.999994049073
236,160,161293,5,2,0:0:0:0:
236,264,161508,2,0,B|304:248|304:248|336:184,2,129.999994049073
180,352,162151,1,8,0:0:0:0:
132,260,162365,1,0,0:0:0:0:
236,264,162579,2,0,B|197:210|203:139,1,129.999994049073
256,52,163008,5,0,0:0:0:0:
308,141,163222,1,0,0:0:0:0:
334,143,163329,1,0,0:0:0:0:
356,155,163436,1,0,0:0:0:0:
364,179,163543,1,0,0:0:0:0:
364,205,163651,1,0,0:0:0:0:
374,229,163758,1,0,0:0:0:0:
392,246,163865,5,8,0:0:0:0:
246,338,164079,1,0,0:0:0:0:
114,228,164293,1,8,0:0:0:0:
177,68,164508,1,0,0:0:0:0:
349,79,164722,1,4,0:0:0:0:
