osu file format v12

[General]
AudioFilename: PEWDIEPIE Song - Dj Fortify.mp3
AudioLeadIn: 0
PreviewTime: 136436
Countdown: 0
SampleSet: Normal
StackLeniency: 0.7
Mode: 0
LetterboxInBreaks: 1

[Editor]
DistanceSpacing: 0.8
BeatDivisor: 4
GridSize: 4

[Metadata]
Title:PewDiePie Song
TitleUnicode:PewDiePie Song
Artist:Dj Fortify
ArtistUnicode:Dj Fortify
Creator:GamerX4life
Version:Hard
Source:
Tags:LP Lets Plays YouTube Brostep Dubstep Intro Deni
BeatmapID:183806
BeatmapSetID:60182

[Difficulty]
HPDrainRate:5
CircleSize:4
OverallDifficulty:5
ApproachRate:7
SliderMultiplier:1.8
SliderTickRate:1

[Events]
//Background and Video events
0,0,"pewdiepiewBG.jpg",0,0
//Break Periods
2,68922,81536
//Storyboard Layer 0 (Background)
//Storyboard Layer 1 (Fail)
//Storyboard Layer 2 (Pass)
//Storyboard Layer 3 (Foreground)
//Storyboard Sound Samples
//Background Colour Transformations
3,100,163,162,255

[TimingPoints]
151,428.571428571429,4,1,0,40,1,0
12151,-100,4,1,0,5,0,0
13865,-100,4,1,0,40,0,0
40436,-200,4,1,0,40,0,0
40865,-200,4,1,0,5,0,0
41293,-100,4,1,0,40,0,1
68722,-100,4,1,0,40,0,0
82436,-100,4,1,0,40,0,0
136543,-100,4,1,0,5,0,0
137293,-100,4,1,0,40,0,1
164722,-100,4,1,0,40,0,0

[Colours]
Combo1 : 225,4,4
Combo2 : 240,240,0
Combo3 : 0,183,0

[HitObjects]
256,192,12151,12,0,13436,0:0:0:0:
256,84,13865,6,0,B|256:176,1,90,4|0,0:0|0:0,0:0:0:0:
144,264,14508,1,0,0:0:0:0:
84,228,14722,1,8,0:0:0:0:
40,172,14936,2,0,B|40:64|132:32,1,180
204,24,15579,1,0,0:0:0:0:
272,48,15793,1,0,0:0:0:0:
312,188,16222,2,0,B|296:240|328:272,1,90,0|8,0:0|0:0,0:0:0:0:
392,304,16651,2,0,B|408:252|376:220,2,90,0|8|0,0:0|0:0|0:0,0:0:0:0:
332,344,17293,5,0,0:0:0:0:
268,308,17508,1,0,0:0:0:0:
244,168,17936,1,0,0:0:0:0:
220,100,18151,1,8,0:0:0:0:
160,56,18365,2,0,B|122:31|65:40|28:84|31:130,1,180
48,200,19008,1,0,0:0:0:0:
96,252,19222,1,0,0:0:0:0:
240,252,19651,1,0,0:0:0:0:
288,200,19865,1,8,0:0:0:0:
304,129,20079,2,0,B|344:100|344:100|360:60,1,90
288,200,20722,5,0,0:0:0:0:
240,252,20936,2,0,B|224:296|172:308,1,90
104,292,21365,2,0,B|120:248|172:236,2,90,0|8|0,0:0|0:0|0:0,0:0:0:0:
36,264,22008,1,0,0:0:0:0:
28,192,22222,1,0,0:0:0:0:
72,136,22436,2,0,B|96:64|176:60,1,135,0|0,0:0|0:0,0:0:0:0:
192,168,23079,1,0,0:0:0:0:
256,204,23293,1,8,0:0:0:0:
320,168,23508,2,0,B|356:136|356:136|397:128,2,90,0|8|0,0:0|0:0|0:0,0:0:0:0:
256,204,24151,6,0,B|256:344,1,135,0|0,0:0|0:0,0:0:0:0:
152,312,24793,1,0,0:0:0:0:
112,252,25008,1,8,0:0:0:0:
152,192,25222,2,0,B|156:140|200:120,1,90
256,76,25651,1,0,0:0:0:0:
313,120,25865,2,0,B|368:144|364:240,1,135,0|0,0:0|0:0,0:0:0:0:
468,272,26508,1,0,0:0:0:0:
424,328,26722,1,8,0:0:0:0:
352,340,26937,1,0,0:0:0:0:
288,308,27151,2,0,B|244:288|240:236,1,90,8|0,0:0|0:0,0:0:0:0:
248,164,27579,6,0,B|256:92|256:92|288:36,1,135,0|0,0:0|0:0,0:0:0:0:
344,128,28222,2,0,B|384:156|384:156|428:164,1,90,0|8,0:0|0:0,0:0:0:0:
400,232,28651,1,0,0:0:0:0:
336,264,28865,1,0,0:0:0:0:
272,296,29079,1,0,0:0:0:0:
208,328,29293,2,0,B|176:344|176:344|160:288|104:288,1,135,0|0,0:0|0:0,0:0:0:0:
52,192,29936,1,0,0:0:0:0:
88,132,30151,2,0,B|136:56,1,90,8|0,0:0|0:0,0:0:0:0:
192,100,30579,2,0,B|267:51,1,90,8|0,0:0|0:0,0:0:0:0:
299,114,31008,6,0,B|438:95,1,135,0|0,0:0|0:0,0:0:0:0:
384,192,31651,2,0,B|292:192,2,90,0|8|0,0:0|0:0|0:0,0:0:0:0:
432,288,32508,1,0,0:0:0:0:
432,288,32722,2,0,B|299:270,1,135,0|0,0:0|0:0,0:0:0:0:
200,228,33365,1,0,0:0:0:0:
156,172,33579,1,8,0:0:0:0:
144,100,33793,2,0,B|128:52|80:36,1,90
220,84,34436,5,0,0:0:0:0:
364,60,34865,1,0,0:0:0:0:
424,192,35293,1,8,0:0:0:0:
344,312,35722,1,0,0:0:0:0:
256,196,36151,1,0,0:0:0:0:
168,312,36579,1,0,0:0:0:0:
88,192,37008,1,8,0:0:0:0:
148,60,37436,1,0,0:0:0:0:
292,84,37865,5,0,0:0:0:0:
356,116,38079,1,0,0:0:0:0:
392,180,38293,1,0,0:0:0:0:
384,252,38508,1,0,0:0:0:0:
340,308,38722,1,8,0:0:0:0:
268,316,38936,1,0,0:0:0:0:
200,292,39151,1,0,0:0:0:0:
156,232,39365,1,0,0:0:0:0:
135,163,39579,2,0,B|150:102|210:56|210:56|255:79|301:56|301:56|361:102|378:163,1,360
256,228,40865,1,0,0:0:0:0:
116,192,41293,5,4,0:0:0:0:
136,124,41508,2,0,B|156:80|200:60,1,90
314,61,42151,1,8,0:0:0:0:
368,108,42365,1,0,0:0:0:0:
404,172,42579,1,0,0:0:0:0:
408,244,42793,1,0,0:0:0:0:
396,316,43008,2,0,B|356:348|356:348|304:352,1,90
276,292,43436,2,0,B|225:281|225:281|189:244,1,90
140,146,43865,2,0,B|190:156|190:156|226:193,1,90,8|0,0:0|0:0,0:0:0:0:
98,87,44293,2,0,B|60:90|60:90|20:122,1,90
24,196,44722,5,2,0:0:0:0:
24,268,44936,2,0,B|28:316|60:352,1,90
200,336,45579,2,0,B|248:328|280:292,2,90,8|0|0,0:0|0:0|0:0,0:0:0:0:
164,276,46222,1,0,0:0:0:0:
156,204,46436,2,0,B|176:64|352:32|424:160,1,360,0|8,0:0|0:0,0:0:0:0:
440,228,47508,1,0,0:0:0:0:
424,300,47722,1,0,0:0:0:0:
372,348,47936,1,0,0:0:0:0:
300,364,48151,5,2,0:0:0:0:
232,348,48365,2,0,B|188:332|188:332|160:296,1,90
152,156,49008,2,0,B|196:172|196:172|224:208,2,90,8|0|0,0:0|0:0|0:0,0:0:0:0:
80,168,49651,1,0,0:0:0:0:
36,224,49865,1,0,0:0:0:0:
48,296,50079,2,0,B|74:330|74:330|118:346,1,90
264,348,50722,2,0,B|344:308,1,90,8|0,0:0|0:0,0:0:0:0:
336,236,51151,1,0,0:0:0:0:
352,164,51365,1,0,0:0:0:0:
344,92,51579,6,0,B|424:52,2,90,2|0|0,0:0|0:0|0:0,0:0:0:0:
256,208,52436,1,8,0:0:0:0:
168,92,52865,1,0,0:0:0:0:
104,124,53079,1,0,0:0:0:0:
64,184,53293,2,0,B|20:244|20:244|16:304|56:340,2,180,0|0|8,0:0|0:0|0:0,0:0:0:0:
104,124,54365,1,0,0:0:0:0:
168,92,54579,1,0,0:0:0:0:
240,96,54793,1,0,0:0:0:0:
296,144,55008,5,2,0:0:0:0:
296,216,55222,2,0,B|304:268|344:296,1,90
172,292,55865,2,0,B|208:268|216:216,1,90,8|0,0:0|0:0,0:0:0:0:
160,172,56293,2,0,B|171:130|143:85,1,90
72,88,56722,2,0,B|54:49|4:32,2,90
152,208,57579,1,8,0:0:0:0:
188,268,57793,1,0,0:0:0:0:
256,296,58008,1,0,0:0:0:0:
324,268,58222,1,0,0:0:0:0:
360,208,58436,5,2,0:0:0:0:
360,136,58651,2,0,B|360:88|360:88|384:48,1,90
381,51,59079,1,0,0:0:0:0:
256,120,59293,2,0,B|256:211|256:211|210:287,2,180,8|0|0,0:0|0:0|0:0,0:0:0:0:
216,60,60365,1,0,0:0:0:0:
144,44,60579,1,0,0:0:0:0:
76,68,60793,1,0,0:0:0:0:
40,128,61008,2,0,B|32:176|32:176|40:220,1,90,8|0,0:0|0:0,0:0:0:0:
108,236,61436,2,0,B|115:276|115:276|107:324,1,90
175,344,61865,5,2,0:0:0:0:
220,288,62079,1,0,0:0:0:0:
292,288,62293,1,0,0:0:0:0:
337,344,62508,2,0,B|428:344,1,90,0|8,0:0|0:0,0:0:0:0:
292,288,63151,2,0,B|292:198,1,90
256,136,63579,5,0,0:0:0:0:
220,198,63793,2,0,B|220:288,1,90
175,344,64222,1,0,0:0:0:0:
175,344,64436,2,8,B|85:344,1,90,8|0,0:0|0:0,0:0:0:0:
36,292,64865,1,0,0:0:0:0:
28,220,65079,1,0,0:0:0:0:
56,156,65293,5,2,0:0:0:0:
128,160,65508,2,0,B|180:156|212:124,1,90
456,156,66151,1,8,0:0:0:0:
384,160,66366,2,0,B|332:156|300:124,1,90
256,72,66793,1,0,0:0:0:0:
210,126,67008,6,0,B|166:260|310:366|431:283,1,360,0|8,0:0|0:0,0:0:0:0:
480,236,68079,1,0,0:0:0:0:
492,164,68293,1,8,0:0:0:0:
448,108,68508,1,0,0:0:0:0:
376,96,68722,1,4,0:0:0:0:
308,68,82436,6,0,B|445:142|445:331|256:446|66:331|66:142|203:68,1,720
148,20,84365,1,0,0:0:0:0:
76,28,84579,2,0,B|40:56|40:56|24:100,1,90
28,168,85008,1,8,0:0:0:0:
44,240,85222,1,0,0:0:0:0:
96,288,85436,2,0,B|132:316|132:316|148:360,1,90
216,368,85865,6,0,B|352:352|416:216|336:88,1,360,0|8,0:0|0:0,0:0:0:0:
328,28,86936,1,0,0:0:0:0:
184,28,87365,1,0,0:0:0:0:
170,97,87579,2,0,B|96:216|160:352|296:368,1,360,0|8,0:0|0:0,0:0:0:0:
364,357,88651,1,0,0:0:0:0:
412,304,88865,2,0,B|424:256|424:256|456:232,1,90
388,124,89293,6,0,B|363:220|363:220|299:269,2,180,0|0|8,0:0|0:0|0:0,0:0:0:0:
324,92,90365,1,0,0:0:0:0:
256,64,90579,1,0,0:0:0:0:
188,92,90793,1,0,0:0:0:0:
124,124,91008,2,0,B|148:220|148:220|212:269,2,180,0|0|8,0:0|0:0|0:0,0:0:0:0:
188,92,92079,1,0,0:0:0:0:
256,64,92293,2,0,B|256:156,1,90
324,92,92722,5,0,0:0:0:0:
324,92,92936,2,0,B|324:282,2,180
436,184,94222,1,0,0:0:0:0:
428,256,94436,2,0,B|432:308|384:332,1,90
316,340,94865,2,0,B|312:288|360:264,1,90
428,256,95293,1,8,0:0:0:0:
436,184,95508,1,0,0:0:0:0:
412,116,95722,1,0,0:0:0:0:
348,84,95936,1,0,0:0:0:0:
276,80,96151,6,0,B|224:76|224:76|184:136|108:124,2,180,0|0|8,0:0|0:0|0:0,0:0:0:0:
348,84,97222,1,0,0:0:0:0:
380,148,97436,1,0,0:0:0:0:
348,212,97651,1,0,0:0:0:0:
275,215,97865,2,0,B|223:219|223:219|183:159|113:171,2,180,0|0|8,0:0|0:0|0:0,0:0:0:0:
348,212,98936,2,0,B|368:256|416:268,2,90
420,196,99579,6,0,B|380:109|285:85,1,180
144,92,100436,1,8,0:0:0:0:
100,148,100651,2,0,B|44:236,2,90
156,196,101293,2,0,B|236:140|332:180,1,180
256,304,102151,1,8,0:0:0:0:
320,336,102365,1,0,0:0:0:0:
392,344,102579,2,0,B|417:288,2,45
320,336,103008,6,0,B|344:284|344:284|296:232|328:172,1,180
292,108,103651,1,0,0:0:0:0:
220,108,103865,1,8,0:0:0:0:
183,171,104079,2,0,B|199:201|175:227|175:227|187:253,2,90
220,108,104722,2,0,B|205:56|167:28|121:28|79:62,1,180
36,120,105365,1,0,0:0:0:0:
44,192,105579,2,0,B|48:240|48:240|76:284,1,90,8|0,0:0|0:0,0:0:0:0:
144,272,106008,2,0,B|174:309|174:309|222:329,1,90
272,280,106436,6,0,B|291:355|383:378|461:300|428:194|337:171|284:229,1,360,0|8,0:0|0:0,0:0:0:0:
216,205,107508,1,0,0:0:0:0:
147,182,107722,1,0,0:0:0:0:
201,134,107936,1,0,0:0:0:0:
132,112,108151,2,0,B|52:144|52:144|16:232,2,180,0|0|8,0:0|0:0|0:0,0:0:0:0:
201,134,109222,1,0,0:0:0:0:
272,112,109436,2,0,B|320:88,2,45
201,134,109865,6,0,B|177:203|224:264,1,135
312,320,110508,1,0,0:0:0:0:
384,324,110722,1,8,0:0:0:0:
448,292,110936,1,0,0:0:0:0:
476,224,111151,1,0,0:0:0:0:
464,152,111365,1,0,0:0:0:0:
416,100,111579,2,0,B|372:100|372:100|320:100|308:44,1,135
256,140,112222,2,0,B|224:180|176:176,1,90,0|8,0:0|0:0,0:0:0:0:
114,141,112651,2,0,B|146:101|194:105,1,90
256,140,113079,1,0,0:0:0:0:
296,200,113293,6,0,B|332:264|412:258,1,135
392,152,113936,2,0,B|412:108|408:64,2,90,0|8|0,0:0|0:0|0:0,0:0:0:0:
264,88,114793,1,0,0:0:0:0:
192,104,115008,2,0,B|172:144|172:144|116:148|100:208,1,135
88,304,115651,1,0,0:0:0:0:
152,340,115865,1,8,0:0:0:0:
224,348,116079,1,0,0:0:0:0:
292,324,116293,2,0,B|312:364,2,45
348,280,116722,6,0,B|348:200|416:164,1,135
300,176,117365,1,0,0:0:0:0:
228,180,117579,1,8,0:0:0:0:
168,144,117793,2,0,B|140:104|92:104,2,90
228,180,118436,2,0,B|200:264|200:264|212:312,1,135
308,356,119079,1,0,0:0:0:0:
376,336,119293,2,0,B|424:312|436:264,1,90,8|0,0:0|0:0,0:0:0:0:
368,236,119722,2,0,B|380:183|351:143,1,90
285,177,120151,6,0,B|239:116|170:111,1,135
72,148,120793,1,0,0:0:0:0:
24,204,121008,1,8,0:0:0:0:
96,220,121222,2,0,B|119:313|205:355,1,180
256,304,121865,2,0,L|256:168,2,135
306,355,122722,2,0,B|356:352|356:352|392:328,1,90,8|0,0:0|0:0,0:0:0:0:
420,264,123151,1,0,0:0:0:0:
344,144,123579,6,0,B|356:100|356:100|408:104|436:64,2,135
328,216,124436,1,8,0:0:0:0:
292,280,124651,1,0,0:0:0:0:
220,280,124865,1,0,0:0:0:0:
184,216,125080,1,0,0:0:0:0:
168,144,125293,2,0,B|156:100|156:100|104:104|76:64,2,135
184,216,126151,2,0,B|132:220|112:272,2,90,8|0|0,0:0|0:0|0:0,0:0:0:0:
256,232,126793,1,0,0:0:0:0:
328,216,127008,5,0,0:0:0:0:
322,108,127329,2,0,B|256:83|190:108,1,135
128,144,127865,2,0,B|84:168|68:208,2,90,8|0|0,0:0|0:0|0:0,0:0:0:0:
189,108,128508,1,0,0:0:0:0:
260,96,128722,2,0,B|246:164|280:225,1,135
180,192,129365,1,0,0:0:0:0:
78,157,129579,2,8,B|113:219|100:288,1,135,8|0,0:0|0:0,0:0:0:0:
192,344,130222,1,0,0:0:0:0:
256,308,130436,5,0,0:0:0:0:
388,248,130865,1,0,0:0:0:0:
388,104,131293,1,8,0:0:0:0:
256,160,131722,1,0,0:0:0:0:
124,104,132151,1,0,0:0:0:0:
124,248,132579,1,0,0:0:0:0:
256,308,133008,1,8,0:0:0:0:
256,160,133436,1,0,0:0:0:0:
388,104,133865,6,0,B|440:112|460:156,2,90
348,164,134508,1,0,0:0:0:0:
312,228,134722,2,0,B|304:280|260:300,2,90,8|0|0,0:0|0:0|0:0,0:0:0:0:
252,188,135365,1,0,0:0:0:0:
188,152,135579,2,0,B|161:148|152:125,4,45
228,92,136222,1,0,0:0:0:0:
276,40,136436,6,0,B|376:16|448:88,1,180,8|0,0:0|0:0,0:0:0:0:
476,148,137079,1,0,0:0:0:0:
484,220,137293,5,4,0:0:0:0:
456,288,137508,2,0,B|428:328|428:328|384:344,1,90
332,300,137936,1,0,0:0:0:0:
274,257,138151,2,0,B|235:271|235:271|207:311,2,90,8|0|0,0:0|0:0|0:0,0:0:0:0:
332,300,138793,1,0,0:0:0:0:
389,342,139008,5,0,0:0:0:0:
400,272,139222,2,0,B|428:228|412:184,1,90
388,120,139651,1,0,0:0:0:0:
328,80,139865,2,0,B|320:32,2,45,8|0|0,0:0|0:0|0:0,0:0:0:0:
292,140,140293,1,0,0:0:0:0:
236,188,140508,1,0,0:0:0:0:
180,236,140722,6,0,B|132:256|96:224,2,90,2|0|0,0:0|0:0|0:0,0:0:0:0:
256,360,141579,1,8,0:0:0:0:
328,344,141793,1,0,0:0:0:0:
380,296,142008,1,0,0:0:0:0:
400,228,142222,1,0,0:0:0:0:
380,160,142436,2,0,B|360:116|360:116|324:88,1,90
256,72,142865,1,0,0:0:0:0:
184,90,143079,2,0,B|152:116|152:116|132:160,1,90,0|8,0:0|0:0,0:0:0:0:
112,228,143507,1,0,0:0:0:0:
132,296,143721,1,0,0:0:0:0:
184,344,143936,1,0,0:0:0:0:
256,360,144150,5,2,0:0:0:0:
328,348,144365,1,0,0:0:0:0:
388,308,144579,2,0,B|444:232,1,90
456,164,145008,1,8,0:0:0:0:
356,60,145436,1,0,0:0:0:0:
256,164,145865,1,0,0:0:0:0:
204,216,146079,2,0,B|172:248|176:300,1,90
336,298,146722,2,0,B|340:248|308:216,1,90,8|0,0:0|0:0,0:0:0:0:
256,164,147151,1,0,0:0:0:0:
192,128,147365,1,0,0:0:0:0:
120,124,147579,5,2,0:0:0:0:
72,176,147793,2,0,B|76:200|76:200|52:224|60:264,1,90
132,248,148222,2,0,B|128:272|128:272|152:296|144:336,1,90,0|8,0:0|0:0,0:0:0:0:
208,364,148651,1,0,0:0:0:0:
220,292,148865,1,0,0:0:0:0:
292,292,149079,1,0,0:0:0:0:
304,364,149293,5,0,0:0:0:0:
444,332,149722,2,0,B|488:248,1,90
416,236,150151,2,0,B|395:143,1,90,8|0,0:0|0:0,0:0:0:0:
332,180,150579,2,0,B|256:122,1,90
192,148,151008,5,2,0:0:0:0:
180,220,151222,2,0,B|251:274,1,90
368,188,151865,2,0,P|276:162|244:87,1,180,8|0,0:0|0:0,0:0:0:0:
300,44,152508,1,0,0:0:0:0:
368,68,152722,2,0,B|460:68,1,90
440,140,153151,2,0,B|440:232,1,90
416,296,153579,2,0,B|452:332,2,45,8|0|0,0:0|0:0|0:0,0:0:0:0:
356,336,154008,1,0,0:0:0:0:
284,344,154222,1,0,0:0:0:0:
220,312,154436,5,2,0:0:0:0:
160,272,154651,2,0,B|120:248|120:248|120:200,1,90
180,72,155293,1,8,0:0:0:0:
196,144,155508,1,0,0:0:0:0:
256,184,155722,1,0,0:0:0:0:
316,144,155936,1,0,0:0:0:0:
332,72,156151,1,0,0:0:0:0:
392,204,156579,2,0,B|392:248|392:248|352:272,1,90
292,312,157008,1,8,0:0:0:0:
220,296,157222,1,0,0:0:0:0:
200,228,157436,1,0,0:0:0:0:
128,212,157650,1,0,0:0:0:0:
108,144,157865,5,2,0:0:0:0:
36,128,158079,2,0,B|12:84|36:40,2,90
36,200,158722,2,0,B|12:244|36:288,2,90,8|0|0,0:0|0:0|0:0,0:0:0:0:
96,244,159365,1,0,0:0:0:0:
157,286,159579,2,0,B|180:244|156:200,1,90
228,184,160008,2,0,B|204:140|226:97,1,90
280,52,160436,1,8,0:0:0:0:
352,44,160651,1,0,0:0:0:0:
412,84,160865,1,0,0:0:0:0:
432,152,161079,1,0,0:0:0:0:
392,212,161293,6,0,B|328:296|220:264,1,180,2|0,0:0|0:0,0:0:0:0:
140,156,162151,2,0,B|180:68,2,90,8|0|0,0:0|0:0|0:0,0:0:0:0:
164,224,162793,1,0,0:0:0:0:
188,292,163008,2,0,B|148:380,1,90,0|0,0:0|0:0,0:0:0:0:
80,368,163436,1,0,0:0:0:0:
68,236,163865,5,8,0:0:0:0:
104,176,164079,1,0,0:0:0:0:
176,176,164293,1,0,0:0:0:0:
212,116,164507,1,0,0:0:0:0:
284,116,164722,1,4,0:0:0:0:
