osu file format v12

[General]
AudioFilename: PEWDIEPIE Song - Dj Fortify.mp3
AudioLeadIn: 0
PreviewTime: 136436
Countdown: 0
SampleSet: Normal
StackLeniency: 0.7
Mode: 0
LetterboxInBreaks: 1

[Editor]
DistanceSpacing: 0.8
BeatDivisor: 4
GridSize: 4

[Metadata]
Title:PewDiePie Song
TitleUnicode:PewDiePie Song
Artist:Dj Fortify
ArtistUnicode:Dj Fortify
Creator:GamerX4life
Version:Easy
Source:
Tags:LP Lets Plays YouTube Brostep Dubstep Intro Deni
BeatmapID:180245
BeatmapSetID:60182

[Difficulty]
HPDrainRate:1
CircleSize:3
OverallDifficulty:1
ApproachRate:2
SliderMultiplier:0.7
SliderTickRate:1

[Events]
//Background and Video events
0,0,"pewdiepiewBG.jpg",0,0
//Break Periods
2,68922,80876
//Storyboard Layer 0 (Background)
//Storyboard Layer 1 (Fail)
//Storyboard Layer 2 (Pass)
//Storyboard Layer 3 (Foreground)
//Storyboard Sound Samples
//Background Colour Transformations
3,100,163,162,255

[TimingPoints]
151,428.571428571429,4,1,0,40,1,0
12151,-100,4,1,0,5,0,0
13865,-100,4,1,0,40,0,0
40865,-100,4,1,0,5,0,0
41293,-100,4,1,0,40,0,1
68722,-100,4,1,0,40,0,0
82436,-100,4,1,0,40,0,0
136543,-100,4,1,0,5,0,0
137293,-100,4,1,0,40,0,1
164722,-100,4,1,0,40,0,0

[Colours]
Combo1 : 225,4,4
Combo2 : 240,240,0
Combo3 : 0,183,0

[HitObjects]
256,192,12151,12,4,13865,0:0:0:0:
160,104,14722,5,8,0:0:0:0:
92,192,15579,1,0,0:0:0:0:
176,264,16436,2,0,B|228:312,1,70,8|0,0:0|0:0,0:0:0:0:
272,348,17293,5,0,0:0:0:0:
380,319,18151,1,8,0:0:0:0:
423,215,19008,1,0,0:0:0:0:
379,111,19865,2,0,B|343:95|307:111,1,70,8|0,0:0|0:0,0:0:0:0:
255,116,20722,5,0,0:0:0:0:
176,156,21365,2,0,B|136:156,1,35,0|8,0:0|0:0,0:0:0:0:
112,236,22222,2,0,B|152:236,1,35
256,264,23293,1,8,0:0:0:0:
308,248,23722,1,0,0:0:0:0:
352,212,24151,6,0,B|400:180|408:128,1,105
412,100,25008,1,8,0:0:0:0:
304,68,25865,2,0,B|256:100|248:152,1,105
244,180,26722,2,0,B|232:216|252:252,1,70,8|0,0:0|0:0,0:0:0:0:
284,292,27579,5,0,0:0:0:0:
356,332,28222,2,0,B|392:320,1,35,0|8,0:0|0:0,0:0:0:0:
384,208,29293,2,0,B|250:252,1,140,0|8,0:0|0:0,0:0:0:0:
200,272,30579,1,0,0:0:0:0:
179,221,31008,6,0,B|172:176|172:176|120:164|116:100,2,140,0|8|0,0:0|0:0|0:0,0:0:0:0:
256,140,33579,1,8,0:0:0:0:
333,221,34436,6,0,B|340:176|340:176|392:164|396:100,1,140,0|8,0:0|0:0,0:0:0:0:
372,56,35722,1,0,0:0:0:0:
320,40,36151,2,0,B|244:12|184:56,1,140,0|8,0:0|0:0,0:0:0:0:
144,92,37436,1,0,0:0:0:0:
120,144,37865,6,0,B|100:175|113:213,3,70,0|0|8|0,0:0|0:0|0:0|0:0,0:0:0:0:
152,252,39579,2,0,B|171:283|158:321,2,70,0|0|8,0:0|0:0|0:0,0:0:0:0:
112,211,40865,1,0,0:0:0:0:
152,172,41293,6,0,B|204:112|280:140,1,140,4|8,0:0|0:0,0:0:0:0:
332,160,42579,1,0,0:0:0:0:
376,192,43008,2,0,B|408:214|413:252,2,70,0|0|8,0:0|0:0|0:0,0:0:0:0:
296,272,44722,6,0,B|263:249|258:211,2,70,2|0|8,0:0|0:0|0:0,0:0:0:0:
208,344,46436,2,0,B|160:332|160:332|160:280|116:256,1,140,0|8,0:0|0:0,0:0:0:0:
68,236,47722,1,0,0:0:0:0:
52,184,48151,5,2,0:0:0:0:
124,100,49008,2,0,B|192:72,1,70,8|0,0:0|0:0,0:0:0:0:
220,120,49865,2,0,B|293:123,1,70
301,178,50722,1,8,0:0:0:0:
224,260,51579,5,2,0:0:0:0:
192,152,52436,1,8,0:0:0:0:
150,189,52865,1,0,0:0:0:0:
107,152,53293,2,0,B|59:164|59:164|59:216|15:240,1,140,0|8,0:0|0:0,0:0:0:0:
20,244,54579,1,0,0:0:0:0:
52,288,55008,5,2,0:0:0:0:
148,348,55865,1,8,0:0:0:0:
244,292,56722,2,0,B|284:272|292:240,1,70
320,196,57579,2,0,B|347:160|340:128,1,70,8|0,0:0|0:0,0:0:0:0:
340,76,58436,5,2,0:0:0:0:
256,152,59293,1,8,0:0:0:0:
172,76,60151,1,0,0:0:0:0:
80,140,61008,2,0,B|72:172|72:172|76:208,1,70,8|0,0:0|0:0,0:0:0:0:
104,256,61865,5,2,0:0:0:0:
204,308,62722,1,8,0:0:0:0:
256,328,63151,1,0,0:0:0:0:
308,308,63579,1,0,0:0:0:0:
408,256,64436,2,0,B|416:216|448:200,1,70,8|0,0:0|0:0,0:0:0:0:
496,176,65293,5,2,0:0:0:0:
452,72,66151,2,0,B|444:112|412:128,1,70,8|0,0:0|0:0,0:0:0:0:
364,152,67008,1,0,0:0:0:0:
256,128,67865,1,8,0:0:0:0:
148,152,68722,5,4,0:0:0:0:
140,145,82436,6,0,B|163:99|209:76|256:68|302:76|348:99|371:145,1,280
404,192,84579,1,0,0:0:0:0:
416,248,85008,1,8,0:0:0:0:
324,312,85865,6,0,B|227:247|195:312|163:376|67:312,1,280
44,204,88436,1,8,0:0:0:0:
68,152,88865,1,0,0:0:0:0:
116,124,89293,6,0,B|215:124|260:34|260:34|359:34|359:34,1,280
464,76,91865,1,8,0:0:0:0:
364,124,92722,6,0,B|264:124|264:124|219:34|120:34,1,280
68,52,94865,1,0,0:0:0:0:
28,92,95293,1,8,0:0:0:0:
16,148,95722,1,0,0:0:0:0:
12,204,96151,6,0,B|44:268|44:268|104:300,1,140,0|8,0:0|0:0,0:0:0:0:
112,188,97865,2,0,B|172:220|172:220|204:284,1,140,0|8,0:0|0:0,0:0:0:0:
256,304,99151,1,0,0:0:0:0:
308,284,99579,6,0,B|340:220|340:220|400:188,1,140,0|8,0:0|0:0,0:0:0:0:
408,300,101293,2,0,B|468:268|468:268|500:204,1,140,0|8,0:0|0:0,0:0:0:0:
504,148,102579,1,0,0:0:0:0:
472,104,103008,6,0,B|424:44|344:56,1,140,0|8,0:0|0:0,0:0:0:0:
252,112,104722,2,0,B|300:172|380:160,1,140,0|8,0:0|0:0,0:0:0:0:
432,172,106008,1,0,0:0:0:0:
456,220,106436,6,0,B|482:292|431:354,1,140,0|8,0:0|0:0,0:0:0:0:
380,372,107722,1,0,0:0:0:0:
328,348,108151,2,0,B|268:298|196:325,1,140,0|8,0:0|0:0,0:0:0:0:
144,308,109436,2,0,B|104:296,2,35,0|0|4,0:0|0:0|0:0,0:0:0:0:
100,204,110722,5,8,0:0:0:0:
200,156,111579,1,0,0:0:0:0:
256,92,112222,2,0,B|256:48,1,35,0|8,0:0|0:0,0:0:0:0:
312,156,113293,6,0,B|392:168|412:240,1,140,0|8,0:0|0:0,0:0:0:0:
336,324,115008,2,0,B|256:312|236:240,1,140,0|8,0:0|0:0,0:0:0:0:
228,184,116293,1,0,0:0:0:0:
240,128,116722,5,0,0:0:0:0:
180,68,117365,2,0,B|136:68,1,35,0|8,0:0|0:0,0:0:0:0:
116,148,118222,2,0,B|160:148,1,35
252,200,119293,1,8,0:0:0:0:
308,216,119722,1,0,0:0:0:0:
360,200,120151,6,0,B|388:164|388:164|448:164|464:104,1,140,0|8,0:0|0:0,0:0:0:0:
356,80,121865,2,0,B|328:116|328:116|268:116|252:176,1,140,0|8,0:0|0:0,0:0:0:0:
232,216,123151,1,0,0:0:0:0:
216,268,123579,6,0,B|200:324|144:336,1,105
116,336,124436,1,8,0:0:0:0:
32,264,125293,2,0,B|48:208|104:196,1,105
132,192,126151,2,0,B|188:180|204:124,1,105,8|0,0:0|0:0,0:0:0:0:
216,96,127008,5,0,0:0:0:0:
288,140,127651,2,0,B|288:180,1,35,0|8,0:0|0:0,0:0:0:0:
180,196,128722,5,0,0:0:0:0:
104,112,129579,1,8,0:0:0:0:
56,140,130008,1,0,0:0:0:0:
36,192,130436,6,0,B|16:268|72:324,1,140,0|8,0:0|0:0,0:0:0:0:
112,356,131722,1,0,0:0:0:0:
168,360,132151,2,0,B|235:353|235:353|303:322,1,140,0|8,0:0|0:0,0:0:0:0:
348,296,133436,1,0,0:0:0:0:
376,248,133865,6,0,B|392:216|392:216|400:180,3,70,0|0|8|0,0:0|0:0|0:0|0:0,0:0:0:0:
352,152,135579,2,0,B|359:118|359:118|375:86,2,70,0|0|8,0:0|0:0|0:0,0:0:0:0:
399,182,136865,5,0,0:0:0:0:
383,235,137293,6,0,B|344:292|260:292,1,140,4|8,0:0|0:0,0:0:0:0:
208,284,138579,1,0,0:0:0:0:
160,256,139008,2,0,B|121:243|108:208,1,70
92,156,139865,1,8,0:0:0:0:
168,76,140722,6,0,B|192:44|232:44,1,70,2|0,0:0|0:0,0:0:0:0:
268,84,141579,2,0,B|306:74|337:100,1,70,8|0,0:0|0:0,0:0:0:0:
339,154,142436,2,0,B|374:172|381:211,2,70,0|0|8,0:0|0:0|0:0,0:0:0:0:
236,108,144151,5,2,0:0:0:0:
128,132,145008,2,0,B|100:160|100:160|84:192,1,70,8|0,0:0|0:0,0:0:0:0:
76,244,145865,1,0,0:0:0:0:
140,336,146722,2,0,B|168:308|168:308|184:276,1,70,8|0,0:0|0:0,0:0:0:0:
192,224,147579,5,2,0:0:0:0:
256,132,148436,1,8,0:0:0:0:
320,224,149293,2,0,B|352:240|352:240|352:292|408:324,1,140,0|8,0:0|0:0,0:0:0:0:
460,332,150579,1,0,0:0:0:0:
496,288,151008,5,2,0:0:0:0:
496,176,151865,2,0,B|460:108|460:108|400:88,1,140,8|0,0:0|0:0,0:0:0:0:
348,68,153151,1,0,0:0:0:0:
295,47,153579,2,0,B|256:32|224:52,1,70,8|0,0:0|0:0,0:0:0:0:
176,68,154436,5,2,0:0:0:0:
92,144,155293,1,8,0:0:0:0:
52,184,155722,1,0,0:0:0:0:
56,240,156151,2,0,B|72:312|148:336,2,140,0|8|2,0:0|0:0|0:0,0:0:0:0:
52,184,158293,5,0,0:0:0:0:
92,144,158722,1,8,0:0:0:0:
196,104,159579,2,0,B|264:80,2,70,0|0|8,0:0|0:0|0:0,0:0:0:0:
264,192,161293,6,0,B|196:216,1,70,2|0,0:0|0:0,0:0:0:0:
148,244,162151,1,8,0:0:0:0:
108,284,162579,1,0,0:0:0:0:
92,340,163008,2,0,B|56:352|56:352|24:340,2,70,0|0|8,0:0|0:0|0:0,0:0:0:0:
108,284,164293,1,0,0:0:0:0:
148,244,164722,1,4,0:0:0:0:
