osu file format v14

[General]
AudioFilename: Kirby Gourmet Race - Ephixa DNB Remix.mp3
AudioLeadIn: 0
PreviewTime: 14368
Countdown: 0
SampleSet: Soft
StackLeniency: 0.7
Mode: 3
LetterboxInBreaks: 0
SpecialStyle: 0
WidescreenStoryboard: 1

[Editor]
DistanceSpacing: 1.3
BeatDivisor: 8
GridSize: 4
TimelineZoom: 2

[Metadata]
Title:Kirby Gourmet Race DnB Remix ( Short Ver. )
TitleUnicode:Kirby Gourmet Race DnB Remix ( Short Ver. )
Artist:Dj Ephixa
ArtistUnicode:Dj Ephixa
Creator:Jepetski
Version:Hard
Source:
Tags:dnb kirby drum and bass
BeatmapID:650679
BeatmapSetID:288526

[Difficulty]
HPDrainRate:8
CircleSize:4
OverallDifficulty:8
ApproachRate:5
SliderMultiplier:1.4
SliderTickRate:1

[Events]
//Background and Video events
0,0,"chef_ephixohard.jpg",0,0
//Break Periods
//Storyboard Layer 0 (Background)
//Storyboard Layer 1 (Fail)
//Storyboard Layer 2 (Pass)
//Storyboard Layer 3 (Foreground)
//Storyboard Sound Samples

[TimingPoints]
250,352.941176470588,4,2,1,40,1,0
14367,-100,4,2,1,40,0,1
25661,-100,4,2,1,40,0,0

[HitObjects]
448,192,250,5,0,0:0:0:0:
320,192,338,1,0,0:0:0:0:
448,192,426,1,0,0:0:0:0:
320,192,514,1,0,0:0:0:0:
192,192,602,1,0,0:0:0:0:
320,192,691,1,0,0:0:0:0:
192,192,779,1,0,0:0:0:0:
320,192,867,1,0,0:0:0:0:
64,192,955,1,0,0:0:0:0:
448,192,1044,1,0,0:0:0:0:
64,192,1132,1,0,0:0:0:0:
448,192,1220,1,0,0:0:0:0:
192,192,1308,1,0,0:0:0:0:
64,192,1397,1,0,0:0:0:0:
320,192,1485,1,0,0:0:0:0:
192,192,1573,1,0,0:0:0:0:
320,192,1661,1,0,0:0:0:0:
448,192,1749,1,0,0:0:0:0:
320,192,1838,1,0,0:0:0:0:
448,192,1926,1,0,0:0:0:0:
320,192,2014,1,0,0:0:0:0:
192,192,2102,1,0,0:0:0:0:
320,192,2191,1,0,0:0:0:0:
192,192,2279,1,0,0:0:0:0:
448,192,2367,128,0,2544:0:0:0:0:
64,192,2367,1,0,0:0:0:0:
192,192,2455,1,0,0:0:0:0:
320,192,2544,1,0,0:0:0:0:
192,192,2632,1,0,0:0:0:0:
64,192,2720,1,0,0:0:0:0:
320,192,2720,1,0,0:0:0:0:
448,192,3073,128,0,3602:0:0:0:0:
320,192,3073,1,0,0:0:0:0:
192,192,3249,1,0,0:0:0:0:
64,192,3426,1,0,0:0:0:0:
320,192,3426,1,0,0:0:0:0:
320,192,3779,128,0,4308:0:0:0:0:
192,192,3955,1,0,0:0:0:0:
64,192,4132,1,0,0:0:0:0:
448,192,4132,1,0,0:0:0:0:
192,192,4485,128,0,4749:0:0:0:0:
320,192,4485,1,0,0:0:0:0:
320,192,4838,128,0,5102:0:0:0:0:
64,192,4838,1,0,0:0:0:0:
448,192,4838,1,0,0:0:0:0:
192,192,5191,128,0,5720:0:0:0:0:
320,192,5367,1,0,0:0:0:0:
448,192,5544,1,0,0:0:0:0:
64,192,5544,1,0,0:0:0:0:
64,192,5897,128,0,6161:0:0:0:0:
192,192,5897,1,0,0:0:0:0:
320,192,6073,1,0,0:0:0:0:
192,192,6249,128,0,6514:0:0:0:0:
448,192,6249,1,0,0:0:0:0:
448,192,6602,128,0,6867:0:0:0:0:
192,192,6779,1,0,0:0:0:0:
320,192,6955,128,0,7220:0:0:0:0:
64,192,6955,1,0,0:0:0:0:
64,192,7308,128,0,7573:0:0:0:0:
192,192,7308,1,0,0:0:0:0:
192,192,7661,128,0,7926:0:0:0:0:
448,192,7661,1,0,0:0:0:0:
64,192,8014,128,0,8544:0:0:0:0:
320,192,8191,1,0,0:0:0:0:
192,192,8367,1,0,0:0:0:0:
448,192,8367,1,0,0:0:0:0:
448,192,8720,128,0,9249:0:0:0:0:
320,192,8720,1,0,0:0:0:0:
192,192,8897,1,0,0:0:0:0:
320,192,9073,1,0,0:0:0:0:
64,192,9073,1,0,0:0:0:0:
320,192,9426,128,0,9955:0:0:0:0:
192,192,9602,1,0,0:0:0:0:
64,192,9779,1,0,0:0:0:0:
448,192,9779,1,0,0:0:0:0:
64,192,10132,128,0,10397:0:0:0:0:
192,192,10132,1,0,0:0:0:0:
192,192,10485,128,0,10749:0:0:0:0:
448,192,10485,1,0,0:0:0:0:
320,192,10485,1,0,0:0:0:0:
64,192,10838,128,0,11102:0:0:0:0:
320,192,11014,1,0,0:0:0:0:
192,192,11191,128,0,11279:0:0:0:0:
448,192,11191,1,0,0:0:0:0:
320,192,11367,128,0,11455:0:0:0:0:
448,192,11544,128,0,11808:0:0:0:0:
192,192,11720,1,0,0:0:0:0:
320,192,11897,128,0,12161:0:0:0:0:
64,192,11897,1,0,0:0:0:0:
192,192,12249,128,0,12514:0:0:0:0:
320,192,12426,1,0,0:0:0:0:
64,192,12602,128,0,12867:0:0:0:0:
448,192,12602,1,0,0:0:0:0:
320,192,12955,128,0,13220:0:0:0:0:
192,192,12955,1,0,0:0:0:0:
192,192,13308,128,0,13573:0:0:0:0:
448,192,13308,1,0,0:0:0:0:
320,192,13661,128,0,14191:0:0:0:0:
192,192,13838,1,0,0:0:0:0:
64,192,14014,1,0,0:0:0:0:
448,192,14014,1,0,0:0:0:0:
448,192,14367,128,0,14897:0:0:0:0:
192,192,14367,128,0,14897:0:0:0:0:
64,192,14367,1,0,0:0:0:0:
320,192,14544,1,0,0:0:0:0:
320,192,14720,1,0,0:0:0:0:
64,192,14720,1,0,0:0:0:0:
320,192,15073,128,0,15602:0:0:0:0:
64,192,15073,128,0,15602:0:0:0:0:
192,192,15249,1,0,0:0:0:0:
192,192,15426,1,0,0:0:0:0:
448,192,15426,1,0,0:0:0:0:
448,192,15779,128,0,16044:0:0:0:0:
320,192,15779,128,0,16044:0:0:0:0:
192,192,15779,1,0,0:0:0:0:
320,192,16132,128,0,16397:0:0:0:0:
192,192,16132,128,0,16397:0:0:0:0:
64,192,16132,1,0,0:0:0:0:
192,192,16485,128,0,17014:0:0:0:0:
64,192,16485,128,0,17014:0:0:0:0:
448,192,16661,1,0,0:0:0:0:
320,192,16838,1,0,0:0:0:0:
448,192,16838,1,0,0:0:0:0:
320,192,17191,128,0,17455:0:0:0:0:
64,192,17191,128,0,17455:0:0:0:0:
448,192,17191,1,0,0:0:0:0:
192,192,17367,1,0,0:0:0:0:
192,192,17544,128,0,17808:0:0:0:0:
448,192,17544,128,0,17808:0:0:0:0:
64,192,17544,1,0,0:0:0:0:
448,192,17897,128,0,18161:0:0:0:0:
64,192,17897,128,0,18161:0:0:0:0:
320,192,18073,1,0,0:0:0:0:
320,192,18249,128,0,18514:0:0:0:0:
192,192,18249,1,0,0:0:0:0:
192,192,18602,128,0,18867:0:0:0:0:
64,192,18602,1,0,0:0:0:0:
448,192,18602,128,0,18867:0:0:0:0:
320,192,18955,128,0,19220:0:0:0:0:
64,192,18955,128,0,19220:0:0:0:0:
448,192,18955,1,0,0:0:0:0:
64,192,19308,128,0,19838:0:0:0:0:
192,192,19308,128,0,19838:0:0:0:0:
320,192,19485,1,0,0:0:0:0:
320,192,19661,1,0,0:0:0:0:
448,192,19661,1,0,0:0:0:0:
448,192,20014,128,0,20544:0:0:0:0:
64,192,20014,128,0,20544:0:0:0:0:
192,192,20014,1,0,0:0:0:0:
320,192,20191,1,0,0:0:0:0:
320,192,20367,1,0,0:0:0:0:
192,192,20367,1,0,0:0:0:0:
192,192,20720,128,0,21249:0:0:0:0:
448,192,20720,128,0,21249:0:0:0:0:
320,192,20897,1,0,0:0:0:0:
320,192,21073,1,0,0:0:0:0:
64,192,21073,1,0,0:0:0:0:
64,192,21426,128,0,21691:0:0:0:0:
192,192,21426,128,0,21691:0:0:0:0:
320,192,21426,1,0,0:0:0:0:
192,192,21779,128,0,22044:0:0:0:0:
320,192,21779,128,0,22044:0:0:0:0:
448,192,21779,1,0,0:0:0:0:
448,192,22132,128,0,22397:0:0:0:0:
64,192,22132,128,0,22397:0:0:0:0:
320,192,22308,1,0,0:0:0:0:
448,192,22485,128,0,22749:0:0:0:0:
192,192,22485,128,0,22749:0:0:0:0:
64,192,22485,1,0,0:0:0:0:
320,192,22838,128,0,23102:0:0:0:0:
192,192,23014,1,0,0:0:0:0:
192,192,23191,128,0,23455:0:0:0:0:
448,192,23191,1,0,0:0:0:0:
64,192,23191,1,0,0:0:0:0:
64,192,23544,128,0,23808:0:0:0:0:
320,192,23544,1,0,0:0:0:0:
192,192,23720,1,0,0:0:0:0:
448,192,23720,1,0,0:0:0:0:
448,192,23897,128,0,24161:0:0:0:0:
320,192,24073,1,0,0:0:0:0:
64,192,24249,128,0,24955:0:0:0:0:
320,192,24249,128,0,24955:0:0:0:0:
192,192,24249,1,0,0:0:0:0:
448,192,24602,1,0,0:0:0:0:
192,192,24779,1,0,0:0:0:0:
448,192,24779,1,0,0:0:0:0:
448,192,25044,1,0,0:0:0:0:
320,192,25088,1,0,0:0:0:0:
192,192,25132,1,0,0:0:0:0:
64,192,25176,1,0,0:0:0:0:
448,192,25220,1,0,0:0:0:0:
320,192,25264,1,0,0:0:0:0:
192,192,25308,1,0,0:0:0:0:
64,192,25352,1,0,0:0:0:0:
448,192,25397,1,0,0:0:0:0:
320,192,25441,1,0,0:0:0:0:
64,192,25485,1,0,0:0:0:0:
192,192,25529,128,0,25573:0:0:0:0:
64,192,25661,1,0,0:0:0:0:
320,192,25661,1,0,0:0:0:0:
320,192,25838,1,0,0:0:0:0:
192,192,25838,1,0,0:0:0:0:
448,192,26014,1,0,0:0:0:0:
192,192,26014,1,0,0:0:0:0:
320,192,26544,1,0,0:0:0:0:
192,192,26544,1,0,0:0:0:0:
64,192,26720,1,0,0:0:0:0:
320,192,26720,1,0,0:0:0:0:
192,192,27073,1,0,0:0:0:0:
320,192,27073,1,0,0:0:0:0:
192,192,27426,1,0,0:0:0:0:
448,192,27426,1,0,0:0:0:0:
192,192,27955,1,0,0:0:0:0:
320,192,27955,1,0,0:0:0:0:
64,192,28132,1,0,0:0:0:0:
320,192,28132,1,0,0:0:0:0:
64,192,28485,1,0,0:0:0:0:
192,192,28485,1,0,0:0:0:0:
192,192,28661,1,0,0:0:0:0:
320,192,28661,1,0,0:0:0:0:
448,192,28838,1,0,0:0:0:0:
192,192,28838,1,0,0:0:0:0:
320,192,29367,1,0,0:0:0:0:
192,192,29367,1,0,0:0:0:0:
64,192,29544,1,0,0:0:0:0:
320,192,29544,1,0,0:0:0:0:
192,192,29897,1,0,0:0:0:0:
320,192,29897,1,0,0:0:0:0:
192,192,30249,1,0,0:0:0:0:
448,192,30249,1,0,0:0:0:0:
192,192,30779,1,0,0:0:0:0:
320,192,30779,1,0,0:0:0:0:
64,192,30955,1,0,0:0:0:0:
320,192,30955,1,0,0:0:0:0:
448,192,31308,128,0,31749:0:0:0:0:
192,192,31308,128,0,31749:0:0:0:0:
320,192,31308,1,0,0:0:0:0:
64,192,31485,1,0,0:0:0:0:
64,192,31661,1,0,0:0:0:0:
320,192,31661,1,0,0:0:0:0:
320,192,31838,128,0,31926:0:0:0:0:
64,192,32014,128,0,32632:0:0:0:0:
448,192,32014,128,0,32367:0:0:0:0:
320,192,32191,1,0,0:0:0:0:
192,192,32367,128,0,32632:0:0:0:0:
320,192,32367,1,0,0:0:0:0:
320,192,32720,128,0,32897:0:0:0:0:
448,192,32720,128,0,32897:0:0:0:0:
192,192,32720,1,0,0:0:0:0:
64,192,33073,128,0,33249:0:0:0:0:
192,192,33073,128,0,33249:0:0:0:0:
448,192,33073,1,0,0:0:0:0:
448,192,33426,128,0,33955:0:0:0:0:
192,192,33426,128,0,33955:0:0:0:0:
320,192,33602,1,0,0:0:0:0:
64,192,33779,1,0,0:0:0:0:
320,192,33779,1,0,0:0:0:0:
320,192,34132,128,0,34573:0:0:0:0:
64,192,34132,1,0,0:0:0:0:
192,192,34308,1,0,0:0:0:0:
448,192,34485,1,0,0:0:0:0:
64,192,34485,1,0,0:0:0:0:
192,192,34661,128,0,34749:0:0:0:0:
320,192,34838,128,0,35191:0:0:0:0:
64,192,34838,128,0,35367:0:0:0:0:
192,192,35014,1,0,0:0:0:0:
192,192,35191,1,0,0:0:0:0:
448,192,35191,1,0,0:0:0:0:
320,192,35367,128,0,35455:0:0:0:0:
64,192,35544,128,0,35720:0:0:0:0:
192,192,35544,1,0,0:0:0:0:
192,192,35897,128,0,36073:0:0:0:0:
320,192,35897,128,0,36073:0:0:0:0:
64,192,35897,1,0,0:0:0:0:
448,192,36249,128,0,36602:0:0:0:0:
64,192,36249,128,0,36602:0:0:0:0:
320,192,36426,1,0,0:0:0:0:
320,192,36602,128,0,36955:0:0:0:0:
192,192,36602,128,0,36955:0:0:0:0:
64,192,36955,1,0,0:0:0:0:
320,192,37132,1,0,0:0:0:0:
192,192,37132,1,0,0:0:0:0:
448,192,37308,1,0,0:0:0:0:
192,192,37308,1,0,0:0:0:0:
320,192,37838,1,0,0:0:0:0:
192,192,37838,1,0,0:0:0:0:
64,192,38014,1,0,0:0:0:0:
320,192,38014,1,0,0:0:0:0:
192,192,38367,1,0,0:0:0:0:
320,192,38367,1,0,0:0:0:0:
192,192,38720,1,0,0:0:0:0:
448,192,38720,1,0,0:0:0:0:
192,192,39249,1,0,0:0:0:0:
320,192,39249,1,0,0:0:0:0:
64,192,39426,1,0,0:0:0:0:
320,192,39426,1,0,0:0:0:0:
64,192,39779,1,0,0:0:0:0:
192,192,39779,1,0,0:0:0:0:
320,192,39955,1,0,0:0:0:0:
192,192,39955,1,0,0:0:0:0:
448,192,40132,1,0,0:0:0:0:
192,192,40132,1,0,0:0:0:0:
320,192,40661,1,0,0:0:0:0:
192,192,40661,1,0,0:0:0:0:
64,192,40838,1,0,0:0:0:0:
320,192,40838,1,0,0:0:0:0:
192,192,41191,1,0,0:0:0:0:
320,192,41191,1,0,0:0:0:0:
192,192,41544,1,0,0:0:0:0:
448,192,41544,1,0,0:0:0:0:
192,192,42073,1,0,0:0:0:0:
320,192,42073,1,0,0:0:0:0:
64,192,42249,1,0,0:0:0:0:
320,192,42249,1,0,0:0:0:0:
320,192,42602,128,0,43044:0:0:0:0:
448,192,42602,128,0,43044:0:0:0:0:
192,192,42602,1,0,0:0:0:0:
192,192,42779,1,0,0:0:0:0:
64,192,42955,1,0,0:0:0:0:
192,192,43132,128,0,43220:0:0:0:0:
64,192,43308,128,0,43661:0:0:0:0:
320,192,43485,1,0,0:0:0:0:
192,192,43661,128,0,43838:0:0:0:0:
448,192,43661,1,0,0:0:0:0:
320,192,43838,128,0,44014:0:0:0:0:
192,192,44014,1,0,0:0:0:0:
448,192,44014,128,0,44279:0:0:0:0:
320,192,44367,128,0,44632:0:0:0:0:
192,192,44367,128,0,44632:0:0:0:0:
64,192,44367,1,0,0:0:0:0:
320,192,44720,128,0,44985:0:0:0:0:
64,192,44720,128,0,44985:0:0:0:0:
192,192,44897,1,0,0:0:0:0:
64,192,45073,128,0,45338:0:0:0:0:
192,192,45073,128,0,45338:0:0:0:0:
448,192,45073,1,0,0:0:0:0:
448,192,45426,1,0,0:0:0:0:
320,192,45426,1,0,0:0:0:0:
320,192,45602,1,0,0:0:0:0:
192,192,45602,1,0,0:0:0:0:
64,192,45779,1,0,0:0:0:0:
448,192,45779,1,0,0:0:0:0:
320,192,45955,1,0,0:0:0:0:
192,192,45955,1,0,0:0:0:0:
192,192,46132,1,0,0:0:0:0:
64,192,46132,1,0,0:0:0:0:
192,192,46308,1,0,0:0:0:0:
320,192,46308,1,0,0:0:0:0:
448,192,46485,1,0,0:0:0:0:
64,192,46485,1,0,0:0:0:0:
192,192,46661,1,0,0:0:0:0:
320,192,46661,1,0,0:0:0:0:
320,192,46838,5,0,0:0:0:0:
448,192,46838,1,0,0:0:0:0:
192,192,47014,1,0,0:0:0:0:
64,192,47014,1,0,0:0:0:0:
448,192,47191,5,0,0:0:0:0:
320,192,47191,1,0,0:0:0:0:
192,192,47279,1,0,0:0:0:0:
64,192,47279,1,0,0:0:0:0:
448,192,47367,1,0,0:0:0:0:
320,192,47367,1,0,0:0:0:0:
192,192,47455,1,0,0:0:0:0:
320,192,47544,1,0,0:0:0:0:
64,192,47544,1,0,0:0:0:0:
448,192,47544,1,0,0:0:0:0:
