osu file format v14

[General]
AudioFilename: Kirby Gourmet Race - Ephixa DNB Remix.mp3
AudioLeadIn: 0
PreviewTime: 14368
Countdown: 0
SampleSet: Soft
StackLeniency: 0.7
Mode: 3
LetterboxInBreaks: 0
SpecialStyle: 0
WidescreenStoryboard: 1

[Editor]
DistanceSpacing: 1.3
BeatDivisor: 4
GridSize: 4
TimelineZoom: 2

[Metadata]
Title:Kirby Gourmet Race DnB Remix ( Short Ver. )
TitleUnicode:Kirby Gourmet Race DnB Remix ( Short Ver. )
Artist:Dj Ephixa
ArtistUnicode:Dj Ephixa
Creator:Jepetski
Version:Easy
Source:
Tags:dnb kirby drum and bass
BeatmapID:650677
BeatmapSetID:288526

[Difficulty]
HPDrainRate:7
CircleSize:4
OverallDifficulty:7
ApproachRate:5
SliderMultiplier:1.4
SliderTickRate:1

[Events]
//Background and Video events
0,0,"chef_ephixo.jpg",0,0
//Break Periods
//Storyboard Layer 0 (Background)
//Storyboard Layer 1 (Fail)
//Storyboard Layer 2 (Pass)
//Storyboard Layer 3 (Foreground)
//Storyboard Sound Samples

[TimingPoints]
250,352.941176470588,4,2,1,40,1,0
14367,-100,4,2,1,40,0,1
25661,-100,4,2,1,40,0,0

[HitObjects]
64,192,250,128,0,426:0:0:0:0:
192,192,602,1,0,0:0:0:0:
320,192,779,1,0,0:0:0:0:
192,192,955,1,0,0:0:0:0:
320,192,1132,1,0,0:0:0:0:
448,192,1308,128,0,1485:0:0:0:0:
192,192,1661,1,0,0:0:0:0:
448,192,1838,1,0,0:0:0:0:
320,192,2014,1,0,0:0:0:0:
192,192,2191,1,0,0:0:0:0:
64,192,2367,128,0,2544:0:0:0:0:
192,192,2720,1,0,0:0:0:0:
320,192,2720,1,0,0:0:0:0:
448,192,3073,128,0,3602:0:0:0:0:
320,192,3779,128,0,4308:0:0:0:0:
192,192,4485,128,0,4749:0:0:0:0:
320,192,4838,128,0,5102:0:0:0:0:
192,192,5191,128,0,5720:0:0:0:0:
64,192,5897,128,0,6161:0:0:0:0:
192,192,6249,128,0,6514:0:0:0:0:
448,192,6602,128,0,6867:0:0:0:0:
320,192,6955,128,0,7220:0:0:0:0:
64,192,7308,128,0,7573:0:0:0:0:
192,192,7661,128,0,7926:0:0:0:0:
64,192,8014,128,0,8544:0:0:0:0:
448,192,8720,128,0,9249:0:0:0:0:
320,192,9426,128,0,9955:0:0:0:0:
64,192,10132,128,0,10397:0:0:0:0:
192,192,10485,128,0,10749:0:0:0:0:
64,192,10838,128,0,11102:0:0:0:0:
192,192,11191,1,0,0:0:0:0:
320,192,11367,1,0,0:0:0:0:
448,192,11544,128,0,11808:0:0:0:0:
320,192,11897,128,0,12161:0:0:0:0:
192,192,12249,128,0,12514:0:0:0:0:
64,192,12602,128,0,12867:0:0:0:0:
320,192,12955,128,0,13220:0:0:0:0:
192,192,13308,128,0,13573:0:0:0:0:
320,192,13661,128,0,14191:0:0:0:0:
448,192,14367,128,0,14897:0:0:0:0:
64,192,15073,128,0,15602:0:0:0:0:
448,192,15779,128,0,16044:0:0:0:0:
320,192,16132,128,0,16397:0:0:0:0:
64,192,16485,128,0,17014:0:0:0:0:
64,192,17191,128,0,17455:0:0:0:0:
192,192,17544,128,0,17808:0:0:0:0:
448,192,17897,128,0,18161:0:0:0:0:
320,192,18249,128,0,18514:0:0:0:0:
192,192,18602,128,0,18867:0:0:0:0:
64,192,18955,128,0,19220:0:0:0:0:
192,192,19308,128,0,19838:0:0:0:0:
448,192,20014,128,0,20544:0:0:0:0:
64,192,20720,128,0,21249:0:0:0:0:
192,192,21426,128,0,21691:0:0:0:0:
320,192,21779,128,0,22044:0:0:0:0:
448,192,22132,128,0,22397:0:0:0:0:
320,192,22485,128,0,22749:0:0:0:0:
192,192,22838,128,0,23102:0:0:0:0:
320,192,23191,128,0,23455:0:0:0:0:
64,192,23544,128,0,23808:0:0:0:0:
448,192,23897,128,0,24161:0:0:0:0:
192,192,24249,128,0,25661:0:0:0:0:
320,192,24955,128,0,25661:0:0:0:0:
64,192,26014,1,0,0:0:0:0:
320,192,26720,1,0,0:0:0:0:
192,192,27426,1,0,0:0:0:0:
448,192,28132,1,0,0:0:0:0:
64,192,28838,1,0,0:0:0:0:
320,192,29544,1,0,0:0:0:0:
192,192,30249,1,0,0:0:0:0:
448,192,30955,1,0,0:0:0:0:
192,192,31308,128,0,31749:0:0:0:0:
320,192,31838,1,0,0:0:0:0:
64,192,32014,128,0,32367:0:0:0:0:
192,192,32367,1,0,0:0:0:0:
320,192,32544,1,0,0:0:0:0:
448,192,32720,128,0,32897:0:0:0:0:
64,192,33073,128,0,33249:0:0:0:0:
320,192,33426,128,0,33955:0:0:0:0:
192,192,34132,128,0,34749:0:0:0:0:
320,192,34485,1,0,0:0:0:0:
64,192,34838,128,0,35455:0:0:0:0:
192,192,35191,1,0,0:0:0:0:
448,192,35544,128,0,35720:0:0:0:0:
192,192,35897,128,0,36073:0:0:0:0:
64,192,36249,128,0,36602:0:0:0:0:
320,192,36602,128,0,36867:0:0:0:0:
448,192,37308,1,0,0:0:0:0:
192,192,38014,1,0,0:0:0:0:
320,192,38720,1,0,0:0:0:0:
64,192,39426,1,0,0:0:0:0:
448,192,40132,1,0,0:0:0:0:
192,192,40838,1,0,0:0:0:0:
320,192,41544,1,0,0:0:0:0:
64,192,42249,1,0,0:0:0:0:
448,192,42602,128,0,43044:0:0:0:0:
320,192,43132,1,0,0:0:0:0:
64,192,43308,128,0,43661:0:0:0:0:
320,192,43661,128,0,43838:0:0:0:0:
448,192,43838,1,0,0:0:0:0:
64,192,44014,128,0,44279:0:0:0:0:
192,192,44367,128,0,44632:0:0:0:0:
320,192,44720,128,0,44985:0:0:0:0:
448,192,45073,128,0,45338:0:0:0:0:
64,192,45426,1,0,0:0:0:0:
320,192,45779,1,0,0:0:0:0:
192,192,46132,1,0,0:0:0:0:
448,192,46485,1,0,0:0:0:0:
64,192,46838,128,0,47544:0:0:0:0:
320,192,47544,1,0,0:0:0:0:
