osu file format v9

[General]
AudioFilename: Dj_BaSSMaT-Merry_Christmas.mp3
AudioLeadIn: 0
PreviewTime: 96988
Countdown: 1
SampleSet: Soft
StackLeniency: 0.7
Mode: 0
LetterboxInBreaks: 1

[Editor]
Bookmarks: 57084,70511
DistanceSpacing: 0.8
BeatDivisor: 4
GridSize: 8

[Metadata]
Title:Merry Christmas
Artist:Dj BaSSMaT
Creator:jericho2442
Version:Soft-mas
Source:
Tags:Hikato Trance

[Difficulty]
HPDrainRate:2
CircleSize:3
OverallDifficulty:2
ApproachRate:2
SliderMultiplier:0.999999999999999
SliderTickRate:2

[Events]
//Background and Video events
0,0,"bg-sp.jpg"
//Break Periods
2,57328,68995
//Storyboard Layer 0 (Background)
//Storyboard Layer 1 (Fail)
//Storyboard Layer 2 (Pass)
//Storyboard Layer 3 (Foreground)
//Storyboard Sound Samples
//Background Colour Transformations
3,100,163,162,255

[TimingPoints]
1744,419.58041958042,4,2,1,100,1,0
16639,-100,4,1,0,60,0,0
23457,-100,4,1,1,60,0,0
43492,-100,4,1,2,75,0,0
70135,-100,4,2,1,75,0,0
83352,-100,4,1,2,75,0,0
97408,-100,4,1,1,100,0,1
110730,-100,4,1,1,100,0,0
110834,-100,4,1,1,100,0,1
124156,-100,4,1,1,100,0,0
124261,-100,4,1,1,100,0,1
137688,-100,4,1,1,100,0,0

[Colours]
Combo1 : 255,186,83
Combo2 : 103,252,103
Combo3 : 112,112,252
Combo4 : 252,109,109

[HitObjects]
64,192,3422,2,0,B|192:192|176:48|176:48,1,200,2|0
256,56,4681,1,0
336,56,5100,2,8,B|336:57|320:190|448:190,1,200,2|8
448,272,6359,1,0
448,352,6778,6,0,B|368:344|368:264|368:264|192:264|192:264,1,300,2|0
120,264,8457,2,0,B|120:192|192:184|192:184,1,99.9999999999999
256,184,9296,2,0,B|360:184|360:184,1,99.9999999999999,2|0
440,184,10135,6,0,B|440:144|408:96|336:96|336:96|208:96|208:96|168:96|128:72|128:16|128:16,1,400,2|0
128,184,12653,1,0
128,344,13492,6,0,B|127:344|127:292|167:268|207:268|207:268|335:268|335:268|407:268|439:220|439:180,1,400,2|0
280,184,16009,1,0
280,24,16848,6,0,B|408:16|440:128|440:128,1,200,0|8
440,200,18107,1,0
360,200,18527,2,0,B|256:152|296:256|160:200|160:200,1,200,0|8
88,200,19785,1,0
32,256,20205,6,0,B|77:297|136:264|136:264|200:344|200:344,1,200,0|8
272,336,21464,1,0
352,336,21883,2,0,B|352:280|296:256|296:256|296:144|296:144,1,200,0|8
376,160,23142,1,0
416,88,23562,5,0
336,88,23981,1,8
176,88,24820,1,8
96,88,25240,5,0
136,160,25660,1,8
136,320,26499,1,8
216,320,26918,5,0
264,256,27338,1,8
424,256,28177,1,8
344,256,28597,5,0
384,184,29016,1,8
384,24,29855,1,0
224,24,30695,5,8
144,168,31534,1,0
304,168,32373,1,8
224,168,32792,1,0
264,240,33212,1,8
152,352,34051,6,0,B|32:344|48:208|48:208,1,200,8|0
208,208,35730,2,0,B|224:144|168:104|168:104,1,99.9999999999999,8|0
184,40,36569,1,8
344,40,37408,5,8
472,136,38247,1,0
480,296,39086,1,8
400,296,39506,1,0
352,232,39925,1,8
192,232,40764,6,0,B|56:240|64:96|64:96,1,200,8|0
224,112,42443,2,0,B|328:112|328:112,1,99.9999999999999,8|0
408,112,43282,1,8
488,112,43702,6,0,B|480:184|416:192|416:192|416:288|416:288,1,200,0|2
360,336,44960,1,8
280,312,45380,2,0,B|231:244|231:244|174:275|125:222,1,200,0|2
192,176,46639,1,8
144,112,47058,6,0,B|206:75|251:121|251:121|327:63|327:63,1,200,0|2
352,144,48317,1,8
416,192,48737,2,0,B|416:191|351:244|351:244|385:299|334:350,1,200,0|2
280,288,49995,1,8
200,288,50415,5,0
40,288,51254,1,2
120,152,52093,1,0
40,152,52513,1,0
80,80,52932,1,2
160,80,53352,1,8
200,152,53771,5,0
360,152,54611,1,2
256,192,55450,12,4,57128
256,192,70555,6,0,B|392:200|400:72|400:72,1,200,0|2
256,192,72233,6,0,B|120:184|112:312|112:312,1,200,0|2
256,192,73911,6,0,B|120:200|112:72|112:72,1,200,0|2
256,192,75589,6,0,B|392:184|400:312|400:312,1,200,0|2
248,344,77268,5,0
168,344,77688,1,0
104,296,78107,1,2
104,136,78946,5,0
104,216,79366,1,0
176,176,79785,1,2
336,176,80625,5,0
416,176,81044,1,0
472,120,81464,1,2
480,280,82303,5,0
416,232,82723,1,0
336,232,83142,1,2
256,96,83981,6,0,B|128:80|96:208|96:208,1,200,0|2
100,194,85240,1,0
224,192,85660,6,0,B|352:184|384:304|384:304,1,200,0|2
380,292,86918,1,0
264,296,87338,6,0,B|160:248|184:352|64:296|64:296,1,200,0|2
70,298,88597,1,0
72,176,89016,6,0,B|176:128|152:232|272:176|272:176,1,200,0|2
266,178,90275,1,0
272,56,90695,5,0
432,56,91534,1,2
360,200,92373,1,0
360,360,93212,1,2
200,360,94051,5,0
120,360,94471,1,0
48,320,94890,1,2
48,240,95310,1,0
256,192,95730,12,4,97408
256,192,98247,1,8
96,192,99086,2,0,B|96:128|136:96|136:96,2,99.9999999999999,0|0|8
96,272,100345,1,0
96,352,100764,6,0,B|160:352|176:288|176:288|272:288|272:288,1,200,0|8
344,288,102023,1,0
424,288,102443,2,0,B|424:232|368:208|368:208,2,99.9999999999999,0|0|8
504,288,103702,1,0
504,208,104121,6,0,B|504:96|504:96|504:96,1,99.9999999999999
424,104,104960,2,0,B|352:104|352:40|352:40,1,99.9999999999999,8|0
272,48,105799,2,0,B|168:48|168:48,1,99.9999999999999
88,48,106639,2,0,B|88:120|152:128|152:128,1,99.9999999999999,8|0
224,128,107478,6,0,B|224:248|224:248,1,99.9999999999999
304,208,108317,2,0,B|304:312|304:312,1,99.9999999999999,8|0
384,312,109156,2,8,B|384:208|384:208,1,99.9999999999999
464,224,109995,2,0,B|464:120|464:120,1,99.9999999999999,8|0
384,120,110834,5,0
312,88,111254,1,0
264,24,111674,2,0,B|160:24|160:24,1,99.9999999999999,8|0
80,24,112513,1,0
120,96,112932,1,0
120,176,113352,2,0,B|120:240|48:256|48:256,1,99.9999999999999,8|0
64,328,114191,6,0,B|168:328|168:328,1,99.9999999999999
248,328,115030,2,0,B|312:328|312:256|312:256,1,99.9999999999999,8|0
392,264,115869,2,8,B|392:152|392:152,1,99.9999999999999
384,80,116709,2,0,B|320:80|307:146|307:146,1,99.9999999999999,8|0
232,144,117548,6,0,B|168:112|128:144|128:144|168:184|112:232|112:232,1,200,0|8
120,304,118806,1,0
200,304,119226,2,0,B|264:336|304:304|304:304|264:264|320:216|320:216,1,200,0|8
312,144,120485,1,0
312,64,120904,6,0,B|368:64|392:120|392:120|464:56|464:56,1,200,0|8
464,136,122163,1,0
464,216,122583,2,0,B|408:216|384:160|384:160|312:224|312:224,1,200,0|8
312,304,123841,1,0
232,304,124261,5,0
112,304,124890,1,8
176,200,125520,1,0
176,120,125939,1,0
264,200,126569,1,8
264,80,127198,1,0
344,80,127618,6,0,B|440:64|472:152|472:152,1,150,0|8
472,264,128876,1,0
392,264,129296,2,0,B|288:256|272:352|272:352,1,150,0|8
152,344,130555,1,0
72,344,130974,5,0
112,272,131394,1,0
72,200,131813,1,8
112,128,132233,1,0
152,200,132653,5,0
192,128,133072,1,0
152,56,133492,1,8
72,56,133911,1,0
32,128,134331,5,0
32,128,134750,1,0
112,128,135170,1,8
112,128,135590,1,0
256,192,136009,12,4,137688
