osu file format v9

[General]
AudioFilename: Dj_BaSSMaT-Merry_Christmas.mp3
AudioLeadIn: 0
PreviewTime: 96988
Countdown: 1
SampleSet: Soft
StackLeniency: 0.7
Mode: 0
LetterboxInBreaks: 1

[Editor]
Bookmarks: 13492,57084,70511
DistanceSpacing: 0.6
BeatDivisor: 4
GridSize: 8

[Metadata]
Title:Merry Christmas
Artist:Dj BaSSMaT
Creator:jericho2442
Version:Groove-mas
Source:
Tags:Hikato Trance

[Difficulty]
HPDrainRate:4
CircleSize:4
OverallDifficulty:6
ApproachRate:6
SliderMultiplier:1.5
SliderTickRate:2

[Events]
//Background and Video events
0,0,"bg-sp.jpg"
//Break Periods
2,57328,69505
//Storyboard Layer 0 (Background)
//Storyboard Layer 1 (Fail)
//Storyboard Layer 2 (Pass)
//Storyboard Layer 3 (Foreground)
//Storyboard Sound Samples
//Background Colour Transformations
3,100,163,162,255

[TimingPoints]
1744,419.58041958042,4,2,1,100,1,0
16639,-100,4,1,0,60,0,0
23457,-100,4,1,1,60,0,0
30170,-100,4,1,2,75,0,0
36883,-100,4,1,1,50,0,0
43492,-100,4,1,2,75,0,0
70135,-100,4,2,1,100,0,0
83352,-100,4,1,2,75,0,0
96734,-100,4,1,1,100,0,0
97408,-100,4,1,1,100,0,1
110730,-100,4,1,1,100,0,0
110834,-100,4,1,1,100,0,1
124156,-100,4,1,1,100,0,0
124261,-100,4,1,1,100,0,1
137688,-100,4,1,1,100,0,0

[Colours]
Combo1 : 255,186,83
Combo2 : 103,252,103
Combo3 : 112,112,252
Combo4 : 252,109,109

[HitObjects]
256,32,3422,6,0,B|368:32|360:128|360:128,1,150
360,160,4051,1,0
360,208,4261,2,0,B|400:288|304:264|360:368|360:368,1,150,2|0
264,352,5100,6,0,B|168:344|176:240|176:240,1,150
128,248,5730,1,0
80,248,5939,2,0,B|112:136|40:176|80:88|80:88,1,150,2|0
80,56,6569,1,0
112,80,6778,6,0,B|168:80|176:40|176:40|176:80|240:80|240:80,1,150
224,168,7618,2,0,B|280:168|288:208|288:208|288:168|352:168|352:168,1,150,2|0
424,168,8457,6,0,B|424:232|424:232|464:256|464:304|464:304,1,150
432,336,9086,1,0
392,360,9296,2,0,B|240:360|240:360,1,150,2|0
152,352,10135,6,0,B|56:352|48:256|48:256,1,150
48,216,10764,1,0
48,168,10974,2,0,B|48:16|48:16,1,150,2|0
136,24,11813,2,0,B|136:184|136:184,1,150
181,174,12443,2,0,B|181:14|181:14,1,150,2|0
264,24,13282,5,0
312,24,13492,2,0,B|408:24|416:120|416:120,1,150
416,160,14121,1,0
416,208,14331,2,0,B|416:360|416:360,1,150,2|0
328,352,15170,2,0,B|328:192|328:192,1,150
280,200,15799,2,0,B|280:360|280:360,1,150,2|0
152,352,16848,5,0
64,352,17268,1,8
66,261,17688,2,0,B|162:261|146:157|146:157,1,150,0|8
144,72,18527,1,0
232,72,18946,1,8
232,160,19366,2,0,B|224:264|320:272|320:272,1,150,0|8
400,288,20205,6,0,B|403:203|329:180|329:180|312:124|373:60|455:115|455:115,1,300,0|4
384,32,21464,1,8
296,32,21883,2,0,B|160:168|304:312|304:312,1,300,0|4
96,352,23562,6,0,B|0:336|24:232|24:232,1,150,0|8
112,264,24401,2,0,B|192:200|128:120|128:120,1,150,0|8
224,128,25240,2,0,B|384:128|384:128,1,150,0|8
376,216,26079,2,0,B|264:216|280:320|280:320,1,150,0|8
192,328,26918,5,0
104,328,27338,1,8
32,280,27757,1,0
32,192,28177,1,8
104,240,28597,1,0
192,240,29016,1,8
280,240,29436,2,0,B|280:200|240:168|240:168|288:120|288:120,1,150,0|8
376,120,30275,6,0,B|376:24|472:24|472:24,3,150,0|2|8|0
488,112,31953,2,0,B|488:272|488:272,3,150,0|2|8|0
440,344,33632,6,0,B|312:304|408:384|272:344|272:344,3,150,0|2|8|0
208,344,35310,2,0,B|95:378|191:298|63:338,3,150,0|2|8|0
64,248,36988,6,0,B|104:224|88:168|88:168|120:152|160:176|160:176,1,150,0|8
236,168,37827,2,0,B|236:170|262:153|294:169|294:169|278:225|318:249,1,150,0|8
408,248,38667,6,0,B|409:163|409:163|472:136|472:136,1,150,0|8
432,56,39506,2,0,B|360:88|360:88|288:56|288:56,1,150,0|8
264,144,40345,6,0,B|344:160|344:160|320:232|320:232,1,150,0|8
232,248,41184,2,0,B|152:232|152:232|176:160|176:160,1,150,0|8
88,160,42023,5,0
136,80,42443,1,8
224,80,42862,1,0
312,80,43282,1,8
400,80,43702,6,0,B|384:176|299:169|299:169|299:353|299:353,1,300
256,320,44750,1,8
208,320,44960,1,0
160,320,45170,1,2
112,320,45380,2,0,B|111:320|112:170|112:170|27:177|11:73,1,300
104,80,46639,1,2
192,80,47058,6,0,B|272:80|288:176|288:176|304:80|392:80|392:80,1,300
432,80,48107,1,8
464,112,48317,1,0
472,160,48527,1,2
472,208,48737,2,0,B|472:288|384:320|384:320|368:208|272:248|272:248,1,300
192,248,49995,1,2
104,248,50415,6,0,B|0:224|40:128|40:128|136:152|136:56|136:56|136:56,1,300
184,64,51464,1,8
232,64,51674,1,0
280,64,51883,1,2
328,64,52093,2,0,B|328:160|424:136|424:136|464:232|360:256,1,300,0|0
272,256,53352,1,2
184,256,53771,6,0,B|104:256|104:360|104:360|32:360|32:360|32:272|32:272,1,300
32,232,54820,1,8
32,184,55030,1,0
32,136,55240,1,2
32,88,55450,2,0,B|32:8|32:8|104:8|104:8|104:112|184:112,1,300
272,112,56709,1,2
224,192,57128,1,4
256,32,70555,5,8
344,32,70974,2,0,B|344:88|296:112|296:112,2,75,0|0|2
480,32,72023,5,0
480,80,72233,1,8
480,168,72653,2,0,B|432:168|424:216|424:216,2,75,0|0|2
352,208,73702,6,0,B|264:208|264:208,1,75,0|8
184,208,74331,2,0,B|120:208|128:144|128:144,2,75,0|0|2
264,320,75380,6,0,B|344:320|344:320,1,75,0|8
432,320,76009,2,0,B|432:272|400:248|400:248,2,75,0|0|2
256,192,77268,5,8
168,192,77688,1,0
176,144,77897,1,0
208,112,78107,1,2
344,112,78737,5,0
376,80,78946,1,8
464,80,79366,1,0
464,128,79576,1,0
464,176,79785,1,2
344,240,80415,5,0
312,272,80624,1,8
224,272,81044,1,0
224,224,81254,1,0
224,176,81463,1,2
88,176,82093,5,0
88,224,82303,1,8
88,312,82723,1,0
112,352,82932,1,0
160,360,83142,1,2
248,360,83562,5,0
296,360,83771,1,2
344,360,83981,2,0,B|528:336|456:128|456:128,1,300
440,88,85030,1,8
408,56,85240,5,0
368,40,85450,1,2
320,40,85660,2,0,B|240:40|200:136|200:136|288:136|280:232|280:232,1,300
280,272,86709,1,8
280,320,86918,5,0
248,352,87128,1,2
200,352,87338,2,0,B|120:352|120:240|120:240|112:352|16:352|16:352,1,300
39,348,88387,1,8
40,304,88597,5,0
40,256,88806,1,2
256,192,89016,12,4,90275
256,32,90695,6,0,B|408:32|408:32,1,150,0|2
408,120,91534,2,0,B|248:120|248:120,1,150,0|8
168,120,92373,6,0,B|64:120|64:232|64:232,1,150,0|2
72,304,93212,2,0,B|184:288|160:184|160:184,1,150,0|8
256,200,94051,6,0,B|256:352|256:352,1,150,0|2
344,352,94890,2,0,B|344:200|344:200,1,150,0|8
256,192,95730,12,4,96988
256,32,97408,5,0
232,72,97618,1,0
280,72,97827,1,8
368,80,98247,2,0,B|464:72|464:184|464:184,1,150,0|8
464,264,99086,5,0
448,304,99296,1,0
416,336,99506,1,8
328,336,99925,2,0,B|328:288|376:256|376:256|328:208|328:208,1,150,0|8
248,216,100764,6,0,B|200:216|192:176|192:176,2,75,0|0|8
248,304,101604,2,0,B|96:304|96:304,1,150,0|8
96,216,102443,6,0,B|96:160|48:152|48:152|96:152|96:104|96:104,1,150,0|8
184,120,103282,2,0,B|240:120|240:72|240:72|248:120|296:120|296:120,1,150,0|8
368,120,104121,5,0
456,120,104541,1,8
416,200,104960,1,0
440,240,105170,1,0
416,280,105380,1,8
416,368,105799,6,0,B|320:368|320:272|320:272,1,150,0|8
232,272,106639,2,0,B|152:272|152:272,2,75,0|0|8
232,184,107478,5,0
144,184,107897,1,8
56,184,108317,1,0
64,144,108527,1,0
96,112,108737,1,8
184,112,109156,6,0,B|288:112|280:16|280:16,1,150,0|8
368,24,109995,2,0,B|368:104|368:104,2,75,0|0|8
456,24,110834,5,0
456,112,111254,2,0,B|456:192|456:192,1,75,8|0
456,280,111883,2,0,B|424:352|424:352,1,75,0|8
384,344,112303,1,0
336,344,112513,5,0
248,344,112932,2,0,B|160:344|160:344,1,75,8|0
80,344,113562,2,0,B|32:288|32:288,1,75,0|8
32,240,113981,1,0
32,192,114191,5,0
32,104,114611,2,0,B|72:40|72:40,1,75,8|0
160,40,115240,2,0,B|208:112|208:112,1,75,0|8
200,144,115660,1,0
200,192,115869,6,0,B|200:304|296:304|296:304,1,150,0|8
288,216,116709,1,4
464,224,117548,6,0,B|496:128|424:152|464:72|464:72,3,150,0|8|0|8
416,72,119016,1,0
368,72,119226,6,0,B|264:40|320:112|208:72|208:72,3,150,0|8|0|8
176,72,120695,1,0
128,72,120904,6,0,B|32:72|48:184|48:184,3,150,0|8|0|8
48,224,122373,1,0
256,192,122583,12,4,123841
256,32,124261,5,0
304,32,124471,1,0
344,48,124681,1,8
376,80,124890,1,0
384,120,125100,2,0,B|408:160|376:216|376:216|336:208|320:176|320:176,1,150,0|8
240,192,125939,5,0
192,192,126149,1,0
152,168,126359,1,8
112,192,126569,1,0
64,192,126778,2,0,B|16:192|16:256|16:256|72:248|72:304|72:304,1,150,0|8
120,352,127618,5,0
168,352,127827,1,0
144,312,128037,1,8
192,312,128247,1,0
240,312,128457,2,0,B|320:312|320:312|352:248|352:248,1,150,0|8
352,160,129296,5,0
304,160,129506,1,0
328,120,129716,1,8
376,120,129925,1,0
400,160,130135,2,0,B|448:224|448:224|488:152|488:152,1,150,0|8
480,72,130974,5,0
400,32,131394,2,0,B|320:32|320:32,1,75,8|0
325,32,131813,2,0,B|248:32|248:32,1,75
250,32,132233,2,0,B|192:32|200:96|200:96,1,75,8|0
200,120,132653,5,0
200,208,133072,2,0,B|200:272|248:264|248:264,1,75,8|0
237,264,133492,2,0,B|320:264|320:264,1,75
312,264,133911,2,0,B|400:264|400:264,1,75,8|0
432,264,134331,5,0
432,352,134750,1,8
384,352,134960,1,0
336,352,135170,2,0,B|256:352|256:352,1,75
216,352,135590,1,8
184,328,135799,1,0
256,192,136009,12,4,137688
