osu file format v14

[General]
AudioFilename: Dizzee Rascal & Armand Van Helden - Bonkers (Video).mp3
AudioLeadIn: 0
PreviewTime: 62162
Countdown: 0
SampleSet: Normal
StackLeniency: 0.7
Mode: 1
LetterboxInBreaks: 0
WidescreenStoryboard: 0

[Editor]
DistanceSpacing: 0.8
BeatDivisor: 4
GridSize: 8
TimelineZoom: 2.999999

[Metadata]
Title:Bonkers
TitleUnicode:Bonkers
Artist:Dizzee Rascal & Armand Van Helden
ArtistUnicode:Dizzee Rascal & Armand Van Helden
Creator:carnivore101
Version:Kantan
Source:
Tags:crazy
BeatmapID:750955
BeatmapSetID:339445

[Difficulty]
HPDrainRate:6
CircleSize:5
OverallDifficulty:4
ApproachRate:5
SliderMultiplier:1.4
SliderTickRate:1

[Events]
//Background and Video events
0,0,"maxresdefault (1).jpg",0,0
//Break Periods
//Storyboard Layer 0 (Background)
//Storyboard Layer 1 (Fail)
//Storyboard Layer 2 (Pass)
//Storyboard Layer 3 (Foreground)
//Storyboard Sound Samples

[TimingPoints]
1210.58681425175,476.190476190476,4,1,0,100,1,0
62162,-100,4,1,0,100,0,1
77401,-100,4,1,0,100,0,0
92639,-100,4,1,0,100,0,1
107877,-100,4,1,0,100,0,0
157401,-100,4,1,0,100,0,1
172162,-100,4,1,0,100,0,0

[HitObjects]
256,192,1210,5,0,0:0:0:0:
256,192,2162,1,0,0:0:0:0:
256,192,3115,1,0,0:0:0:0:
256,192,4067,1,8,0:0:0:0:
256,192,5020,1,0,0:0:0:0:
256,192,5972,1,0,0:0:0:0:
256,192,6924,1,0,0:0:0:0:
256,192,7877,1,8,0:0:0:0:
256,192,9305,1,8,0:0:0:0:
256,192,10258,1,8,0:0:0:0:
264,192,11210,1,8,0:0:0:0:
256,192,12162,1,0,0:0:0:0:
256,192,13115,1,8,0:0:0:0:
256,192,14067,1,8,0:0:0:0:
256,192,15020,1,8,0:0:0:0:
248,192,15972,1,8,0:0:0:0:
256,192,16448,1,4,0:0:0:0:
256,192,17401,1,8,0:0:0:0:
256,192,18353,1,0,0:0:0:0:
256,192,18829,1,8,0:0:0:0:
256,192,19305,1,8,0:0:0:0:
256,192,20258,1,8,0:0:0:0:
256,192,20734,1,8,0:0:0:0:
256,192,21210,1,8,0:0:0:0:
256,192,22162,1,0,0:0:0:0:
256,192,23115,1,8,0:0:0:0:
256,192,24067,1,8,0:0:0:0:
256,192,24543,1,8,0:0:0:0:
256,192,25020,1,0,0:0:0:0:
256,192,25972,1,8,0:0:0:0:
256,192,26924,1,0,0:0:0:0:
256,192,27877,1,0,0:0:0:0:
256,192,28353,1,0,0:0:0:0:
256,192,28829,1,8,0:0:0:0:
256,192,29782,1,0,0:0:0:0:
256,192,30734,1,0,0:0:0:0:
256,192,31686,1,8,0:0:0:0:
256,192,32162,1,8,0:0:0:0:
256,192,32639,1,8,0:0:0:0:
256,192,33115,1,0,0:0:0:0:
256,192,33591,1,8,0:0:0:0:
256,192,34067,1,8,0:0:0:0:
256,192,34543,1,8,0:0:0:0:
256,192,35020,1,0,0:0:0:0:
256,192,35496,1,8,0:0:0:0:
256,192,36448,1,8,0:0:0:0:
256,192,37401,1,0,0:0:0:0:
256,192,37877,1,0,0:0:0:0:
256,192,38353,1,8,0:0:0:0:
256,192,38829,1,8,0:0:0:0:
256,192,39305,1,0,0:0:0:0:
256,192,39782,1,0,0:0:0:0:
256,192,40258,1,0,0:0:0:0:
256,192,40734,1,8,0:0:0:0:
256,192,41686,1,0,0:0:0:0:
256,192,42162,1,0,0:0:0:0:
256,192,42639,1,8,0:0:0:0:
256,192,43591,1,0,0:0:0:0:
256,192,44067,1,0,0:0:0:0:
256,192,44543,1,0,0:0:0:0:
256,192,45020,1,8,0:0:0:0:
256,192,45496,1,8,0:0:0:0:
256,192,45972,1,8,0:0:0:0:
256,192,46448,1,0,0:0:0:0:
256,192,46924,1,12,0:0:0:0:
256,192,47877,1,12,0:0:0:0:
256,192,48829,1,4,0:0:0:0:
256,192,49782,1,12,0:0:0:0:
256,192,50734,1,12,0:0:0:0:
256,192,51686,1,12,0:0:0:0:
256,192,52639,1,4,0:0:0:0:
256,192,53591,1,12,0:0:0:0:
256,192,54543,1,12,0:0:0:0:
256,192,55496,1,12,0:0:0:0:
256,192,56448,1,4,0:0:0:0:
256,192,57401,1,12,0:0:0:0:
256,192,58353,1,4,0:0:0:0:
256,192,58829,1,4,0:0:0:0:
256,192,59305,1,12,0:0:0:0:
256,192,59782,1,12,0:0:0:0:
256,192,60258,1,4,0:0:0:0:
256,192,60734,1,12,0:0:0:0:
256,192,61210,1,4,0:0:0:0:
256,192,62162,1,8,0:0:0:0:
256,192,63115,1,0,0:0:0:0:
256,192,64067,1,8,0:0:0:0:
256,192,64543,1,0,0:0:0:0:
256,192,65020,1,0,0:0:0:0:
256,192,65972,1,0,0:0:0:0:
256,192,66924,1,8,0:0:0:0:
256,192,67877,1,0,0:0:0:0:
256,192,68829,1,0,0:0:0:0:
256,192,69782,1,8,0:0:0:0:
256,192,70734,1,0,0:0:0:0:
256,192,71210,1,0,0:0:0:0:
256,192,71686,1,8,0:0:0:0:
256,192,72639,1,0,0:0:0:0:
256,192,73115,1,0,0:0:0:0:
256,192,73591,1,0,0:0:0:0:
256,192,74543,1,8,0:0:0:0:
256,192,75496,1,0,0:0:0:0:
256,192,76448,1,0,0:0:0:0:
256,192,77401,1,8,0:0:0:0:
256,192,77877,1,0,0:0:0:0:
256,192,78353,1,8,0:0:0:0:
256,192,79305,1,8,0:0:0:0:
256,192,79782,1,0,0:0:0:0:
256,192,80258,1,8,0:0:0:0:
256,192,81210,1,0,0:0:0:0:
256,192,81686,1,0,0:0:0:0:
256,192,82162,1,8,0:0:0:0:
256,192,83115,1,8,0:0:0:0:
256,192,83591,1,8,0:0:0:0:
256,192,84067,1,8,0:0:0:0:
256,192,85020,1,8,0:0:0:0:
256,192,85496,1,0,0:0:0:0:
256,192,85972,1,8,0:0:0:0:
256,192,86448,1,0,0:0:0:0:
256,192,86924,1,8,0:0:0:0:
256,192,87401,1,0,0:0:0:0:
256,192,87877,1,8,0:0:0:0:
256,192,88829,1,0,0:0:0:0:
256,192,89782,1,0,0:0:0:0:
256,192,90734,1,0,0:0:0:0:
256,192,91686,1,0,0:0:0:0:
256,192,92162,1,8,0:0:0:0:
256,192,92639,1,0,0:0:0:0:
256,192,93115,1,0,0:0:0:0:
256,192,93591,1,0,0:0:0:0:
256,192,94067,1,8,0:0:0:0:
256,192,95020,1,0,0:0:0:0:
256,192,95496,1,0,0:0:0:0:
256,192,95972,1,8,0:0:0:0:
256,192,96924,1,0,0:0:0:0:
256,192,97401,1,0,0:0:0:0:
256,192,97877,1,0,0:0:0:0:
256,192,98353,1,8,0:0:0:0:
256,192,98829,1,0,0:0:0:0:
256,192,99305,1,8,0:0:0:0:
256,192,100258,1,0,0:0:0:0:
256,192,100734,1,0,0:0:0:0:
256,192,101210,1,0,0:0:0:0:
256,192,101686,1,8,0:0:0:0:
256,192,102639,1,0,0:0:0:0:
256,192,103115,1,0,0:0:0:0:
256,192,103591,1,8,0:0:0:0:
256,192,104543,1,0,0:0:0:0:
256,192,105020,1,0,0:0:0:0:
256,192,105496,1,8,0:0:0:0:
256,192,105972,1,0,0:0:0:0:
256,192,106448,1,0,0:0:0:0:
256,192,106924,1,0,0:0:0:0:
256,192,107401,1,8,0:0:0:0:
256,192,107877,1,0,0:0:0:0:
256,192,108829,1,0,0:0:0:0:
256,192,109782,1,0,0:0:0:0:
256,192,110734,1,0,0:0:0:0:
256,192,111686,1,0,0:0:0:0:
256,192,112162,1,8,0:0:0:0:
256,192,112639,1,0,0:0:0:0:
256,192,113115,1,8,0:0:0:0:
256,192,113591,1,0,0:0:0:0:
256,192,114067,1,8,0:0:0:0:
256,192,114543,1,0,0:0:0:0:
256,192,115020,1,8,0:0:0:0:
256,192,115972,1,8,0:0:0:0:
256,192,116924,1,8,0:0:0:0:
256,192,117877,1,8,0:0:0:0:
256,192,118829,1,8,0:0:0:0:
256,192,119782,1,0,0:0:0:0:
256,192,120734,1,8,0:0:0:0:
256,192,121686,1,8,0:0:0:0:
256,192,122639,1,8,0:0:0:0:
256,192,123115,1,4,0:0:0:0:
256,192,124067,1,0,0:0:0:0:
256,192,125020,1,8,0:0:0:0:
256,192,125972,1,0,0:0:0:0:
256,192,126924,1,0,0:0:0:0:
256,192,127877,1,0,0:0:0:0:
256,192,128829,1,0,0:0:0:0:
256,192,129782,1,8,0:0:0:0:
256,192,130734,1,8,0:0:0:0:
256,192,131686,1,0,0:0:0:0:
256,192,132639,1,8,0:0:0:0:
256,192,133591,1,0,0:0:0:0:
256,192,134543,1,0,0:0:0:0:
256,192,135496,1,8,0:0:0:0:
256,192,136448,1,0,0:0:0:0:
256,192,137401,1,8,0:0:0:0:
256,192,138353,1,12,0:0:0:0:
256,192,138829,1,12,0:0:0:0:
256,192,139305,1,12,0:0:0:0:
256,192,139782,1,12,0:0:0:0:
256,192,140258,2,0,L|416:192,4,140
256,192,143115,1,0,0:0:0:0:
256,192,144067,1,0,0:0:0:0:
256,192,145020,1,0,0:0:0:0:
256,192,145496,1,8,0:0:0:0:
256,192,145972,1,0,0:0:0:0:
256,192,146924,1,0,0:0:0:0:
256,192,147877,1,0,0:0:0:0:
256,192,148829,1,8,0:0:0:0:
256,192,149305,1,0,0:0:0:0:
256,192,149782,1,8,0:0:0:0:
256,192,150734,1,0,0:0:0:0:
256,192,151686,1,8,0:0:0:0:
256,192,152639,1,0,0:0:0:0:
256,192,153591,1,8,0:0:0:0:
256,192,154543,1,0,0:0:0:0:
256,192,155496,1,0,0:0:0:0:
256,192,155972,1,0,0:0:0:0:
256,192,156448,1,8,0:0:0:0:
256,192,156924,1,0,0:0:0:0:
256,192,157401,1,8,0:0:0:0:
256,192,158353,1,0,0:0:0:0:
256,192,158829,1,0,0:0:0:0:
256,192,159305,1,8,0:0:0:0:
256,192,160258,1,0,0:0:0:0:
256,192,160734,1,0,0:0:0:0:
256,192,161210,1,0,0:0:0:0:
256,192,162162,1,8,0:0:0:0:
256,192,163115,1,0,0:0:0:0:
256,192,164067,1,0,0:0:0:0:
256,192,164543,1,0,0:0:0:0:
256,192,165020,1,8,0:0:0:0:
256,192,165972,1,0,0:0:0:0:
256,192,166924,1,8,0:0:0:0:
256,192,167877,1,0,0:0:0:0:
256,192,168353,1,0,0:0:0:0:
256,192,168829,1,0,0:0:0:0:
256,192,169782,1,8,0:0:0:0:
256,192,170734,1,0,0:0:0:0:
256,192,171686,1,8,0:0:0:0:
256,192,172162,12,0,176448,0:0:0:0:
