osu file format v12

[General]
AudioFilename: andante.mp3
AudioLeadIn: 0
PreviewTime: 82497
Countdown: 0
SampleSet: Soft
StackLeniency: 0.7
Mode: 0
LetterboxInBreaks: 0

[Editor]
Bookmarks: 16758
DistanceSpacing: 1.1
BeatDivisor: 4
GridSize: 4

[Metadata]
Title:andante
TitleUnicode:アンダンテ
Artist:Dixie Flatline
ArtistUnicode:Dixie Flatline
Creator:HelloSCV
Version:Hard
Source:
Tags:Hatsune Miku Vocaloid mintong89 Nico Douga haruyo Maku YGOkid8 ODESSA
BeatmapID:207356
BeatmapSetID:72603

[Difficulty]
HPDrainRate:6
CircleSize:4
OverallDifficulty:6
ApproachRate:6
SliderMultiplier:1.6
SliderTickRate:2

[Events]
//Background and Video events
0,0,"bg.jpg",0,0
Video,0,"PV.avi"
//Break Periods
2,102521,115881
2,186001,199359
//Storyboard Layer 0 (Background)
//Storyboard Layer 1 (Fail)
//Storyboard Layer 2 (Pass)
//Storyboard Layer 3 (Foreground)
//Storyboard Sound Samples
//Background Colour Transformations
3,100,163,162,255

[TimingPoints]
61,521.739130434783,4,2,1,70,1,0
18256,-100,4,2,2,70,0,0
18387,-100,4,2,1,70,0,0
22430,-100,4,2,2,70,0,0
22561,-100,4,2,1,70,0,0
26604,-100,4,2,2,70,0,0
26734,-100,4,2,1,70,0,0
27647,-100,4,2,2,70,0,0
27778,-100,4,2,1,70,0,0
30778,-100,4,2,2,70,0,0
30908,-100,4,2,1,70,0,0
31821,-100,4,2,2,70,0,0
31952,-100,4,2,1,70,0,0
60061,-100,4,2,2,70,0,0
60191,-100,4,2,1,70,0,0
83539,-100,4,2,1,90,0,1
91104,-100,4,2,1,90,0,0
91887,-100,4,2,1,90,0,1
100234,-100,4,2,1,70,0,0
100365,-100,4,2,1,50,0,0
102321,-100,4,2,1,30,0,0
116930,-100,4,2,1,70,0,0
167017,-100,4,2,1,90,0,1
174582,-100,4,2,1,90,0,0
175365,-100,4,2,1,90,0,1
183713,-100,4,2,1,70,0,0
183843,-100,4,2,1,50,0,0
185800,-100,4,2,1,50,0,0
206082,-100,4,2,3,50,0,0
206213,-100,4,2,1,50,0,0
217104,-100,4,2,1,70,0,0
233800,-100,4,2,1,90,0,1
241365,-100,4,2,1,90,0,0
242147,-100,4,2,1,90,0,1
247887,-100,4,2,2,90,0,1
248017,-100,4,2,1,90,0,1
250495,-100,4,2,1,70,0,0
250626,-100,4,2,1,50,0,0
252582,-100,4,2,1,30,0,0

[Colours]
Combo1 : 0,255,128
Combo2 : 249,249,249
Combo3 : 0,128,255

[HitObjects]
132,256,16757,2,0,P|160:288|192:308,2,80,4|0|8,0:0|0:0|0:0,0:0:0:0:
116,176,17539,1,0,0:0:0:0:
180,124,17800,2,0,P|228:112|276:56,2,120,0|0|0,0:0|0:0|0:0,0:0:0:0:
196,204,18844,2,0,L|256:312,1,120
276,344,19365,1,8,0:0:0:0:
350,370,19626,1,0,0:0:0:0:
400,308,19887,1,0,0:0:0:0:
355,241,20147,1,0,0:0:0:0:
279,264,20409,2,0,P|275:220|287:180,1,80,8|0,0:0|0:0,0:0:0:0:
422,132,20931,6,0,P|382:137|344:128,2,80,0|0|8,0:0|0:0|0:0,0:0:0:0:
500,116,21713,1,0,0:0:0:0:
476,192,21974,2,0,P|435:232|426:292,2,120
504,268,23017,2,0,L|391:214,1,120
360,196,23539,1,8,0:0:0:0:
288,156,23800,1,0,0:0:0:0:
208,160,24061,2,0,P|172:176|128:168,1,80,0|0,0:0|0:0,0:0:0:0:
56,188,24583,1,8,0:0:0:0:
24,216,24713,1,0,0:0:0:0:
20,256,24844,1,0,0:0:0:0:
48,284,24974,1,0,0:0:0:0:
88,288,25105,6,0,P|128:296|152:324,1,80,4|0,0:0|0:0,0:0:0:0:
232,332,25626,2,0,P|264:304|308:300,1,80,8|0,0:0|0:0,0:0:0:0:
380,308,26148,2,0,P|448:308|484:272,2,120
412,236,27192,2,0,L|364:124,2,120
476,188,28235,1,0,0:0:0:0:
444,116,28496,1,0,0:0:0:0:
392,52,28757,2,0,P|352:44|312:64,1,80,8|0,0:0|0:0,0:0:0:0:
264,120,29278,6,0,P|244:156|200:176,1,80
132,156,29800,2,0,P|152:120|185:101,1,80,8|0,0:0|0:0,0:0:0:0:
144,236,30322,2,0,P|160:288|148:352,2,120
208,188,31365,2,0,P|252:224|280:280,2,120
260,124,32409,1,0,0:0:0:0:
340,108,32670,1,0,0:0:0:0:
408,152,32931,2,0,L|404:240,1,80,8|0,0:0|0:0,0:0:0:0:
468,280,33452,5,4,0:0:0:0:
476,200,33714,2,0,L|479:120,2,80,0|8|0,0:0|0:0|0:0,0:0:0:0:
404,232,34496,2,0,P|324:240|292:308,1,160,0|8,0:0|0:0,0:0:0:0:
348,364,35278,1,0,0:0:0:0:
268,376,35539,2,0,L|184:340,1,80,0|0,0:0|0:0,0:0:0:0:
152,276,36061,1,8,0:0:0:0:
92,328,36322,2,0,P|80:248|136:200,1,160,0|0,0:0|0:0,0:0:0:0:
196,148,37105,2,0,P|168:128|124:124,1,80,8|0,0:0|0:0,0:0:0:0:
264,188,37626,6,0,P|320:232|408:204,1,160,0|8,0:0|0:0,0:0:0:0:
344,156,38409,1,0,0:0:0:0:
344,156,38670,2,0,L|320:316,1,160,0|8,0:0|0:0,0:0:0:0:
268,376,39452,1,0,0:0:0:0:
212,320,39713,1,0,0:0:0:0:
132,320,39974,1,0,0:0:0:0:
76,376,40235,2,0,P|44:352|36:308,1,80,8|0,0:0|0:0,0:0:0:0:
40,236,40757,1,0,0:0:0:0:
32,156,41018,2,0,P|71:163|103:187,1,80,0|8,0:0|0:0,0:0:0:0:
172,228,41540,1,0,0:0:0:0:
224,288,41800,5,4,0:0:0:0:
252,212,42061,2,0,L|340:204,2,80,0|8|0,0:0|0:0|0:0,0:0:0:0:
200,152,42844,2,0,P|156:152|120:168,1,80,0|0,0:0|0:0,0:0:0:0:
148,300,43365,2,0,P|192:300|225:287,1,80,8|0,0:0|0:0,0:0:0:0:
304,276,43887,1,0,0:0:0:0:
380,296,44148,1,0,0:0:0:0:
436,352,44409,1,8,0:0:0:0:
460,276,44670,2,0,P|496:204|476:112,1,160,0|0,0:0|0:0,0:0:0:0:
408,100,45452,2,0,P|405:134|417:178,1,80,8|0,0:0|0:0,0:0:0:0:
448,28,45974,5,0,0:0:0:0:
448,28,46496,1,8,0:0:0:0:
408,100,46757,2,0,P|332:128|272:84,1,160,0|0,0:0|0:0,0:0:0:0:
192,100,47539,1,8,0:0:0:0:
224,28,47800,2,0,P|272:88|244:160,1,160
176,200,48583,1,8,0:0:0:0:
96,216,48844,1,0,0:0:0:0:
60,144,49105,1,0,0:0:0:0:
96,216,49365,2,0,L|132:296,2,80,0|8|0,0:0|0:0|0:0,0:0:0:0:
4,192,50148,6,0,L|33:267,1,80,4|0,0:0|0:0,0:0:0:0:
204,272,50670,2,0,L|172:196,1,80,8|0,0:0|0:0,0:0:0:0:
236,352,51192,1,0,0:0:0:0:
280,284,51452,1,0,0:0:0:0:
356,260,51713,1,8,0:0:0:0:
436,276,51974,1,0,0:0:0:0:
468,348,52235,2,0,P|427:356|393:341,1,80,0|0,0:0|0:0,0:0:0:0:
405,205,52757,2,0,P|446:196|480:212,1,80,8|0,0:0|0:0,0:0:0:0:
328,232,53278,1,0,0:0:0:0:
252,252,53539,2,0,P|212:260|168:248,2,80,0|8|0,0:0|0:0|0:0,0:0:0:0:
220,180,54322,5,0,0:0:0:0:
268,116,54583,1,0,0:0:0:0:
348,128,54844,2,0,P|328:64|244:40,1,160,8|0,0:0|0:0,0:0:0:0:
180,84,55626,1,0,0:0:0:0:
104,104,55887,1,8,0:0:0:0:
36,64,56148,2,0,P|108:108|120:184,1,160
92,252,56931,1,8,0:0:0:0:
68,328,57192,2,0,P|156:320|228:344,1,160
300,368,57974,1,8,0:0:0:0:
376,344,58235,1,0,0:0:0:0:
368,264,58496,6,0,P|380:224|412:196,1,80,4|0,0:0|0:0,0:0:0:0:
496,328,59018,2,0,P|480:291|448:267,1,80,8|0,0:0|0:0,0:0:0:0:
368,264,59539,1,0,0:0:0:0:
288,252,59800,2,0,P|204:232|164:172,1,160
152,96,60583,1,0,0:0:0:0:
228,116,60844,2,0,P|228:76|208:40,2,80,0|8|0,0:0|0:0|0:0,0:0:0:0:
292,164,61626,1,0,0:0:0:0:
372,164,61887,2,0,L|456:164,2,80,0|8|0,0:0|0:0|0:0,0:0:0:0:
336,236,62670,6,0,P|344:276|340:320,1,80
268,284,63192,2,0,P|256:324|228:352,1,80,8|0,0:0|0:0,0:0:0:0:
184,284,63713,2,0,P|124:332|48:312,1,160,0|8,0:0|0:0,0:0:0:0:
108,256,64496,1,0,0:0:0:0:
32,228,64757,2,0,P|92:180|167:199,1,160,0|8,0:0|0:0,0:0:0:0:
244,220,65539,1,0,0:0:0:0:
284,224,65670,1,0,0:0:0:0:
324,212,65800,1,0,0:0:0:0:
388,164,66061,1,0,0:0:0:0:
440,104,66322,1,8,0:0:0:0:
492,164,66583,1,0,0:0:0:0:
448,232,66844,6,0,P|384:276|388:360,1,160,4|8,0:0|0:0,0:0:0:0:
452,312,67626,1,0,0:0:0:0:
452,312,67887,2,0,P|376:276|316:312,1,160,0|8,0:0|0:0,0:0:0:0:
384,352,68670,1,0,0:0:0:0:
384,352,68931,2,0,L|372:184,1,160,0|8,0:0|0:0,0:0:0:0:
364,112,69713,1,0,0:0:0:0:
356,32,69974,2,0,L|364:112,1,80
292,208,70496,2,0,L|284:128,1,80,8|0,0:0|0:0,0:0:0:0:
204,128,71018,6,0,P|124:124|68:192,1,160,0|8,0:0|0:0,0:0:0:0:
80,260,71800,1,0,0:0:0:0:
128,324,72061,2,0,P|208:328|264:260,1,160,0|8,0:0|0:0,0:0:0:0:
260,192,72844,1,0,0:0:0:0:
284,116,73105,2,0,P|340:64|420:68,1,160,0|8,0:0|0:0,0:0:0:0:
488,108,73887,1,0,0:0:0:0:
480,188,74148,2,0,P|424:156|424:60,1,160,0|8,0:0|0:0,0:0:0:0:
488,108,74931,1,0,0:0:0:0:
488,108,75192,6,0,L|352:200,1,160,4|8,0:0|0:0,0:0:0:0:
292,248,75974,1,0,0:0:0:0:
244,312,76235,2,0,L|112:204,1,160,0|8,0:0|0:0,0:0:0:0:
60,156,77018,1,0,0:0:0:0:
140,140,77278,2,0,P|116:216|40:240,1,160,0|8,0:0|0:0,0:0:0:0:
4,312,78061,1,0,0:0:0:0:
84,312,78322,2,0,L|176:312,1,80
204,380,78844,2,0,L|280:348,1,80,8|0,0:0|0:0,0:0:0:0:
344,304,79365,6,0,P|408:264|404:180,1,160,0|8,0:0|0:0,0:0:0:0:
264,112,80409,2,0,P|200:152|204:236,1,160,0|8,0:0|0:0,0:0:0:0:
308,212,81452,1,0,0:0:0:0:
380,172,81713,1,0,0:0:0:0:
388,92,81974,1,8,0:0:0:0:
340,28,82234,6,0,L|308:12,4,20,0|0|0|0|8,0:0|0:0|0:0|0:0|0:0,0:0:0:0:
388,92,82757,1,0,0:0:0:0:
468,88,83018,1,8,0:0:0:0:
504,16,83278,1,0,0:0:0:0:
468,88,83539,6,0,L|500:256,1,160,4|8,0:0|0:0,0:0:0:0:
476,332,84322,1,0,0:0:0:0:
392,360,84583,2,0,P|356:376|308:372,2,80,0|0|8,0:0|0:0|0:0,0:0:0:0:
336,292,85365,1,0,0:0:0:0:
300,212,85626,2,0,P|228:188|164:232,1,160,0|8,0:0|0:0,0:0:0:0:
236,268,86409,2,0,P|227:185|155:151,1,160,0|0,0:0|0:0,0:0:0:0:
76,152,87192,1,8,0:0:0:0:
20,220,87452,1,0,0:0:0:0:
76,152,87713,6,0,L|80:68,1,80
152,20,88235,2,0,L|212:88,1,80,8|0,0:0|0:0,0:0:0:0:
240,160,88757,2,0,B|272:196|320:200|320:200|348:184|388:192,1,160,0|8,0:0|0:0,0:0:0:0:
448,252,89539,1,0,0:0:0:0:
364,280,89800,1,0,0:0:0:0:
364,280,90322,2,8,L|288:316,1,80,8|0,0:0|0:0,0:0:0:0:
212,348,90844,1,0,0:0:0:0:
124,344,91105,2,0,L|44:316,2,80,0|8|0,0:0|0:0|0:0,0:0:0:0:
176,272,91887,6,0,B|140:216|196:172|164:112,1,160,4|8,0:0|0:0,0:0:0:0:
104,48,92670,1,0,0:0:0:0:
192,44,92931,2,0,P|252:48|316:84,1,120
340,100,93452,1,8,0:0:0:0:
376,180,93713,1,0,0:0:0:0:
420,104,93974,2,0,P|344:100|292:160,1,160,0|8,0:0|0:0,0:0:0:0:
236,228,94757,2,0,P|174:281|102:269,1,160
76,184,95539,2,0,P|116:182|152:198,1,80,8|0,0:0|0:0,0:0:0:0:
101,268,96062,5,0,0:0:0:0:
68,348,96322,1,0,0:0:0:0:
156,344,96583,2,0,P|196:333|234:331,1,80,8|0,0:0|0:0,0:0:0:0:
320,348,97104,1,0,0:0:0:0:
404,320,97365,1,0,0:0:0:0:
404,320,97627,2,0,L|424:240,1,80,8|0,0:0|0:0,0:0:0:0:
416,156,98148,6,0,P|396:120|360:92,1,80
280,104,98670,2,0,P|300:140|330:165,1,80,8|0,0:0|0:0,0:0:0:0:
428,236,99192,1,0,0:0:0:0:
324,300,99452,1,0,0:0:0:0:
444,308,99713,1,8,0:0:0:0:
352,232,99974,1,0,0:0:0:0:
380,348,100235,5,4,0:0:0:0:
256,192,100365,12,2,102321,0:0:0:0:
192,52,116931,5,4,0:0:0:0:
208,132,117192,2,0,P|220:172|244:200,1,80,0|8,0:0|0:0,0:0:0:0:
320,224,117713,1,0,0:0:0:0:
392,192,117974,2,0,P|388:272|324:308,1,160,0|8,0:0|0:0,0:0:0:0:
244,308,118757,1,0,0:0:0:0:
164,308,119018,2,0,L|72:308,2,80,0|0|8,0:0|0:0|0:0,0:0:0:0:
132,236,119800,2,0,P|72:212|48:124,1,160
112,76,120583,1,8,0:0:0:0:
136,152,120844,6,0,P|208:156|280:88,1,160
304,28,121626,1,8,0:0:0:0:
384,40,121887,1,0,0:0:0:0:
428,108,122148,2,0,P|456:168|416:248,1,160,0|8,0:0|0:0,0:0:0:0:
384,176,122931,2,0,P|464:192|492:272,1,160
464,332,123713,1,8,0:0:0:0:
384,332,123974,2,0,P|284:304|232:348,1,160
176,376,124757,1,8,0:0:0:0:
104,344,125018,1,0,0:0:0:0:
88,264,125278,5,4,0:0:0:0:
156,224,125539,2,0,P|188:196|204:160,2,80,0|8|0,0:0|0:0|0:0,0:0:0:0:
128,148,126322,2,0,P|160:100|188:88,1,80,0|0,0:0|0:0,0:0:0:0:
260,92,126843,1,8,0:0:0:0:
324,140,127105,1,0,0:0:0:0:
336,220,127365,2,0,P|356:256|396:272,1,80,0|0,0:0|0:0,0:0:0:0:
488,180,127887,2,0,P|448:180|412:196,1,80,8|0,0:0|0:0,0:0:0:0:
464,256,128409,1,0,0:0:0:0:
432,328,128670,1,0,0:0:0:0:
356,356,128931,1,8,0:0:0:0:
276,348,129192,1,0,0:0:0:0:
224,288,129452,6,0,P|200:256|164:240,2,80,0|0|8,0:0|0:0|0:0,0:0:0:0:
300,268,130235,1,0,0:0:0:0:
324,192,130496,2,0,P|344:156|376:128,1,80
460,138,131018,2,0,P|440:174|412:200,1,80,8|0,0:0|0:0,0:0:0:0:
424,72,131539,1,0,0:0:0:0:
360,24,131800,1,0,0:0:0:0:
284,44,132061,1,8,0:0:0:0:
248,116,132322,2,0,P|241:161|212:204,1,80
156,232,132844,1,0,0:0:0:0:
80,260,133105,1,8,0:0:0:0:
92,180,133365,1,0,0:0:0:0:
156,232,133627,6,0,P|188:256|204:296,1,80,4|0,0:0|0:0,0:0:0:0:
180,368,134148,2,0,P|218:372|254:352,1,80,8|0,0:0|0:0,0:0:0:0:
304,288,134670,1,0,0:0:0:0:
368,240,134931,1,0,0:0:0:0:
448,224,135192,1,8,0:0:0:0:
424,300,135452,1,0,0:0:0:0:
368,240,135713,2,0,L|324:172,1,80
216,152,136235,2,0,L|260:220,1,80,8|0,0:0|0:0,0:0:0:0:
304,288,136757,1,0,0:0:0:0:
224,296,137018,2,0,P|184:300|144:288,2,80,0|8|0,0:0|0:0|0:0,0:0:0:0:
92,164,137800,6,0,P|132:176|159:203,1,80
88,240,138322,2,0,P|48:228|20:200,1,80,8|0,0:0|0:0,0:0:0:0:
20,120,138844,1,0,0:0:0:0:
84,76,139105,1,0,0:0:0:0:
164,80,139365,1,8,0:0:0:0:
228,128,139626,2,0,P|304:144|388:100,1,160
428,48,140409,1,8,0:0:0:0:
348,48,140670,2,0,P|384:112|468:116,1,160
480,196,141452,1,8,0:0:0:0:
436,264,141713,1,0,0:0:0:0:
372,312,141974,6,0,P|332:328|288:324,1,80,4|0,0:0|0:0,0:0:0:0:
244,204,142496,2,0,L|312:247,1,80,8|0,0:0|0:0,0:0:0:0:
372,192,143018,1,0,0:0:0:0:
304,148,143278,2,0,P|268:128|228:124,1,80,0|8,0:0|0:0,0:0:0:0:
160,164,143800,2,0,P|164:256|120:308,1,160
48,336,144583,1,8,0:0:0:0:
52,256,144844,1,0,0:0:0:0:
64,96,145365,5,0,0:0:0:0:
132,52,145626,1,8,0:0:0:0:
136,132,145887,1,0,0:0:0:0:
376,132,146409,1,0,0:0:0:0:
380,52,146670,1,8,0:0:0:0:
448,96,146931,1,0,0:0:0:0:
444,176,147192,2,0,P|404:244|452:316,1,160,0|8,0:0|0:0,0:0:0:0:
484,244,147974,1,0,0:0:0:0:
484,244,148235,6,0,L|316:236,1,160,0|8,0:0|0:0,0:0:0:0:
244,232,149018,2,0,L|196:228,2,40
288,164,149539,1,0,0:0:0:0:
240,100,149800,1,8,0:0:0:0:
168,136,150061,1,0,0:0:0:0:
164,216,150322,6,0,P|108:256|20:220,1,160,4|8,0:0|0:0,0:0:0:0:
92,180,151105,1,0,0:0:0:0:
92,180,151365,2,0,P|100:264|36:308,1,160,0|8,0:0|0:0,0:0:0:0:
28,228,152148,1,0,0:0:0:0:
28,228,152409,2,0,L|180:292,1,160,0|8,0:0|0:0,0:0:0:0:
252,316,153192,1,0,0:0:0:0:
332,308,153452,2,0,P|372:300|404:272,1,80
409,191,153974,2,0,P|369:199|340:224,1,80,8|0,0:0|0:0,0:0:0:0:
488,180,154496,6,0,P|484:88|428:44,1,160,0|8,0:0|0:0,0:0:0:0:
356,48,155278,1,0,0:0:0:0:
280,76,155539,2,0,P|212:132|136:124,1,160,0|8,0:0|0:0,0:0:0:0:
80,80,156322,1,0,0:0:0:0:
144,128,156583,2,0,L|152:296,1,160,0|8,0:0|0:0,0:0:0:0:
156,368,157365,1,0,0:0:0:0:
84,332,157626,2,0,L|220:244,1,160,0|8,0:0|0:0,0:0:0:0:
300,240,158409,1,0,0:0:0:0:
376,220,158670,6,0,P|432:152|424:80,1,160,4|8,0:0|0:0,0:0:0:0:
372,24,159452,1,0,0:0:0:0:
352,100,159713,2,0,P|428:80|448:4,1,160,0|8,0:0|0:0,0:0:0:0:
372,24,160496,1,0,0:0:0:0:
292,40,160757,2,0,P|272:112|320:176,1,160,0|8,0:0|0:0,0:0:0:0:
372,236,161539,1,0,0:0:0:0:
304,276,161800,2,0,L|232:316,1,80
212,236,162322,2,0,L|120:236,1,80,8|0,0:0|0:0,0:0:0:0:
64,192,162844,6,0,P|20:152|40:56,1,160,0|8,0:0|0:0,0:0:0:0:
192,32,163887,2,0,P|236:72|216:168,1,160,0|8,0:0|0:0,0:0:0:0:
128,116,164931,1,0,0:0:0:0:
148,192,165192,1,0,0:0:0:0:
204,248,165452,1,8,0:0:0:0:
284,256,165713,6,0,L|316:256,4,20,0|0|0|0|8,0:0|0:0|0:0|0:0|0:0,0:0:0:0:
204,248,166235,1,0,0:0:0:0:
132,284,166496,1,8,0:0:0:0:
100,356,166757,1,0,0:0:0:0:
180,356,167018,6,0,P|256:336|333:354,1,160,4|8,0:0|0:0,0:0:0:0:
420,348,167800,1,0,0:0:0:0:
476,280,168061,2,0,P|496:244|500:204,2,80,0|0|8,0:0|0:0|0:0,0:0:0:0:
412,216,168844,1,0,0:0:0:0:
400,128,169105,2,0,P|356:76|272:88,1,160,0|8,0:0|0:0,0:0:0:0:
188,120,169887,2,0,P|232:172|316:160,1,160
400,128,170670,1,8,0:0:0:0:
416,216,170931,1,0,0:0:0:0:
380,296,171192,6,0,P|352:324|312:340,1,80
292,256,171713,2,0,P|252:264|204:252,1,80,8|0,0:0|0:0,0:0:0:0:
132,232,172235,1,0,0:0:0:0:
132,232,172496,1,0,0:0:0:0:
88,156,172757,2,0,P|72:120|80:72,1,80,8|0,0:0|0:0,0:0:0:0:
152,108,173278,2,0,P|192:112|236:100,1,80
292,40,173800,1,8,0:0:0:0:
380,36,174061,1,0,0:0:0:0:
448,92,174322,1,0,0:0:0:0:
440,180,174583,2,0,P|452:220|484:252,2,80,0|8|0,0:0|0:0|0:0,0:0:0:0:
364,136,175365,6,0,P|284:156|248:228,1,160,4|8,0:0|0:0,0:0:0:0:
240,308,176148,1,0,0:0:0:0:
152,324,176409,2,0,P|108:332|28:312,1,120
8,280,176931,1,8,0:0:0:0:
8,192,177192,1,0,0:0:0:0:
84,144,177452,2,0,P|172:140|204:80,1,160,0|8,0:0|0:0,0:0:0:0:
128,80,178235,2,0,P|164:144|248:152,1,160
328,128,179018,1,8,0:0:0:0:
408,168,179278,1,0,0:0:0:0:
400,256,179539,6,0,P|360:248|332:216,1,80
420,80,180061,2,0,P|460:88|488:120,1,80,8|0,0:0|0:0,0:0:0:0:
484,204,180583,1,0,0:0:0:0:
484,204,180844,2,0,L|480:296,1,80,0|8,0:0|0:0,0:0:0:0:
416,344,181365,1,0,0:0:0:0:
328,340,181626,6,0,P|296:324|264:284,1,80
280,204,182148,2,0,P|312:220|341:254,1,80,8|0,0:0|0:0,0:0:0:0:
192,224,182670,2,0,P|192:176|208:144,1,80
264,80,183192,1,8,0:0:0:0:
352,68,183452,1,0,0:0:0:0:
316,148,183713,5,4,0:0:0:0:
256,192,183844,12,2,185801,0:0:0:0:
432,80,200409,6,0,P|416:168|356:200,1,160,4|2,0:0|0:0,0:0:0:0:
80,80,201452,2,0,P|96:168|156:200,1,160,0|2,0:0|0:0,0:0:0:0:
256,320,202496,2,0,B|236:272|280:216|256:160,1,160,0|2,0:0|0:0,0:0:0:0:
216,92,203278,1,0,0:0:0:0:
140,68,203539,1,0,0:0:0:0:
76,116,203800,2,0,P|36:100|8:68,2,80,0|2|0,0:0|0:0|0:0,0:0:0:0:
104,192,204583,6,0,P|152:252|128:336,1,160,0|2,0:0|0:0,0:0:0:0:
64,364,205365,1,0,0:0:0:0:
4,312,205626,1,0,0:0:0:0:
72,272,205887,2,0,L|240:252,1,160,0|0,0:0|0:0,0:0:0:0:
312,260,206670,2,0,P|352:260|396:280,1,80
468,260,207192,1,2,0:0:0:0:
416,200,207452,2,0,P|346:182|254:190,1,160,0|0,0:0|0:0,0:0:0:0:
180,192,208235,1,2,0:0:0:0:
108,228,208496,1,0,0:0:0:0:
52,284,208757,6,0,P|140:284|180:344,1,160,4|2,0:0|0:0,0:0:0:0:
460,284,209801,2,0,P|372:284|332:344,1,160,0|2,0:0|0:0,0:0:0:0:
256,196,210844,2,0,B|228:248|288:296|256:351,1,160,0|2,0:0|0:0,0:0:0:0:
184,316,211626,1,0,0:0:0:0:
176,236,211887,2,0,P|176:196|196:156,1,80,0|0,0:0|0:0,0:0:0:0:
124,116,212409,2,0,P|156:88|200:80,1,80,2|0,0:0|0:0,0:0:0:0:
268,104,212931,6,0,P|344:136|424:112,1,160,0|2,0:0|0:0,0:0:0:0:
440,40,213713,2,0,P|420:128|464:196,1,160,0|0,0:0|0:0,0:0:0:0:
488,256,214496,1,2,0:0:0:0:
444,324,214757,2,0,P|360:296|288:328,1,160,0|0,0:0|0:0,0:0:0:0:
220,344,215539,2,0,P|180:348|144:324,1,80,2|0,0:0|0:0,0:0:0:0:
120,252,216061,2,0,P|160:248|192:268,1,80,0|0,0:0|0:0,0:0:0:0:
72,184,216583,2,0,P|68:144|79:106,1,80,2|0,0:0|0:0,0:0:0:0:
204,56,217105,6,0,B|188:44|164:48|152:68|156:92|156:92|160:116|176:140|200:160,1,160,4|8,0:0|0:0,0:0:0:0:
308,56,218148,2,0,B|324:44|348:48|360:68|356:92|356:92|352:116|336:140|312:160,1,160,0|8,0:0|0:0,0:0:0:0:
256,216,218931,1,0,0:0:0:0:
184,260,219192,2,0,P|256:292|326:261,1,160,0|8,0:0|0:0,0:0:0:0:
368,192,219974,1,0,0:0:0:0:
368,112,220235,2,0,P|396:88|440:80,1,80
504,124,220757,2,0,P|476:148|432:156,1,80,8|0,0:0|0:0,0:0:0:0:
368,192,221278,6,0,P|396:272|356:336,1,160,0|8,0:0|0:0,0:0:0:0:
316,264,222061,2,0,P|244:296|160:260,1,160
136,196,222844,1,8,0:0:0:0:
216,204,223105,2,0,P|176:268|88:264,1,160
32,220,223887,1,8,0:0:0:0:
36,140,224148,2,0,P|76:76|164:80,1,160
220,120,224931,1,8,0:0:0:0:
220,120,225452,6,0,L|384:120,1,160,4|8,0:0|0:0,0:0:0:0:
296,256,226496,2,0,L|136:256,1,160,0|8,0:0|0:0,0:0:0:0:
56,240,227278,1,0,0:0:0:0:
120,192,227539,2,0,L|140:356,1,160,0|8,0:0|0:0,0:0:0:0:
220,364,228322,1,0,0:0:0:0:
300,352,228583,2,0,L|380:336,1,80
388,259,229105,2,0,P|424:268|452:300,1,80,8|0,0:0|0:0,0:0:0:0:
308,264,229626,6,0,P|236:244|220:168,1,160,0|8,0:0|0:0,0:0:0:0:
204,88,230409,2,0,P|276:108|292:184,1,160
308,264,231192,1,8,0:0:0:0:
284,340,231452,1,0,0:0:0:0:
204,352,231713,6,0,L|168:328,3,40
128,344,232234,2,0,L|112:308,3,40,8|0|0|0,0:0|0:0|0:0|0:0,0:0:0:0:
100,280,232756,1,8,0:0:0:0:
152,216,233018,1,0,0:0:0:0:
144,136,233278,1,8,0:0:0:0:
112,64,233539,1,0,0:0:0:0:
144,136,233800,6,0,P|232:160|296:104,1,160,4|8,0:0|0:0,0:0:0:0:
332,48,234583,1,0,0:0:0:0:
416,68,234844,2,0,P|440:100|452:140,1,80
379,188,235365,2,0,P|371:232|380:265,1,80,8|0,0:0|0:0,3:0:0:0:
292,268,235887,2,0,P|208:256|156:316,1,160,0|8,0:0|0:0,0:0:0:0:
240,332,236670,2,0,L|188:172,1,160
160,96,237452,1,8,0:0:0:0:
160,96,237713,1,0,0:0:0:0:
248,100,237974,6,0,L|276:184,1,80
136,280,238496,2,0,L|110:204,1,80,8|0,0:0|0:0,0:0:0:0:
84,120,239018,1,0,0:0:0:0:
104,36,239278,1,0,0:0:0:0:
192,28,239539,1,8,0:0:0:0:
228,108,239800,1,0,0:0:0:0:
164,168,240061,2,0,P|228:212|312:200,1,160,0|8,0:0|0:0,0:0:0:0:
320,116,240844,2,0,L|292:284,1,160
264,356,241626,1,8,0:0:0:0:
176,364,241887,1,0,0:0:0:0:
132,288,242148,6,0,P|84:232|4:236,1,160,4|8,0:0|0:0,0:0:0:0:
48,312,242931,1,0,0:0:0:0:
132,288,243192,2,0,P|204:264|240:228,1,120,0|0,0:0|0:0,0:0:0:0:
264,200,243713,1,8,0:0:0:0:
288,116,243974,1,0,0:0:0:0:
376,112,244235,2,0,P|428:156|404:252,1,160,0|8,0:0|0:0,0:0:0:0:
384,320,245018,2,0,P|332:276|356:180,1,160,0|0,0:0|0:0,0:0:0:0:
376,112,245800,1,8,0:0:0:0:
316,48,246061,1,0,0:0:0:0:
232,76,246322,6,0,P|196:92|168:128,1,80
190,206,246844,2,0,P|226:190|252:160,1,80,8|0,0:0|0:0,0:0:0:0:
104,228,247365,1,0,0:0:0:0:
104,228,247626,2,0,P|112:304|168:368,1,160
252,348,248409,6,0,L|336:332,1,80
400,280,248931,1,8,0:0:0:0:
416,192,249192,1,0,0:0:0:0:
368,116,249452,2,0,P|340:144|332:192,1,80
472,256,249974,2,0,P|497:225|501:177,1,80,8|0,0:0|0:0,0:0:0:0:
460,108,250496,5,4,0:0:0:0:
256,192,250626,12,2,252583,0:0:0:0:
