osu file format v14

[General]
AudioFilename: [SDVX III ] Just Be Friends [NOFX].mp3
AudioLeadIn: 0
PreviewTime: -1
Countdown: 0
SampleSet: Soft
StackLeniency: 0.7
Mode: 3
LetterboxInBreaks: 0
SpecialStyle: 0
WidescreenStoryboard: 1

[Editor]
DistanceSpacing: 0.8
BeatDivisor: 4
GridSize: 32
TimelineZoom: 2.6

[Metadata]
Title:Just Be Friends
TitleUnicode:Just Be Friends
Artist:Dixie Flatline
ArtistUnicode:Dixie Flatline
Creator:shiinchan
Version:ADV
Source:Sound Voltex III Gravity Wars
Tags:
BeatmapID:681014
BeatmapSetID:303922

[Difficulty]
HPDrainRate:5
CircleSize:4
OverallDifficulty:5
ApproachRate:5
SliderMultiplier:1.4
SliderTickRate:1

[Events]
//Background and Video events
0,0,"Just.Be.Friends.full.1479577.jpg",0,0
//Break Periods
//Storyboard Layer 0 (Background)
//Storyboard Layer 1 (Fail)
//Storyboard Layer 2 (Pass)
//Storyboard Layer 3 (Foreground)
//Storyboard Sound Samples

[TimingPoints]
5302,468.75,4,2,0,35,1,0
65777.3107672665,-100,4,2,0,35,0,1
95770,-100,4,2,0,35,0,0

[HitObjects]
448,192,614,128,0,1552:0:0:0:0:
320,192,1552,1,0,0:0:0:0:
192,192,1630,1,0,0:0:0:0:
64,192,1708,1,0,0:0:0:0:
192,192,1786,1,0,0:0:0:0:
320,192,1864,1,0,0:0:0:0:
448,192,1942,1,0,0:0:0:0:
320,192,2020,1,0,0:0:0:0:
192,192,2098,1,0,0:0:0:0:
64,192,2177,1,0,0:0:0:0:
192,192,2255,1,0,0:0:0:0:
320,192,2333,1,0,0:0:0:0:
448,192,2411,1,0,0:0:0:0:
320,192,2489,1,0,0:0:0:0:
192,192,2567,1,0,0:0:0:0:
64,192,2645,1,0,0:0:0:0:
192,192,2723,1,0,0:0:0:0:
320,192,2802,1,0,0:0:0:0:
448,192,2880,1,0,0:0:0:0:
320,192,2958,1,0,0:0:0:0:
192,192,2958,1,0,0:0:0:0:
64,192,3192,1,0,0:0:0:0:
448,192,3192,1,0,0:0:0:0:
192,192,3427,128,0,5302:0:0:0:0:
320,192,3427,128,0,5302:0:0:0:0:
64,192,5302,1,0,0:0:0:0:
448,192,5302,1,0,0:0:0:0:
64,192,5536,1,0,0:0:0:0:
192,192,5536,1,0,0:0:0:0:
320,192,5770,1,0,0:0:0:0:
448,192,5770,1,0,0:0:0:0:
320,192,6239,128,0,6708:0:0:0:0:
448,192,6239,128,0,7177:0:0:0:0:
192,192,6239,1,8,0:0:0:0:
192,192,6708,1,0,0:0:0:0:
320,192,7177,1,8,0:0:0:0:
448,192,7645,1,0,0:0:0:0:
64,192,7645,1,0,0:0:0:0:
192,192,7880,1,0,0:0:0:0:
320,192,7997,1,0,0:0:0:0:
192,192,8114,1,0,0:0:0:0:
320,192,8583,1,0,0:0:0:0:
448,192,8583,128,0,9520:0:0:0:0:
64,192,8583,1,0,0:0:0:0:
192,192,8700,1,0,0:0:0:0:
64,192,8817,1,0,0:0:0:0:
192,192,8934,1,0,0:0:0:0:
320,192,9052,1,8,0:0:0:0:
192,192,9169,1,0,0:0:0:0:
320,192,9286,128,0,9520:0:0:0:0:
64,192,9286,1,0,0:0:0:0:
192,192,9520,1,0,0:0:0:0:
64,192,9989,128,0,10927:0:0:0:0:
192,192,9989,128,0,10458:0:0:0:0:
320,192,9989,1,8,0:0:0:0:
320,192,10458,1,0,0:0:0:0:
192,192,10927,1,8,0:0:0:0:
64,192,11395,1,0,0:0:0:0:
448,192,11395,1,0,0:0:0:0:
320,192,11630,1,0,0:0:0:0:
192,192,11747,1,0,0:0:0:0:
320,192,11864,1,0,0:0:0:0:
64,192,12333,128,0,13270:0:0:0:0:
192,192,12333,1,0,0:0:0:0:
448,192,12333,1,0,0:0:0:0:
320,192,12450,1,0,0:0:0:0:
448,192,12567,1,0,0:0:0:0:
320,192,12684,1,0,0:0:0:0:
192,192,12802,1,8,0:0:0:0:
320,192,12919,1,0,0:0:0:0:
448,192,13036,1,0,0:0:0:0:
192,192,13036,128,0,13270:0:0:0:0:
448,192,13270,1,0,0:0:0:0:
448,192,13739,128,0,14677:0:0:0:0:
320,192,13739,128,0,14208:0:0:0:0:
192,192,13739,1,8,0:0:0:0:
192,192,14208,1,0,0:0:0:0:
320,192,14677,1,8,0:0:0:0:
448,192,15145,1,0,0:0:0:0:
64,192,15145,1,0,0:0:0:0:
192,192,15380,1,0,0:0:0:0:
320,192,15497,1,0,0:0:0:0:
192,192,15614,1,0,0:0:0:0:
320,192,16083,128,0,17020:0:0:0:0:
448,192,16083,1,0,0:0:0:0:
192,192,16083,1,0,0:0:0:0:
64,192,16200,1,0,0:0:0:0:
192,192,16317,1,0,0:0:0:0:
448,192,16434,1,0,0:0:0:0:
192,192,16552,1,8,0:0:0:0:
64,192,16669,1,0,0:0:0:0:
448,192,16786,128,0,17020:0:0:0:0:
192,192,16786,1,0,0:0:0:0:
192,192,17020,1,0,0:0:0:0:
64,192,17489,128,0,18427:0:0:0:0:
320,192,17489,1,8,0:0:0:0:
192,192,17489,128,0,17958:0:0:0:0:
320,192,17958,1,0,0:0:0:0:
192,192,18427,1,8,0:0:0:0:
64,192,18893,1,0,0:0:0:0:
448,192,18895,1,0,0:0:0:0:
320,192,19128,1,0,0:0:0:0:
192,192,19247,1,0,0:0:0:0:
320,192,19362,1,0,0:0:0:0:
64,192,19831,1,0,0:0:0:0:
320,192,19833,128,0,20302:0:0:0:0:
448,192,19833,128,0,20067:0:0:0:0:
192,192,19948,1,0,0:0:0:0:
192,192,20067,128,0,20302:0:0:0:0:
64,192,20067,1,8,0:0:0:0:
64,192,20302,1,8,0:0:0:0:
448,192,20302,1,8,0:0:0:0:
448,192,20536,1,0,0:0:0:0:
320,192,20536,1,8,0:0:0:0:
192,192,20768,1,8,0:0:0:0:
64,192,20768,1,0,0:0:0:0:
448,192,21239,128,0,22645:0:0:0:0:
320,192,21239,1,8,0:0:0:0:
192,192,21239,1,0,0:0:0:0:
320,192,21473,1,0,0:0:0:0:
192,192,21708,1,0,0:0:0:0:
64,192,21942,1,0,0:0:0:0:
192,192,22177,1,0,0:0:0:0:
64,192,22177,1,8,0:0:0:0:
320,192,22411,128,0,22645:0:0:0:0:
192,192,22645,1,0,0:0:0:0:
192,192,22880,1,0,0:0:0:0:
320,192,22997,1,0,0:0:0:0:
192,192,23114,1,0,0:0:0:0:
192,192,23583,1,0,0:0:0:0:
64,192,23583,128,0,24520:0:0:0:0:
448,192,23583,1,8,0:0:0:0:
320,192,23700,1,0,0:0:0:0:
448,192,23817,1,0,0:0:0:0:
320,192,23934,1,0,0:0:0:0:
192,192,24052,1,8,0:0:0:0:
320,192,24169,1,0,0:0:0:0:
448,192,24286,1,0,0:0:0:0:
192,192,24286,128,0,24520:0:0:0:0:
320,192,24518,1,8,0:0:0:0:
320,192,24989,1,0,0:0:0:0:
64,192,24989,128,0,25927:0:0:0:0:
192,192,24989,1,8,0:0:0:0:
192,192,25223,1,0,0:0:0:0:
320,192,25458,1,0,0:0:0:0:
448,192,25692,1,0,0:0:0:0:
192,192,25692,128,0,25927:0:0:0:0:
320,192,25927,1,0,0:0:0:0:
448,192,25927,1,8,0:0:0:0:
448,192,26393,1,0,0:0:0:0:
64,192,26393,1,0,0:0:0:0:
320,192,26628,1,0,0:0:0:0:
192,192,26747,1,0,0:0:0:0:
320,192,26862,1,0,0:0:0:0:
320,192,27333,1,0,0:0:0:0:
448,192,27333,128,0,28270:0:0:0:0:
64,192,27333,1,0,0:0:0:0:
192,192,27450,1,0,0:0:0:0:
64,192,27567,1,0,0:0:0:0:
192,192,27684,1,0,0:0:0:0:
320,192,27802,1,8,0:0:0:0:
192,192,27917,1,0,0:0:0:0:
64,192,28034,1,0,0:0:0:0:
320,192,28036,128,0,28270:0:0:0:0:
192,192,28268,1,0,0:0:0:0:
64,192,28505,128,0,28739:0:0:0:0:
448,192,28739,128,0,29677:0:0:0:0:
320,192,28739,1,8,0:0:0:0:
192,192,28739,1,0,0:0:0:0:
320,192,28973,1,0,0:0:0:0:
192,192,29208,1,0,0:0:0:0:
64,192,29442,1,0,0:0:0:0:
320,192,29442,128,0,29677:0:0:0:0:
192,192,29677,1,0,0:0:0:0:
64,192,29677,1,8,0:0:0:0:
448,192,30143,1,0,0:0:0:0:
64,192,30143,1,0,0:0:0:0:
320,192,30380,1,0,0:0:0:0:
192,192,30497,1,0,0:0:0:0:
320,192,30614,1,0,0:0:0:0:
448,192,31083,1,0,0:0:0:0:
64,192,31083,128,0,32020:0:0:0:0:
192,192,31083,1,0,0:0:0:0:
320,192,31200,1,0,0:0:0:0:
448,192,31317,1,0,0:0:0:0:
320,192,31434,1,0,0:0:0:0:
192,192,31552,1,0,0:0:0:0:
320,192,31669,1,0,0:0:0:0:
448,192,31786,1,0,0:0:0:0:
192,192,31786,128,0,32020:0:0:0:0:
320,192,32018,1,0,0:0:0:0:
448,192,32489,1,0,0:0:0:0:
192,192,32489,1,8,0:0:0:0:
64,192,32489,1,0,0:0:0:0:
320,192,32723,1,0,0:0:0:0:
192,192,32723,1,0,0:0:0:0:
64,192,32723,1,0,0:0:0:0:
448,192,32958,1,0,0:0:0:0:
320,192,32958,1,0,0:0:0:0:
192,192,32958,1,0,0:0:0:0:
320,192,33427,1,0,0:0:0:0:
448,192,33427,1,8,0:0:0:0:
64,192,33427,1,0,0:0:0:0:
320,192,33659,1,0,0:0:0:0:
192,192,33659,1,0,0:0:0:0:
448,192,33659,1,0,0:0:0:0:
192,192,33895,1,0,0:0:0:0:
64,192,33895,1,0,0:0:0:0:
320,192,33895,1,0,0:0:0:0:
448,192,34364,1,0,0:0:0:0:
64,192,34364,1,8,0:0:0:0:
192,192,34364,1,0,0:0:0:0:
448,192,34831,1,0,0:0:0:0:
320,192,34948,1,0,0:0:0:0:
192,192,35065,1,0,0:0:0:0:
64,192,35182,1,0,0:0:0:0:
320,192,35302,128,0,35770:0:0:0:0:
192,192,35302,1,0,0:0:0:0:
448,192,35536,1,0,0:0:0:0:
192,192,35770,128,0,36239:0:0:0:0:
64,192,35770,128,0,36239:0:0:0:0:
448,192,36239,128,0,36942:0:0:0:0:
320,192,36239,128,0,36708:0:0:0:0:
192,192,36708,1,8,0:0:0:0:
320,192,36940,1,8,0:0:0:0:
64,192,37177,1,0,0:0:0:0:
320,192,37177,1,0,0:0:0:0:
448,192,37177,1,0,0:0:0:0:
320,192,37411,128,0,37880:0:0:0:0:
192,192,37411,128,0,37645:0:0:0:0:
448,192,37411,128,0,39052:0:0:0:0:
64,192,37411,1,8,0:0:0:0:
64,192,37645,128,0,37880:0:0:0:0:
192,192,37880,128,0,38114:0:0:0:0:
64,192,38112,1,8,0:0:0:0:
320,192,38114,128,0,38348:0:0:0:0:
192,192,38348,128,0,38583:0:0:0:0:
64,192,38348,1,0,0:0:0:0:
64,192,38583,128,0,38817:0:0:0:0:
320,192,38583,1,8,0:0:0:0:
192,192,38817,128,0,39052:0:0:0:0:
64,192,39050,1,8,0:0:0:0:
320,192,39052,1,0,0:0:0:0:
320,192,39520,128,0,39755:0:0:0:0:
448,192,39520,1,8,0:0:0:0:
64,192,39520,128,0,40692:0:0:0:0:
192,192,39753,1,0,0:0:0:0:
192,192,39989,1,0,0:0:0:0:
448,192,39989,1,8,0:0:0:0:
320,192,40458,128,0,40692:0:0:0:0:
448,192,40458,1,8,0:0:0:0:
192,192,40692,1,0,0:0:0:0:
448,192,40927,1,8,0:0:0:0:
192,192,40927,1,0,0:0:0:0:
64,192,40927,1,0,0:0:0:0:
192,192,41161,128,0,41630:0:0:0:0:
64,192,41161,128,0,42802:0:0:0:0:
320,192,41161,128,0,41395:0:0:0:0:
448,192,41161,1,0,0:0:0:0:
448,192,41395,128,0,41630:0:0:0:0:
320,192,41630,128,0,41864:0:0:0:0:
448,192,41862,1,8,0:0:0:0:
192,192,41864,128,0,42098:0:0:0:0:
320,192,42098,128,0,42333:0:0:0:0:
448,192,42098,1,0,0:0:0:0:
448,192,42333,128,0,42567:0:0:0:0:
192,192,42333,1,8,0:0:0:0:
320,192,42567,128,0,42802:0:0:0:0:
448,192,42802,1,8,0:0:0:0:
192,192,42802,1,0,0:0:0:0:
64,192,43268,1,8,0:0:0:0:
192,192,43268,128,0,43503:0:0:0:0:
448,192,43270,128,0,44442:0:0:0:0:
320,192,43505,1,0,0:0:0:0:
320,192,43739,1,0,0:0:0:0:
64,192,43739,1,8,0:0:0:0:
192,192,44208,128,0,44442:0:0:0:0:
64,192,44208,1,8,0:0:0:0:
320,192,44442,1,0,0:0:0:0:
320,192,44677,1,0,0:0:0:0:
192,192,44677,1,0,0:0:0:0:
448,192,44677,1,8,0:0:0:0:
448,192,44909,128,0,45612:0:0:0:0:
320,192,44909,128,0,45143:0:0:0:0:
192,192,44909,128,0,45143:0:0:0:0:
64,192,44909,1,8,0:0:0:0:
64,192,45143,128,0,45378:0:0:0:0:
192,192,45378,128,0,45612:0:0:0:0:
320,192,45378,1,0,0:0:0:0:
320,192,45612,128,0,45846:0:0:0:0:
64,192,45612,1,8,0:0:0:0:
192,192,45846,128,0,46081:0:0:0:0:
64,192,45846,128,0,46081:0:0:0:0:
448,192,45846,128,0,46550:0:0:0:0:
320,192,46081,128,0,46315:0:0:0:0:
64,192,46315,128,0,46550:0:0:0:0:
192,192,46315,128,0,46550:0:0:0:0:
320,192,46550,1,8,0:0:0:0:
192,192,47020,1,8,0:0:0:0:
64,192,47020,128,0,48192:0:0:0:0:
320,192,47020,128,0,47255:0:0:0:0:
448,192,47255,1,0,0:0:0:0:
320,192,47489,1,8,0:0:0:0:
192,192,47489,1,0,0:0:0:0:
320,192,47958,128,0,48192:0:0:0:0:
192,192,47958,1,8,0:0:0:0:
448,192,48192,1,0,0:0:0:0:
192,192,48427,1,8,0:0:0:0:
320,192,48427,1,0,0:0:0:0:
64,192,48427,1,0,0:0:0:0:
320,192,48661,128,0,48895:0:0:0:0:
192,192,48661,128,0,48895:0:0:0:0:
64,192,48661,128,0,49130:0:0:0:0:
448,192,48661,1,0,0:0:0:0:
448,192,48895,128,0,49130:0:0:0:0:
320,192,49130,128,0,49364:0:0:0:0:
192,192,49130,1,0,0:0:0:0:
64,192,49364,128,0,49833:0:0:0:0:
192,192,49364,128,0,49598:0:0:0:0:
448,192,49364,1,8,0:0:0:0:
448,192,49598,128,0,49833:0:0:0:0:
320,192,49598,128,0,49833:0:0:0:0:
192,192,49833,1,8,0:0:0:0:
320,192,50067,1,0,0:0:0:0:
192,192,50184,1,0,0:0:0:0:
64,192,50300,1,8,0:0:0:0:
320,192,50300,1,0,0:0:0:0:
192,192,50417,1,0,0:0:0:0:
320,192,50534,1,0,0:0:0:0:
192,192,50651,1,0,0:0:0:0:
64,192,50770,1,8,0:0:0:0:
448,192,50770,128,0,51942:0:0:0:0:
320,192,50770,128,0,51239:0:0:0:0:
64,192,51239,1,0,0:0:0:0:
320,192,51708,128,0,51942:0:0:0:0:
64,192,51942,1,8,0:0:0:0:
320,192,52177,1,8,0:0:0:0:
448,192,52177,1,8,0:0:0:0:
64,192,52177,1,0,0:0:0:0:
320,192,52411,128,0,52645:0:0:0:0:
192,192,52645,128,0,52880:0:0:0:0:
448,192,52645,128,0,52880:0:0:0:0:
64,192,52645,1,8,0:0:0:0:
64,192,52880,128,0,53114:0:0:0:0:
320,192,52880,128,0,53114:0:0:0:0:
192,192,53114,128,0,53348:0:0:0:0:
448,192,53114,128,0,53348:0:0:0:0:
320,192,53348,128,0,53583:0:0:0:0:
64,192,53348,128,0,54052:0:0:0:0:
192,192,53583,128,0,54052:0:0:0:0:
448,192,53583,128,0,53817:0:0:0:0:
320,192,53817,128,0,54052:0:0:0:0:
448,192,54052,1,8,0:0:0:0:
192,192,54520,1,8,0:0:0:0:
320,192,54520,128,0,54755:0:0:0:0:
64,192,54520,128,0,55692:0:0:0:0:
448,192,54755,1,0,0:0:0:0:
448,192,54989,1,8,0:0:0:0:
192,192,54989,1,0,0:0:0:0:
192,192,55458,1,8,0:0:0:0:
320,192,55458,128,0,55692:0:0:0:0:
448,192,55692,1,0,0:0:0:0:
64,192,55927,1,0,0:0:0:0:
448,192,55927,1,8,0:0:0:0:
320,192,55927,1,0,0:0:0:0:
64,192,56161,128,0,56630:0:0:0:0:
448,192,56161,128,0,56630:0:0:0:0:
192,192,56161,128,0,56395:0:0:0:0:
320,192,56161,1,0,0:0:0:0:
320,192,56395,128,0,56630:0:0:0:0:
192,192,56630,128,0,56864:0:0:0:0:
448,192,56864,128,0,57333:0:0:0:0:
64,192,56864,128,0,57333:0:0:0:0:
320,192,56864,128,0,57098:0:0:0:0:
192,192,57098,128,0,57333:0:0:0:0:
320,192,57333,128,0,57802:0:0:0:0:
64,192,57567,128,0,57802:0:0:0:0:
448,192,57567,128,0,57802:0:0:0:0:
192,192,57802,1,8,0:0:0:0:
192,192,58270,128,0,58505:0:0:0:0:
64,192,58270,1,8,0:0:0:0:
448,192,58270,128,0,59442:0:0:0:0:
320,192,58505,1,0,0:0:0:0:
320,192,58739,1,8,0:0:0:0:
192,192,58739,1,0,0:0:0:0:
64,192,59206,1,8,0:0:0:0:
192,192,59206,128,0,59440:0:0:0:0:
320,192,59440,1,0,0:0:0:0:
320,192,59677,1,0,0:0:0:0:
192,192,59677,1,8,0:0:0:0:
64,192,59677,1,0,0:0:0:0:
192,192,59911,128,0,60145:0:0:0:0:
320,192,59911,128,0,60145:0:0:0:0:
64,192,59911,1,0,0:0:0:0:
448,192,59911,128,0,60380:0:0:0:0:
64,192,60145,128,0,60380:0:0:0:0:
320,192,60380,128,0,60614:0:0:0:0:
192,192,60380,128,0,60614:0:0:0:0:
448,192,60614,128,0,61083:0:0:0:0:
64,192,60614,1,8,0:0:0:0:
192,192,60848,128,0,61083:0:0:0:0:
320,192,60848,128,0,61083:0:0:0:0:
64,192,60848,1,0,0:0:0:0:
64,192,61083,1,8,0:0:0:0:
192,192,61317,1,0,0:0:0:0:
320,192,61434,1,0,0:0:0:0:
192,192,61552,1,0,0:0:0:0:
64,192,62020,1,0,0:0:0:0:
192,192,62020,1,8,0:0:0:0:
448,192,62020,128,0,62489:0:0:0:0:
192,192,62255,1,0,0:0:0:0:
192,192,62489,1,0,0:0:0:0:
320,192,62489,1,8,0:0:0:0:
448,192,62958,1,0,0:0:0:0:
64,192,62958,128,0,63427:0:0:0:0:
320,192,62958,1,8,0:0:0:0:
320,192,63192,1,0,0:0:0:0:
192,192,63427,1,8,0:0:0:0:
320,192,63427,1,0,0:0:0:0:
320,192,63659,1,0,0:0:0:0:
192,192,63776,1,0,0:0:0:0:
64,192,63895,1,8,0:0:0:0:
320,192,64012,1,0,0:0:0:0:
192,192,64130,1,8,0:0:0:0:
64,192,64130,128,0,64364:0:0:0:0:
320,192,64364,1,0,0:0:0:0:
192,192,64364,1,8,0:0:0:0:
64,192,64598,1,8,0:0:0:0:
192,192,64716,1,0,0:0:0:0:
320,192,64833,1,8,0:0:0:0:
64,192,64950,1,8,0:0:0:0:
192,192,65067,1,8,0:0:0:0:
320,192,65067,128,0,65302:0:0:0:0:
448,192,65302,128,0,65536:0:0:0:0:
320,192,65536,1,8,0:0:0:0:
192,192,65770,1,8,0:0:0:0:
448,192,65770,1,0,0:0:0:0:
320,192,65770,128,0,67177:0:0:0:0:
64,192,66005,1,0,0:0:0:0:
192,192,66239,1,0,0:0:0:0:
448,192,66239,1,8,0:0:0:0:
448,192,66473,1,0,0:0:0:0:
192,192,66708,1,0,0:0:0:0:
64,192,66708,1,8,0:0:0:0:
192,192,66942,1,0,0:0:0:0:
448,192,67175,1,8,0:0:0:0:
192,192,67177,128,0,67645:0:0:0:0:
64,192,67411,1,0,0:0:0:0:
448,192,67645,1,0,0:0:0:0:
320,192,67645,1,8,0:0:0:0:
64,192,67645,128,0,67880:0:0:0:0:
192,192,67880,1,0,0:0:0:0:
320,192,67997,1,0,0:0:0:0:
192,192,68114,1,0,0:0:0:0:
448,192,68348,1,0,0:0:0:0:
64,192,68348,128,0,69520:0:0:0:0:
320,192,68466,1,0,0:0:0:0:
192,192,68583,1,8,0:0:0:0:
320,192,68700,1,0,0:0:0:0:
448,192,68817,1,0,0:0:0:0:
320,192,68934,1,0,0:0:0:0:
320,192,69052,1,0,0:0:0:0:
192,192,69169,1,0,0:0:0:0:
320,192,69286,1,0,0:0:0:0:
192,192,69403,1,0,0:0:0:0:
448,192,69520,1,8,0:0:0:0:
320,192,69520,1,0,0:0:0:0:
192,192,69755,128,0,70927:0:0:0:0:
64,192,69755,1,8,0:0:0:0:
320,192,69755,1,0,0:0:0:0:
448,192,69989,1,0,0:0:0:0:
320,192,70223,1,8,0:0:0:0:
64,192,70223,1,0,0:0:0:0:
320,192,70458,1,0,0:0:0:0:
448,192,70692,1,8,0:0:0:0:
320,192,70692,1,0,0:0:0:0:
64,192,70927,1,8,0:0:0:0:
320,192,70927,128,0,71395:0:0:0:0:
448,192,71161,1,0,0:0:0:0:
64,192,71395,1,0,0:0:0:0:
448,192,71395,128,0,71630:0:0:0:0:
192,192,71395,1,8,0:0:0:0:
320,192,71628,1,0,0:0:0:0:
192,192,71747,1,0,0:0:0:0:
320,192,71864,1,0,0:0:0:0:
448,192,72333,128,0,73270:0:0:0:0:
320,192,72333,1,8,0:0:0:0:
192,192,72450,1,0,0:0:0:0:
64,192,72567,1,0,0:0:0:0:
192,192,72684,1,0,0:0:0:0:
192,192,72802,1,0,0:0:0:0:
320,192,72919,1,0,0:0:0:0:
192,192,73036,1,0,0:0:0:0:
320,192,73153,1,0,0:0:0:0:
192,192,73270,1,0,0:0:0:0:
64,192,73270,1,8,0:0:0:0:
192,192,73505,128,0,74208:0:0:0:0:
320,192,73505,1,0,0:0:0:0:
448,192,73505,1,8,0:0:0:0:
448,192,73739,1,0,0:0:0:0:
320,192,73973,1,0,0:0:0:0:
64,192,73973,1,8,0:0:0:0:
64,192,74208,1,0,0:0:0:0:
320,192,74208,128,0,74677:0:0:0:0:
448,192,74442,1,8,0:0:0:0:
192,192,74442,1,0,0:0:0:0:
192,192,74677,1,0,0:0:0:0:
448,192,74677,128,0,75145:0:0:0:0:
64,192,74911,1,0,0:0:0:0:
192,192,74911,1,8,0:0:0:0:
320,192,75145,128,0,75380:0:0:0:0:
192,192,75145,1,0,0:0:0:0:
192,192,75380,1,0,0:0:0:0:
320,192,75497,1,0,0:0:0:0:
192,192,75614,1,0,0:0:0:0:
64,192,76083,128,0,77020:0:0:0:0:
448,192,76083,1,8,0:0:0:0:
320,192,76200,1,0,0:0:0:0:
192,192,76317,1,0,0:0:0:0:
320,192,76434,1,0,0:0:0:0:
320,192,76552,1,0,0:0:0:0:
448,192,76669,1,0,0:0:0:0:
320,192,76786,1,0,0:0:0:0:
448,192,76903,1,0,0:0:0:0:
192,192,77020,1,8,0:0:0:0:
320,192,77020,128,0,77958:0:0:0:0:
64,192,77255,1,8,0:0:0:0:
192,192,77255,1,0,0:0:0:0:
64,192,77489,1,0,0:0:0:0:
192,192,77723,1,0,0:0:0:0:
448,192,77723,1,8,0:0:0:0:
448,192,77958,1,0,0:0:0:0:
192,192,77958,128,0,78427:0:0:0:0:
320,192,78192,1,0,0:0:0:0:
64,192,78192,1,8,0:0:0:0:
320,192,78427,1,0,0:0:0:0:
64,192,78427,128,0,78895:0:0:0:0:
192,192,78661,1,8,0:0:0:0:
320,192,78661,1,0,0:0:0:0:
448,192,78893,1,0,0:0:0:0:
192,192,78895,128,0,79130:0:0:0:0:
320,192,79130,1,0,0:0:0:0:
192,192,79247,1,0,0:0:0:0:
320,192,79364,1,0,0:0:0:0:
320,192,79833,1,8,0:0:0:0:
448,192,79833,128,0,80770:0:0:0:0:
192,192,79950,1,0,0:0:0:0:
64,192,80067,1,0,0:0:0:0:
192,192,80184,1,0,0:0:0:0:
192,192,80302,1,0,0:0:0:0:
320,192,80419,1,0,0:0:0:0:
192,192,80536,1,0,0:0:0:0:
320,192,80653,1,0,0:0:0:0:
64,192,80770,1,0,0:0:0:0:
192,192,80770,128,0,81708:0:0:0:0:
320,192,81005,1,0,0:0:0:0:
448,192,81005,1,8,0:0:0:0:
320,192,81237,1,0,0:0:0:0:
64,192,81473,1,0,0:0:0:0:
320,192,81708,1,0,0:0:0:0:
448,192,81708,128,0,82645:0:0:0:0:
64,192,81708,1,8,0:0:0:0:
64,192,81942,1,0,0:0:0:0:
320,192,82177,1,8,0:0:0:0:
64,192,82177,1,0,0:0:0:0:
192,192,82411,1,0,0:0:0:0:
64,192,82645,128,0,82880:0:0:0:0:
320,192,82645,1,8,0:0:0:0:
192,192,82645,1,0,0:0:0:0:
192,192,82880,1,0,0:0:0:0:
320,192,82995,1,0,0:0:0:0:
192,192,83114,1,0,0:0:0:0:
192,192,83581,1,8,0:0:0:0:
64,192,83583,128,0,84520:0:0:0:0:
320,192,83698,1,0,0:0:0:0:
448,192,83815,1,0,0:0:0:0:
320,192,83932,1,0,0:0:0:0:
320,192,84052,1,8,0:0:0:0:
192,192,84169,1,0,0:0:0:0:
320,192,84286,1,0,0:0:0:0:
192,192,84403,1,0,0:0:0:0:
448,192,84520,1,8,0:0:0:0:
320,192,84520,1,0,0:0:0:0:
192,192,84520,128,0,85458:0:0:0:0:
448,192,84755,1,0,0:0:0:0:
320,192,84755,1,8,0:0:0:0:
320,192,84989,1,0,0:0:0:0:
64,192,85223,1,0,0:0:0:0:
320,192,85458,128,0,85692:0:0:0:0:
192,192,85692,128,0,86395:0:0:0:0:
448,192,85692,1,0,0:0:0:0:
64,192,85927,1,0,0:0:0:0:
320,192,86161,1,0,0:0:0:0:
448,192,86395,1,8,0:0:0:0:
64,192,86395,128,0,86630:0:0:0:0:
320,192,86395,1,0,0:0:0:0:
192,192,86630,1,0,0:0:0:0:
320,192,86747,1,0,0:0:0:0:
192,192,86862,1,0,0:0:0:0:
320,192,87331,1,8,0:0:0:0:
448,192,87333,128,0,88270:0:0:0:0:
192,192,87448,1,0,0:0:0:0:
64,192,87565,1,0,0:0:0:0:
192,192,87682,1,0,0:0:0:0:
192,192,87802,1,8,0:0:0:0:
320,192,87919,1,0,0:0:0:0:
192,192,88036,1,0,0:0:0:0:
320,192,88153,1,0,0:0:0:0:
192,192,88270,1,0,0:0:0:0:
64,192,88270,1,8,0:0:0:0:
64,192,88505,128,0,89208:0:0:0:0:
448,192,88505,1,8,0:0:0:0:
192,192,88505,1,0,0:0:0:0:
320,192,88739,1,0,0:0:0:0:
448,192,88973,1,0,0:0:0:0:
320,192,89208,1,0,0:0:0:0:
448,192,89208,128,0,90145:0:0:0:0:
192,192,89208,1,8,0:0:0:0:
64,192,89442,1,0,0:0:0:0:
192,192,89675,1,0,0:0:0:0:
320,192,89911,1,0,0:0:0:0:
320,192,90145,1,8,0:0:0:0:
64,192,90145,1,0,0:0:0:0:
192,192,90145,128,0,90380:0:0:0:0:
320,192,90380,1,0,0:0:0:0:
448,192,90497,1,0,0:0:0:0:
320,192,90614,1,0,0:0:0:0:
192,192,91083,1,8,0:0:0:0:
64,192,91083,128,0,92020:0:0:0:0:
320,192,91200,1,0,0:0:0:0:
448,192,91317,1,0,0:0:0:0:
320,192,91434,1,0,0:0:0:0:
320,192,91552,1,0,0:0:0:0:
192,192,91669,1,0,0:0:0:0:
320,192,91786,1,0,0:0:0:0:
192,192,91903,1,0,0:0:0:0:
320,192,92020,1,0,0:0:0:0:
448,192,92020,1,8,0:0:0:0:
192,192,92020,128,0,92723:0:0:0:0:
320,192,92255,1,8,0:0:0:0:
64,192,92255,1,0,0:0:0:0:
320,192,92489,1,0,0:0:0:0:
64,192,92723,1,0,0:0:0:0:
448,192,92958,1,8,0:0:0:0:
64,192,92958,128,0,93427:0:0:0:0:
192,192,92958,1,0,0:0:0:0:
320,192,93192,1,0,0:0:0:0:
448,192,93427,1,0,0:0:0:0:
320,192,93661,1,0,0:0:0:0:
64,192,93661,128,0,94130:0:0:0:0:
448,192,93895,1,0,0:0:0:0:
192,192,93895,1,8,0:0:0:0:
320,192,94130,1,0,0:0:0:0:
192,192,94364,1,0,0:0:0:0:
64,192,94364,128,0,94833:0:0:0:0:
320,192,94598,1,0,0:0:0:0:
320,192,94833,1,8,0:0:0:0:
192,192,94833,1,0,0:0:0:0:
64,192,95067,1,0,0:0:0:0:
192,192,95184,1,0,0:0:0:0:
320,192,95300,1,8,0:0:0:0:
192,192,95417,1,0,0:0:0:0:
64,192,95534,1,0,0:0:0:0:
192,192,95651,1,0,0:0:0:0:
448,192,95768,1,0,0:0:0:0:
320,192,95768,1,8,0:0:0:0:
64,192,96239,128,0,96708:0:0:0:0:
192,192,96239,128,0,96708:0:0:0:0:
320,192,96708,128,0,97177:0:0:0:0:
448,192,96708,128,0,97177:0:0:0:0:
192,192,97177,128,0,97645:0:0:0:0:
320,192,97645,128,0,98114:0:0:0:0:
64,192,98114,128,0,98583:0:0:0:0:
448,192,98583,128,0,99052:0:0:0:0:
320,192,99052,1,8,0:0:0:0:
192,192,99052,128,0,99286:0:0:0:0:
64,192,99286,1,0,0:0:0:0:
192,192,99520,1,8,0:0:0:0:
448,192,99520,1,0,0:0:0:0:
320,192,99520,128,0,99989:0:0:0:0:
192,192,99755,1,0,0:0:0:0:
192,192,99989,1,8,0:0:0:0:
64,192,99989,128,0,100458:0:0:0:0:
320,192,100223,1,0,0:0:0:0:
320,192,100458,1,8,0:0:0:0:
448,192,100458,128,0,100927:0:0:0:0:
192,192,100692,1,0,0:0:0:0:
192,192,100927,1,8,0:0:0:0:
64,192,100927,128,0,101395:0:0:0:0:
192,192,101395,128,0,101864:0:0:0:0:
320,192,101630,1,0,0:0:0:0:
320,192,101864,1,8,0:0:0:0:
64,192,101864,128,0,102333:0:0:0:0:
192,192,102098,1,0,0:0:0:0:
192,192,102333,1,8,0:0:0:0:
320,192,102333,128,0,102802:0:0:0:0:
448,192,102567,1,0,0:0:0:0:
448,192,102802,1,8,0:0:0:0:
192,192,102802,128,0,103270:0:0:0:0:
320,192,103036,1,0,0:0:0:0:
320,192,103270,1,8,0:0:0:0:
448,192,103739,128,0,104208:0:0:0:0:
320,192,103739,1,8,0:0:0:0:
320,192,104208,128,0,104677:0:0:0:0:
192,192,104208,1,8,0:0:0:0:
192,192,104677,128,0,105145:0:0:0:0:
64,192,104677,1,8,0:0:0:0:
64,192,105145,128,0,105614:0:0:0:0:
192,192,105614,128,0,106083:0:0:0:0:
320,192,105614,128,0,106083:0:0:0:0:
64,192,106083,128,0,106552:0:0:0:0:
448,192,106083,128,0,106552:0:0:0:0:
320,192,106552,1,8,0:0:0:0:
192,192,106552,1,0,0:0:0:0:
448,192,107020,1,8,0:0:0:0:
64,192,107020,128,0,107489:0:0:0:0:
320,192,107020,1,0,0:0:0:0:
192,192,107255,1,0,0:0:0:0:
192,192,107489,1,8,0:0:0:0:
320,192,107489,128,0,107958:0:0:0:0:
448,192,107723,1,0,0:0:0:0:
448,192,107958,1,8,0:0:0:0:
64,192,107958,128,0,108427:0:0:0:0:
192,192,108192,1,0,0:0:0:0:
192,192,108427,1,8,0:0:0:0:
192,192,108661,1,0,0:0:0:0:
320,192,108661,128,0,108895:0:0:0:0:
448,192,108895,1,8,0:0:0:0:
192,192,109364,128,0,109833:0:0:0:0:
320,192,109364,128,0,109833:0:0:0:0:
64,192,109833,128,0,110302:0:0:0:0:
448,192,110302,128,0,110770:0:0:0:0:
192,192,110770,128,0,111239:0:0:0:0:
448,192,111239,128,0,111708:0:0:0:0:
64,192,111708,128,0,112177:0:0:0:0:
320,192,112177,128,0,112645:0:0:0:0:
64,192,112645,128,0,113114:0:0:0:0:
192,192,112645,128,0,113114:0:0:0:0:
448,192,113114,128,0,113583:0:0:0:0:
320,192,113583,128,0,114052:0:0:0:0:
192,192,114052,1,0,0:0:0:0:
448,192,114052,1,8,0:0:0:0:
448,192,114520,1,8,0:0:0:0:
320,192,114520,128,0,114989:0:0:0:0:
448,192,114755,1,0,0:0:0:0:
192,192,114989,1,8,0:0:0:0:
64,192,114989,128,0,115458:0:0:0:0:
192,192,115223,1,0,0:0:0:0:
320,192,115458,1,8,0:0:0:0:
192,192,115458,128,0,115927:0:0:0:0:
320,192,115692,1,0,0:0:0:0:
448,192,115927,1,8,0:0:0:0:
64,192,115927,1,0,0:0:0:0:
320,192,116395,128,0,116864:0:0:0:0:
448,192,116395,1,0,0:0:0:0:
192,192,116395,1,8,0:0:0:0:
192,192,116864,128,0,117333:0:0:0:0:
64,192,117333,128,0,117802:0:0:0:0:
320,192,117800,1,8,0:0:0:0:
448,192,118270,128,0,118739:0:0:0:0:
320,192,118270,128,0,118739:0:0:0:0:
192,192,118739,128,0,119208:0:0:0:0:
64,192,118739,128,0,119208:0:0:0:0:
320,192,119208,128,0,119677:0:0:0:0:
448,192,119677,128,0,120614:0:0:0:0:
192,192,119677,128,0,120614:0:0:0:0:
64,192,120145,128,0,120614:0:0:0:0:
320,192,120614,128,0,121083:0:0:0:0:
448,192,121081,1,8,0:0:0:0:
320,192,121315,1,0,0:0:0:0:
192,192,121550,1,8,0:0:0:0:
64,192,121784,1,0,0:0:0:0:
192,192,122018,1,0,0:0:0:0:
320,192,122255,1,0,0:0:0:0:
448,192,122255,128,0,122723:0:0:0:0:
320,192,122489,1,8,0:0:0:0:
192,192,122721,1,0,0:0:0:0:
320,192,122723,128,0,123192:0:0:0:0:
192,192,122956,1,8,0:0:0:0:
64,192,123192,1,0,0:0:0:0:
192,192,123192,128,0,123661:0:0:0:0:
64,192,123427,1,8,0:0:0:0:
320,192,123895,128,0,124364:0:0:0:0:
64,192,123895,128,0,124364:0:0:0:0:
448,192,123895,1,8,0:0:0:0:
192,192,123895,1,0,0:0:0:0:
192,192,124364,128,0,124833:0:0:0:0:
448,192,124364,128,0,124833:0:0:0:0:
320,192,124833,1,0,0:0:0:0:
64,192,124833,1,8,0:0:0:0:
192,192,125302,128,0,125536:0:0:0:0:
448,192,125302,128,0,125536:0:0:0:0:
320,192,125302,1,0,0:0:0:0:
64,192,125302,1,8,0:0:0:0:
320,192,125536,128,0,125770:0:0:0:0:
448,192,125770,1,0,0:0:0:0:
192,192,125770,128,0,126239:0:0:0:0:
64,192,125770,128,0,127645:0:0:0:0:
448,192,126239,128,0,126708:0:0:0:0:
320,192,126708,128,0,127177:0:0:0:0:
192,192,127177,128,0,127645:0:0:0:0:
320,192,127645,128,0,129052:0:0:0:0:
