osu file format v12

[General]
AudioFilename: Vocaloid Rin x Len - Gemini.mp3
AudioLeadIn: 0
PreviewTime: 153849
Countdown: 0
SampleSet: Soft
StackLeniency: 0.7
Mode: 0
LetterboxInBreaks: 0

[Editor]
Bookmarks: 35956,43956,121289,129289,195956,206289
DistanceSpacing: 1.2
BeatDivisor: 2
GridSize: 4

[Metadata]
Title:Gemini
TitleUnicode:γ‚Έγ‚§γƒŸγƒ‹
Artist:Dixie Flatline
ArtistUnicode:Dixie Flatline
Creator:athiota33
Version:Normal
Source:Vocaloid
Tags:twins Kagamine Rin Len
BeatmapID:214948
BeatmapSetID:76248

[Difficulty]
HPDrainRate:3
CircleSize:3
OverallDifficulty:3
ApproachRate:4
SliderMultiplier:1.4
SliderTickRate:2

[Events]
//Background and Video events
0,0,"BG.jpg",0,0
Video,-332,"Video.avi"
//Break Periods
2,36156,42636
2,121488,127969
2,196155,204969
//Storyboard Layer 0 (Background)
//Storyboard Layer 1 (Fail)
//Storyboard Layer 2 (Pass)
//Storyboard Layer 3 (Foreground)
//Storyboard Sound Samples
//Background Colour Transformations
3,100,163,162,255

[TimingPoints]
3956,666.666666666667,4,2,1,30,1,0
14622,-100,4,2,1,40,0,0
89289,-100,4,2,1,50,0,1
110622,-100,4,2,1,50,0,0
110956,-100,4,2,1,35,0,0
119289,-100,4,2,1,25,0,0
119372,-100,4,2,1,35,0,0
121289,-100,4,2,1,40,0,0
153289,-100,4,2,1,50,0,1
195956,-100,4,2,1,40,0,0
217289,-100,4,2,1,50,0,1
259956,-100,4,2,1,50,0,0
301956,-100,4,2,1,25,0,0
302122,-100,4,2,1,40,0,0
304956,-100,4,2,1,10,0,0

[Colours]
Combo1 : 255,129,45
Combo2 : 155,155,155
Combo3 : 25,145,255
Combo4 : 240,210,10
SliderBorder : 255,255,255

[HitObjects]
124,116,3956,2,0,L|52:116,2,70,2|0|2,0:0|0:0|0:0,0:0:0:0:
196,160,4956,1,4,0:0:0:0:
264,208,5289,2,0,P|332:188|364:128,1,140,2|2,0:0|0:0,0:0:0:0:
424,68,6289,1,4,0:0:0:0:
472,136,6622,6,0,B|492:188|492:188|468:232|492:272,1,140,0|2,0:0|0:0,0:0:0:0:
432,332,7622,1,4,0:0:0:0:
348,344,7956,2,0,L|272:336,1,70,2|0,0:0|0:0,0:0:0:0:
196,356,8622,2,0,L|148:300,1,70,2|4,0:0|0:0,0:0:0:0:
68,280,9289,6,0,P|92:212|64:144,1,140,0|2,0:0|0:0,0:0:0:0:
32,76,10289,1,4,0:0:0:0:
116,80,10622,2,0,P|152:76|188:80,1,70,2|0,0:0|0:0,0:0:0:0:
224,152,11289,2,0,P|260:156|296:152,1,70,4|0,0:0|0:0,0:0:0:0:
324,232,11956,6,0,P|372:173|367:114,2,140,6|6|4,0:0|0:0|0:0,0:0:0:0:
336,316,13623,1,0,0:0:0:0:
263,357,13956,1,2,0:0:0:0:
200,301,14289,1,0,0:0:0:0:
235,225,14623,1,4,0:0:0:0:
420,212,15289,6,0,P|384:152|316:148,1,140,8|2,0:0|0:0,0:0:0:0:
256,92,16289,1,0,0:0:0:0:
192,146,16622,2,0,P|127:151|91:211,1,140,8|2,0:0|0:0,0:0:0:0:
184,348,17956,6,0,L|112:356,2,70,8|0|2,0:0|0:0|0:0,0:0:0:0:
268,340,18956,1,0,0:0:0:0:
336,288,19289,2,0,P|360:220|340:156,1,140,8|2,0:0|0:0,0:0:0:0:
216,44,20622,5,8,0:0:0:0:
160,108,20956,1,0,0:0:0:0:
76,96,21289,2,0,L|4:96,2,70,2|0|8,0:0|0:0|0:0,0:0:0:0:
108,176,22289,1,0,0:0:0:0:
164,240,22622,6,0,P|224:272|304:268,2,140,2|8|2,0:0|0:0|0:0,0:0:0:0:
264,104,24622,1,8,0:0:0:0:
352,248,25289,1,4,0:0:0:0:
464,120,25956,6,0,L|476:52,2,70,8|0|2,0:0|0:0|0:0,0:0:0:0:
428,196,26956,1,0,0:0:0:0:
452,276,27289,2,0,P|400:328|336:320,1,140,8|2,0:0|0:0,0:0:0:0:
172,320,28622,6,0,P|110:326|58:274,1,140,8|2,0:0|0:0,0:0:0:0:
84,196,29622,1,0,0:0:0:0:
48,120,29956,2,0,L|36:52,2,70,8|0|2,0:0|0:0|0:0,0:0:0:0:
212,84,31289,6,0,P|272:144|324:144,1,140,8|2,0:0|0:0,0:0:0:0:
400,112,32289,1,0,0:0:0:0:
472,156,32622,2,0,L|468:228,2,70,8|0|2,0:0|0:0|0:0,0:0:0:0:
400,112,33622,2,0,L|396:40,2,70,0|8|0,0:0|0:0|0:0,0:0:0:0:
324,144,34622,6,0,P|260:172|188:156,1,140,2|8,0:0|0:0,0:0:0:0:
112,132,35622,1,0,0:0:0:0:
44,184,35956,1,4,0:0:0:0:
256,192,43956,12,4,46622,0:0:0:0:
372,288,47289,6,0,P|300:300|248:264,1,140,8|0,0:0|0:0,0:0:0:0:
208,188,48289,2,0,B|200:172|220:144|208:116,2,70,0|8|0,0:0|0:0|0:0,0:0:0:0:
140,236,49289,2,0,P|68:224|16:260,2,140,2|8|0,0:0|0:0|0:0,0:0:0:0:
88,304,50956,6,0,P|120:332|156:344,1,70,0|8,0:0|0:0,0:0:0:0:
228,324,51622,2,0,P|264:328|300:320,1,70,0|4,0:0|0:0,0:0:0:0:
452,252,52622,1,8,0:0:0:0:
420,176,52956,2,0,P|348:148|292:168,1,140
224,220,53956,1,8,0:0:0:0:
144,188,54289,1,0,0:0:0:0:
84,244,54622,6,0,P|56:276|32:296,2,70,2|0|8,0:0|0:0|0:0,0:0:0:0:
144,188,55622,2,0,P|196:136|196:72,1,140,2|0,0:0|0:0,0:0:0:0:
128,28,56622,2,0,L|268:28,1,140,8|4,0:0|0:0,0:0:0:0:
420,100,57956,5,8,0:0:0:0:
380,176,58289,1,0,0:0:0:0:
444,232,58622,2,0,P|400:288|336:288,1,140,0|8,0:0|0:0,0:0:0:0:
256,260,59622,1,0,0:0:0:0:
176,288,59956,2,0,P|112:288|68:232,1,140,2|8,0:0|0:0,0:0:0:0:
60,148,60956,1,0,0:0:0:0:
188,40,61622,5,0,0:0:0:0:
228,112,61956,2,0,P|288:156|352:148,1,140,8|4,0:0|0:0,0:0:0:0:
428,124,62956,1,0,0:0:0:0:
496,72,63289,1,8,0:0:0:0:
512,160,63622,2,0,L|480:300,1,140
400,276,64622,6,0,P|316:320|268:316,1,140,8|4,0:0|0:0,0:0:0:0:
192,292,65622,2,0,L|112:252,2,70,0|8|0,0:0|0:0|0:0,0:0:0:0:
92,156,66956,2,0,L|12:196,2,70,0|8|0,0:0|0:0|0:0,0:0:0:0:
172,128,67956,6,0,P|232:168|296:156,1,140,4|8,0:0|0:0,0:0:0:0:
372,116,68956,1,0,0:0:0:0:
372,116,69289,2,0,P|376:184|368:256,1,140,2|8,0:0|0:0,0:0:0:0:
344,336,70289,1,0,0:0:0:0:
260,332,70622,2,0,P|228:320|192:304,2,70,2|0|8,0:0|0:0|0:0,0:0:0:0:
308,260,71622,1,0,0:0:0:0:
344,184,71956,2,0,P|376:172|412:156,2,70,2|0|8,0:0|0:0|0:0,0:0:0:0:
260,184,72956,1,0,0:0:0:0:
192,232,73289,6,0,P|120:196|88:148,2,140,4|8|0,0:0|0:0|0:0,0:0:0:0:
260,184,74956,1,0,0:0:0:0:
336,224,75289,1,8,0:0:0:0:
336,224,75622,2,0,P|362:156|342:94,1,140,2|0,0:0|0:0,0:0:0:0:
276,44,76622,1,8,0:0:0:0:
224,108,76956,2,0,P|152:96|108:48,1,140,2|0,0:0|0:0,0:0:0:0:
32,80,77956,2,0,B|48:128|88:156|88:156|72:200,1,140,8|4,0:0|0:0,0:0:0:0:
84,280,78956,6,0,L|24:320,2,70,0|8|0,0:0|0:0|0:0,0:0:0:0:
160,316,79956,1,2,0:0:0:0:
228,268,80289,2,0,L|176:220,2,70,0|8|0,0:0|0:0|0:0,0:0:0:0:
296,220,81289,2,0,P|372:264|440:240,2,140,2|8|2,0:0|0:0|0:0,0:0:0:0:
240,156,82956,2,0,L|184:108,1,70,0|8,0:0|0:0,0:0:0:0:
148,184,83622,2,0,L|72:188,1,70,0|4,0:0|0:0,0:0:0:0:
36,260,84289,5,0,0:0:0:0:
88,328,84622,2,0,P|152:348|228:336,2,140,8|2|8,0:0|0:0|0:0,0:0:0:0:
36,260,86289,1,0,0:0:0:0:
88,192,86622,2,0,P|152:172|228:184,1,140,4|8,0:0|0:0,0:0:0:0:
300,216,87622,2,0,P|363:199|392:132,1,140,2|0,0:0|0:0,0:0:0:0:
312,136,88622,1,8,0:0:0:0:
256,72,88956,1,0,0:0:0:0:
200,136,89289,5,4,0:0:0:0:
88,260,89956,2,0,P|60:240|24:228,2,70,8|0|0,0:0|0:0|0:0,0:0:0:0:
164,296,90956,1,0,0:0:0:0:
244,324,91289,2,0,P|312:328|364:280,1,140,8|2,0:0|0:0,0:0:0:0:
444,136,92622,6,0,P|483:147|516:164,2,70,8|0|0,0:0|0:0|0:0,0:0:0:0:
368,100,93622,1,0,0:0:0:0:
296,144,93956,2,0,P|260:156|212:160,1,70,8|0,0:0|0:0,0:0:0:0:
156,120,94622,6,0,L|112:256,1,140,2|8,0:0|0:0,0:0:0:0:
64,324,95622,1,0,0:0:0:0:
136,364,95956,2,0,P|208:360|256:312,1,140,0|8,0:0|0:0,0:0:0:0:
272,232,96956,1,0,0:0:0:0:
272,232,97289,6,0,P|318:277|390:281,1,140,4|8,0:0|0:0,0:0:0:0:
460,232,98289,2,0,L|472:160,2,70,0|2|0,0:0|0:0|0:0,0:0:0:0:
392,280,99289,2,0,L|404:352,2,70,8|0|4,0:0|0:0|0:0,0:0:0:0:
248,196,100622,6,0,L|164:192,2,70,8|0|0,0:0|0:0|0:0,0:0:0:0:
328,224,101622,1,0,0:0:0:0:
400,268,101956,2,0,L|484:264,1,70,8|0,0:0|0:0,0:0:0:0:
504,188,102622,6,0,P|520:116|500:52,1,140,2|8,0:0|0:0,0:0:0:0:
420,80,103622,1,0,0:0:0:0:
352,32,103956,2,0,P|279:45|228:88,1,140,2|8,0:0|0:0,0:0:0:0:
180,148,104956,1,0,0:0:0:0:
180,148,105289,6,0,L|100:144,2,70,2|0|8,0:0|0:0|0:0,0:0:0:0:
244,208,106289,1,0,0:0:0:0:
308,260,106622,2,0,P|376:272|440:212,2,140,2|8|4,0:0|0:0|0:0,0:0:0:0:
232,300,108289,1,0,0:0:0:0:
156,336,108622,2,0,P|88:324|24:384,2,140,8|2|8,0:0|0:0|0:0,0:0:0:0:
232,372,110289,1,0,0:0:0:0:
308,336,110622,6,0,P|352:280|364:212,2,140,4|8|0,0:0|0:0|0:0,0:0:0:0:
176,240,112622,2,0,P|100:220|24:240,2,140,8|2|8,0:0|0:0|0:0,0:0:0:0:
256,268,114289,1,2,0:0:0:0:
396,176,114956,6,0,L|416:108,2,70,0|8|0,0:0|0:0|0:0,0:0:0:0:
332,232,115956,2,0,P|260:244|212:204,1,140,2|8,0:0|0:0,0:0:0:0:
284,164,116956,2,0,P|224:120|156:144,1,140,2|0,0:0|0:0,0:0:0:0:
96,184,117956,1,8,0:0:0:0:
36,244,118289,1,0,0:0:0:0:
108,288,118622,6,0,L|180:296,2,70,2|0|8,0:0|0:0|0:0,0:0:0:0:
36,244,119622,2,0,P|12:176|44:120,1,140,2|0,0:0|0:0,0:0:0:0:
96,56,120622,2,0,P|176:82|236:72,1,140,8|4,0:0|0:0,0:0:0:0:
256,192,129289,12,4,131956,0:0:0:0:
144,236,132622,6,0,L|68:228,2,70,8|0|2,0:0|0:0|0:0,0:0:0:0:
216,280,133622,1,0,0:0:0:0:
300,272,133956,2,0,L|372:280,1,70,8|0,0:0|0:0,0:0:0:0:
436,228,134622,2,0,P|452:152|436:92,2,140,2|8|2,0:0|0:0|0:0,0:0:0:0:
368,280,136289,2,0,L|299:273,1,70,0|8,0:0|0:0,0:0:0:0:
216,296,136956,1,0,0:0:0:0:
148,244,137289,6,0,P|92:200|20:200,2,140,4|8|0,0:0|0:0|0:0,0:0:0:0:
228,212,138956,1,0,0:0:0:0:
304,172,139289,1,8,0:0:0:0:
336,248,139622,2,0,L|404:228,1,70,0|2,0:0|0:0,0:0:0:0:
484,204,140289,2,0,L|468:120,2,70,0|8|2,0:0|0:0|0:0,0:0:0:0:
376,332,141622,1,0,0:0:0:0:
376,332,141956,2,0,P|304:360|244:344,1,140,8|4,0:0|0:0,0:0:0:0:
172,316,142956,6,0,L|104:336,1,70,0|8,0:0|0:0,0:0:0:0:
84,256,143622,2,0,L|4:248,2,70,0|2|0,0:0|0:0|0:0,0:0:0:0:
164,232,144622,1,8,0:0:0:0:
244,204,144956,1,0,0:0:0:0:
316,248,145289,2,0,P|324:176|280:128,2,140,2|8|2,0:0|0:0|0:0,0:0:0:0:
256,308,146956,1,0,0:0:0:0:
176,288,147289,2,0,P|101:276|52:314,1,140,8|4,0:0|0:0,0:0:0:0:
16,148,148622,6,0,B|28:104|28:104|84:88|100:44,1,140,8|0,0:0|0:0,0:0:0:0:
184,36,149622,1,0,0:0:0:0:
208,116,149956,2,0,P|272:144|336:124,1,140,8|4,0:0|0:0,0:0:0:0:
420,116,150956,2,0,L|440:44,2,70,0|8|0,0:0|0:0|0:0,0:0:0:0:
408,200,151956,1,2,0:0:0:0:
476,256,152289,2,0,L|496:328,2,70,0|8|0,0:0|0:0|0:0,0:0:0:0:
396,284,153289,6,0,P|328:312|256:300,1,140,4|8,0:0|0:0,0:0:0:0:
184,280,154289,2,0,L|128:328,2,70,0|2|0,0:0|0:0|0:0,0:0:0:0:
228,208,155289,1,8,0:0:0:0:
164,152,155622,1,0,0:0:0:0:
164,152,155956,6,0,P|224:108|228:44,1,140,2|8,0:0|0:0,0:0:0:0:
148,68,156956,1,0,0:0:0:0:
80,120,157289,2,0,P|24:164|20:228,2,140,2|8|2,0:0|0:0|0:0,0:0:0:0:
100,200,158956,1,0,0:0:0:0:
172,248,159289,6,0,L|244:232,1,70,8|0,0:0|0:0,0:0:0:0:
324,240,159956,2,0,P|372:188|392:116,2,140,2|8|2,0:0|0:0|0:0,0:0:0:0:
292,316,161622,1,0,0:0:0:0:
228,368,161956,2,0,P|160:340|96:352,1,140,8|2,0:0|0:0,0:0:0:0:
32,300,162956,2,0,P|16:272|12:232,2,70,0|8|0,0:0|0:0|0:0,0:0:0:0:
92,240,163956,6,0,P|96:176|132:108,1,140,4|8,0:0|0:0,0:0:0:0:
176,40,164956,1,0,0:0:0:0:
232,104,165289,2,0,L|304:128,1,70,2|0,0:0|0:0,0:0:0:0:
356,64,165956,2,0,P|424:76|480:32,1,140,8|2,0:0|0:0,0:0:0:0:
484,204,167289,6,0,P|496:272|452:328,1,140,8|2,0:0|0:0,0:0:0:0:
372,324,168289,2,0,L|300:312,1,70,0|8,0:0|0:0,0:0:0:0:
224,344,168956,1,0,0:0:0:0:
156,296,169289,6,0,P|80:272|20:296,1,140,2|8,0:0|0:0,0:0:0:0:
4,212,170289,1,0,0:0:0:0:
28,132,170622,2,0,P|104:156|164:132,1,140,2|8,0:0|0:0,0:0:0:0:
224,84,171622,1,0,0:0:0:0:
288,140,171956,2,0,B|388:140|388:140|428:160,1,140,4|8,0:0|0:0,0:0:0:0:
456,236,172956,1,0,0:0:0:0:
488,312,173289,2,0,B|452:329|452:329|352:329,1,140,2|8,0:0|0:0,0:0:0:0:
268,344,174289,1,0,0:0:0:0:
196,304,174622,6,0,P|128:272|100:216,1,140,4|8,0:0|0:0,0:0:0:0:
76,136,175622,2,0,L|8:124,2,70,0|2|0,0:0|0:0|0:0,0:0:0:0:
160,152,176622,1,8,0:0:0:0:
208,84,176956,1,0,0:0:0:0:
208,84,177289,6,0,P|280:72|348:84,1,140,2|8,0:0|0:0,0:0:0:0:
424,112,178289,2,0,L|460:44,2,70,0|2|0,0:0|0:0|0:0,0:0:0:0:
384,188,179289,1,8,0:0:0:0:
316,240,179622,1,0,0:0:0:0:
248,192,179956,6,0,P|180:188|120:224,1,140,2|8,0:0|0:0,0:0:0:0:
52,276,180956,1,0,0:0:0:0:
4,208,181289,2,0,P|-5:138|24:77,1,140,2|8,0:0|0:0,0:0:0:0:
104,44,182289,1,0,0:0:0:0:
168,100,182622,6,0,L|240:84,2,70,2|0|8,0:0|0:0|0:0,0:0:0:0:
148,184,183622,1,0,0:0:0:0:
132,268,183956,2,0,L|60:252,2,70,2|0|8,0:0|0:0|0:0,0:0:0:0:
212,292,184956,1,0,0:0:0:0:
212,292,185289,6,0,P|280:264|344:280,1,140,4|8,0:0|0:0,0:0:0:0:
416,324,186289,1,0,0:0:0:0:
476,264,186622,2,0,L|484:124,1,140,2|8,0:0|0:0,0:0:0:0:
444,52,187622,1,0,0:0:0:0:
392,116,187956,6,0,P|316:132|268:100,1,140,2|8,0:0|0:0,0:0:0:0:
212,36,188956,2,0,L|144:52,1,70,0|2,0:0|0:0,0:0:0:0:
192,124,189622,2,0,L|124:164,1,70,0|8,0:0|0:0,0:0:0:0:
60,204,190289,1,0,0:0:0:0:
120,264,190622,6,0,P|168:308|240:304,1,140,2|8,0:0|0:0,0:0:0:0:
308,256,191622,2,0,P|336:232|368:216,2,70,0|2|0,0:0|0:0|0:0,0:0:0:0:
324,340,192622,1,8,0:0:0:0:
408,332,192956,1,0,0:0:0:0:
444,256,193289,6,0,P|472:184|468:120,1,140,4|8,0:0|0:0,0:0:0:0:
392,88,194289,2,0,P|384:44|384:16,2,70,0|2|0,0:0|0:0|0:0,0:0:0:0:
348,160,195289,2,0,P|260:172|212:152,1,140,8|4,0:0|0:0,0:0:0:0:
256,176,206289,5,0,0:0:0:0:
256,176,206622,2,0,L|256:256,1,70,4|0,0:0|0:0,0:0:0:0:
208,316,207289,2,0,L|132:316,2,70,8|0|0,0:0|0:0|0:0,0:0:0:0:
284,364,208289,1,0,0:0:0:0:
368,352,208622,2,0,B|404:344|432:320,1,70,8|0,0:0|0:0,0:0:0:0:
452,240,209289,6,0,L|464:168,1,70,4|0,0:0|0:0,0:0:0:0:
380,160,209956,2,0,L|356:92,1,70,8|0,0:0|0:0,0:0:0:0:
292,40,210622,1,0,0:0:0:0:
240,104,210956,2,0,P|196:84|180:64,1,70,0|10,0:0|0:0,0:0:0:0:
116,20,211622,1,0,0:0:0:0:
56,80,211956,6,0,P|44:120|44:152,1,70,2|0,0:0|0:0,0:0:0:0:
96,216,212622,2,0,P|96:248|108:288,1,70,10|0,0:0|0:0,0:0:0:0:
184,316,213289,2,0,L|228:376,2,70,2|0|10,0:0|0:0|0:0,0:0:0:0:
184,232,214289,1,0,0:0:0:0:
184,232,214622,6,0,P|252:216|284:156,1,140,4|10,0:0|0:0,0:0:0:0:
216,108,215622,1,0,0:0:0:0:
216,108,215956,2,0,P|280:76|344:100,1,140,4|8,0:0|0:0,0:0:0:0:
424,76,216956,1,0,0:0:0:0:
484,136,217289,6,0,P|500:208|484:272,1,140,4|8,0:0|0:0,0:0:0:0:
436,340,218289,1,0,0:0:0:0:
360,304,218622,2,0,P|324:296|288:300,1,70,2|0,0:0|0:0,0:0:0:0:
216,340,219289,2,0,P|183:343|144:336,1,70,8|0,0:0|0:0,0:0:0:0:
68,304,219956,6,0,P|48:240|56:160,1,140,2|8,0:0|0:0,0:0:0:0:
92,92,220956,1,0,0:0:0:0:
156,144,221289,2,0,P|232:156|284:124,1,140,2|8,0:0|0:0,0:0:0:0:
352,76,222289,1,0,0:0:0:0:
420,128,222622,6,0,B|428:160|468:176|468:176|440:208|452:240,1,140,2|8,0:0|0:0,0:0:0:0:
476,320,223622,1,0,0:0:0:0:
400,352,223956,2,0,P|320:376|264:356,1,140,2|8,0:0|0:0,0:0:0:0:
204,308,224956,2,0,L|132:308,2,70,0|2|0,0:0|0:0|0:0,0:0:0:0:
280,276,225956,1,8,0:0:0:0:
268,192,226289,1,0,0:0:0:0:
268,192,226622,2,0,P|200:168|132:184,1,140,2|8,0:0|0:0,0:0:0:0:
68,232,227622,1,0,0:0:0:0:
0,180,227956,6,0,P|4:112|28:44,1,140,4|8,0:0|0:0,0:0:0:0:
104,72,228956,2,0,L|172:44,1,70,0|2,0:0|0:0,0:0:0:0:
252,40,229622,1,0,0:0:0:0:
308,100,229956,2,0,P|376:116|440:84,1,140,8|2,0:0|0:0,0:0:0:0:
456,256,231289,5,8,0:0:0:0:
384,300,231622,1,0,0:0:0:0:
312,260,231956,2,0,P|244:244|180:276,1,140,2|8,0:0|0:0,0:0:0:0:
112,316,232956,1,0,0:0:0:0:
48,260,233289,6,0,P|28:188|40:124,1,140,2|8,0:0|0:0,0:0:0:0:
84,56,234289,1,0,0:0:0:0:
84,56,234622,2,0,P|152:84|224:64,1,140,2|8,0:0|0:0,0:0:0:0:
256,144,235622,1,0,0:0:0:0:
296,220,235956,2,0,P|364:192|436:212,1,140,2|8,0:0|0:0,0:0:0:0:
484,268,236956,1,0,0:0:0:0:
440,340,237289,6,0,P|372:368|300:348,1,140,4|8,0:0|0:0,0:0:0:0:
232,320,238289,1,0,0:0:0:0:
152,344,238622,1,4,0:0:0:0:
32,224,239289,6,0,L|8:152,2,70,8|0|2,0:0|0:0|0:0,0:0:0:0:
96,280,240289,1,0,0:0:0:0:
168,236,240622,2,0,P|232:216|312:232,1,140,8|2,0:0|0:0,0:0:0:0:
460,172,241956,6,0,L|484:244,2,70,8|0|2,0:0|0:0|0:0,0:0:0:0:
396,116,242956,1,0,0:0:0:0:
324,160,243289,2,0,P|260:180|180:164,1,140,8|2,0:0|0:0,0:0:0:0:
52,72,244622,5,8,0:0:0:0:
104,140,244956,1,0,0:0:0:0:
64,216,245289,2,0,P|112:268|184:272,1,140,2|8,0:0|0:0,0:0:0:0:
256,248,246289,1,0,0:0:0:0:
334,273,246622,2,0,P|400:268|448:216,1,140,2|8,0:0|0:0,0:0:0:0:
472,136,247622,2,0,L|488:64,2,70,0|2|0,0:0|0:0|0:0,0:0:0:0:
396,100,248622,2,0,L|380:28,2,70,8|0|4,0:0|0:0|0:0,0:0:0:0:
292,224,249956,6,0,P|216:244|184:244,1,70,8|0,0:0|0:0,0:0:0:0:
144,264,250622,1,2,0:0:0:0:
68,236,250956,2,0,P|56:196|52:148,2,70,0|8|0,0:0|0:0|0:0,0:0:0:0:
76,320,251956,6,0,P|136:352|200:328,1,140,2|8,0:0|0:0,0:0:0:0:
256,264,252956,1,0,0:0:0:0:
312,328,253289,2,0,P|376:352|436:320,1,140,2|8,0:0|0:0,0:0:0:0:
368,268,254289,1,0,0:0:0:0:
368,268,254622,6,0,L|360:128,1,140,2|8,0:0|0:0,0:0:0:0:
312,60,255622,1,0,0:0:0:0:
248,116,255956,2,0,P|176:112|128:64,1,140,2|8,0:0|0:0,0:0:0:0:
48,92,256956,2,0,L|36:24,2,70,0|4|0,0:0|0:0|0:0,0:0:0:0:
64,176,257956,1,8,0:0:0:0:
136,220,258289,2,0,L|148:288,2,70,0|2|0,0:0|0:0|0:0,0:0:0:0:
200,164,259289,1,4,0:0:0:0:
268,212,259622,1,0,0:0:0:0:
344,252,259956,6,0,P|412:236|444:172,2,140,4|8|2,0:0|0:0|0:0,0:0:0:0:
268,288,261622,1,0,0:0:0:0:
188,320,261956,2,0,P|152:312|108:316,1,70,8|0,0:0|0:0,0:0:0:0:
40,280,262622,6,0,P|20:220|32:144,2,140,2|8|2,0:0|0:0|0:0,0:0:0:0:
108,232,264289,1,0,0:0:0:0:
108,232,264622,2,0,P|164:280|228:284,1,140,8|4,0:0|0:0,0:0:0:0:
296,232,265622,6,0,L|368:240,2,70,0|8|0,0:0|0:0|0:0,0:0:0:0:
252,160,266622,2,0,P|196:112|132:108,1,140,2|8,0:0|0:0,0:0:0:0:
60,64,267622,1,0,0:0:0:0:
60,64,267956,6,0,L|64:208,1,140,2|8,0:0|0:0,0:0:0:0:
72,288,268956,1,0,0:0:0:0:
152,312,269289,2,0,P|188:332|220:336,2,70,2|0|8,0:0|0:0|0:0,0:0:0:0:
212,252,270289,1,0,0:0:0:0:
260,184,270622,6,0,P|316:144|404:144,2,140,4|8|2,0:0|0:0|0:0,0:0:0:0:
212,252,272289,1,0,0:0:0:0:
148,200,272622,1,8,0:0:0:0:
292,272,273289,6,0,P|328:276|368:292,2,70,2|0|8,0:0|0:0|0:0,0:0:0:0:
212,252,274289,1,0,0:0:0:0:
148,200,274622,2,0,P|112:196|72:180,2,70,2|0|8,0:0|0:0|0:0,0:0:0:0:
256,192,275622,12,8,277956,0:0:0:0:
208,260,278622,6,0,P|136:276|72:252,2,140,4|8|2,0:0|0:0|0:0,0:0:0:0:
256,192,280289,1,0,0:0:0:0:
304,124,280622,2,0,P|342:118|376:124,1,70,8|0,0:0|0:0,0:0:0:0:
452,96,281289,6,0,L|440:244,1,140,4|8,0:0|0:0,0:0:0:0:
404,312,282289,1,0,0:0:0:0:
328,272,282622,2,0,P|256:256|192:272,1,140,2|8,0:0|0:0,0:0:0:0:
72,148,283956,6,0,L|0:120,2,70,2|0|8,0:0|0:0|0:0,0:0:0:0:
148,188,284956,1,0,0:0:0:0:
224,148,285289,2,0,P|284:184|356:172,1,140,2|8,0:0|0:0,0:0:0:0:
476,288,286622,6,0,L|428:360,2,70,2|0|8,0:0|0:0|0:0,0:0:0:0:
448,208,287622,1,0,0:0:0:0:
452,124,287956,2,0,P|385:133|325:97,1,140,2|8,0:0|0:0,0:0:0:0:
256,48,288956,1,0,0:0:0:0:
204,112,289289,6,0,P|160:104|132:104,1,70,2|0,0:0|0:0,0:0:0:0:
104,184,289956,2,0,P|148:192|176:192,1,70,8|0,0:0|0:0,0:0:0:0:
252,220,290622,2,0,L|304:172,2,70,2|0|8,0:0|0:0|0:0,0:0:0:0:
188,272,291622,1,0,0:0:0:0:
248,328,291956,6,0,P|316:356|376:328,1,140,4|8,0:0|0:0,0:0:0:0:
444,288,292956,1,0,0:0:0:0:
424,208,293289,2,0,L|444:140,2,70,2|0|8,0:0|0:0|0:0,0:0:0:0:
284,300,294622,6,0,B|248:280|216:304|180:328|144:308,1,140,2|8,0:0|0:0,0:0:0:0:
104,240,295622,2,0,P|84:196|88:160,2,70,0|2|0,0:0|0:0|0:0,0:0:0:0:
172,192,296622,1,8,0:0:0:0:
336,236,297289,6,0,P|356:280|352:316,2,70,2|0|8,0:0|0:0|0:0,0:0:0:0:
276,292,298289,1,0,0:0:0:0:
276,292,298622,2,0,P|212:320|144:304,1,140,2|8,0:0|0:0,0:0:0:0:
100,236,299622,1,0,0:0:0:0:
28,280,299956,6,0,P|20:208|64:156,1,140,4|8,0:0|0:0,0:0:0:0:
140,128,300956,1,0,0:0:0:0:
204,180,301289,2,0,P|272:200|336:180,1,140,2|4,0:0|0:0,0:0:0:0:
256,192,302622,12,4,304956,0:0:0:0:
