osu file format v12

[General]
AudioFilename: Vocaloid Rin x Len - Gemini.mp3
AudioLeadIn: 0
PreviewTime: 153849
Countdown: 0
SampleSet: Soft
StackLeniency: 0.7
Mode: 0
LetterboxInBreaks: 0

[Editor]
Bookmarks: 35956,43956,121289,129289,195956,206289
DistanceSpacing: 1
BeatDivisor: 4
GridSize: 4

[Metadata]
Title:Gemini
TitleUnicode:γ‚Έγ‚§γƒŸγƒ‹
Artist:Dixie Flatline
ArtistUnicode:Dixie Flatline
Creator:athiota33
Version:Hard
Source:Vocaloid
Tags:twins Kagamine Rin Len
BeatmapID:214947
BeatmapSetID:76248

[Difficulty]
HPDrainRate:6
CircleSize:4
OverallDifficulty:6
ApproachRate:7
SliderMultiplier:1.9
SliderTickRate:2

[Events]
//Background and Video events
0,0,"BG.jpg",0,0
Video,-332,"Video.avi"
//Break Periods
2,36156,43056
2,121488,128389
2,196155,205389
//Storyboard Layer 0 (Background)
//Storyboard Layer 1 (Fail)
//Storyboard Layer 2 (Pass)
//Storyboard Layer 3 (Foreground)
//Storyboard Sound Samples
//Background Colour Transformations
3,100,163,162,255

[TimingPoints]
3956,666.666666666667,4,2,1,30,1,0
14622,-100,4,2,1,40,0,0
89289,-100,4,2,1,50,0,1
110622,-100,4,2,1,50,0,0
110956,-133.333333333333,4,2,1,35,0,0
119289,-133.333333333333,4,2,1,25,0,0
119372,-133.333333333333,4,2,1,35,0,0
121289,-100,4,2,1,40,0,0
153289,-100,4,2,1,50,0,1
195956,-100,4,2,1,40,0,0
217289,-100,4,2,1,50,0,1
259956,-100,4,2,1,50,0,0
301956,-100,4,2,1,25,0,0
302122,-100,4,2,1,40,0,0
302622,-133.333333333333,4,2,1,40,0,0
304956,-100,4,2,1,10,0,0

[Colours]
Combo1 : 255,129,45
Combo2 : 155,155,155
Combo3 : 25,145,255
Combo4 : 240,210,10
SliderBorder : 255,255,255

[HitObjects]
40,100,3956,5,2,0:0:0:0:
116,44,4289,1,0,0:0:0:0:
192,100,4622,1,2,0:0:0:0:
164,192,4956,1,4,0:0:0:0:
68,192,5289,1,2,0:0:0:0:
68,192,5456,1,0,0:0:0:0:
68,192,5622,1,0,0:0:0:0:
192,100,5956,5,2,0:0:0:0:
272,52,6289,1,4,0:0:0:0:
344,112,6622,1,0,0:0:0:0:
424,64,6956,1,0,0:0:0:0:
492,132,7289,2,0,B|479:183|430:198,1,95,2|4,0:0|0:0,0:0:0:0:
340,224,7956,1,2,0:0:0:0:
340,224,8122,1,0,0:0:0:0:
340,224,8289,1,0,0:0:0:0:
168,192,8622,6,0,B|216:200|248:240,1,95,2|4,0:0|0:0,0:0:0:0:
172,320,9289,1,0,0:0:0:0:
208,348,9456,1,0,0:0:0:0:
256,356,9622,1,0,0:0:0:0:
304,348,9789,1,0,0:0:0:0:
336,316,9956,1,2,0:0:0:0:
336,316,10289,5,4,0:0:0:0:
408,256,10622,2,0,B|440:260|464:280,2,47.5,2|0|0,0:0|0:0|0:0,0:0:0:0:
256,192,11289,6,0,B|172:148,1,95,4|0,0:0|0:0,0:0:0:0:
256,192,11956,2,0,B|340:148,1,95,4|0,0:0|0:0,0:0:0:0:
256,192,12622,2,0,B|256:288,1,95,4|0,0:0|0:0,0:0:0:0:
172,168,13289,5,2,0:0:0:0:
340,168,13622,1,0,0:0:0:0:
204,268,13956,1,2,0:0:0:0:
256,104,14289,1,0,0:0:0:0:
308,268,14622,1,4,0:0:0:0:
256,192,15289,5,8,0:0:0:0:
172,148,15622,1,0,0:0:0:0:
256,104,15956,2,0,B|304:120|352:104,1,95,2|0,0:0|0:0,0:0:0:0:
400,184,16622,2,0,B|448:168|496:184,1,95,8|0,0:0|0:0,0:0:0:0:
448,268,17289,1,2,0:0:0:0:
492,356,17622,1,0,0:0:0:0:
356,268,17956,6,0,B|306:278|272:316,1,95,8|0,0:0|0:0,0:0:0:0:
188,276,18622,2,0,B|138:265|104:228,1,95,2|0,0:0|0:0,0:0:0:0:
52,152,19289,1,8,0:0:0:0:
144,124,19622,1,0,0:0:0:0:
72,296,19956,5,2,0:0:0:0:
164,268,20289,2,0,B|212:252|260:268,1,95,0|8,0:0|0:0,0:0:0:0:
348,300,20956,1,0,0:0:0:0:
348,300,21289,2,0,B|392:284|420:240,1,95,2|0,0:0|0:0,0:0:0:0:
348,84,21956,2,0,B|392:100|420:144,1,95,8|0,0:0|0:0,0:0:0:0:
336,192,22622,5,4,0:0:0:0:
256,140,22956,1,0,0:0:0:0:
176,192,23289,1,8,0:0:0:0:
208,284,23622,1,0,0:0:0:0:
304,284,23956,1,2,0:0:0:0:
176,192,24289,1,0,0:0:0:0:
336,192,24622,1,10,0:0:0:0:
208,284,24956,1,0,0:0:0:0:
256,140,25289,1,4,0:0:0:0:
256,140,25956,5,8,0:0:0:0:
176,192,26289,1,0,0:0:0:0:
164,96,26622,2,0,B|116:112|68:96,1,95,2|0,0:0|0:0,0:0:0:0:
176,192,27289,2,0,B|224:176|272:192,1,95,8|0,0:0|0:0,0:0:0:0:
360,224,27956,5,2,0:0:0:0:
272,192,28289,1,0,0:0:0:0:
276,288,28622,2,0,B|228:304|180:288,1,95,8|0,0:0|0:0,0:0:0:0:
88,300,29289,1,2,0:0:0:0:
128,212,29622,1,0,0:0:0:0:
76,132,29956,2,0,P|120:120|168:132,1,95,8|0,0:0|0:0,0:0:0:0:
196,252,30622,5,2,0:0:0:0:
288,168,30956,1,0,0:0:0:0:
304,292,31289,2,0,B|352:276|400:292,1,95,8|0,0:0|0:0,0:0:0:0:
444,376,31956,2,0,B|396:392|348:376,1,95,2|0,0:0|0:0,0:0:0:0:
352,212,32622,1,8,0:0:0:0:
304,292,32956,1,0,0:0:0:0:
232,232,33289,6,0,B|184:216|136:232,2,95,4|0|8,0:0|0:0|0:0,0:0:0:0:
272,144,34289,1,0,0:0:0:0:
364,168,34622,2,0,P|412:160|456:136,1,95,2|0,0:0|0:0,0:0:0:0:
384,80,35289,2,0,P|423:51|452:10,1,95,10|0,0:0|0:0,0:0:0:0:
292,56,35956,5,4,0:0:0:0:
256,192,43956,12,4,46622,0:0:0:0:
56,112,47289,6,0,B|84:156|124:180,1,95,8|0,0:0|0:0,0:0:0:0:
188,248,47956,1,0,0:0:0:0:
256,184,48289,1,0,0:0:0:0:
324,252,48622,2,0,B|376:248|408:212,1,95,8|0,0:0|0:0,0:0:0:0:
484,84,49289,5,2,0:0:0:0:
496,180,49622,1,0,0:0:0:0:
448,264,49956,2,0,B|412:296|360:300,1,95,8|0,0:0|0:0,0:0:0:0:
316,300,50456,2,0,B|265:296|229:264,1,95
192,240,50956,1,0,0:0:0:0:
104,276,51289,1,8,0:0:0:0:
60,192,51622,1,0,0:0:0:0:
144,148,51956,6,0,B|184:120|204:76,1,95,4|0,0:0|0:0,0:0:0:0:
284,24,52622,1,8,0:0:0:0:
328,108,52956,1,0,0:0:0:0:
284,192,53289,2,0,B|328:208|376:192,1,95,0|0,0:0|0:0,0:0:0:0:
436,116,53956,1,8,0:0:0:0:
496,192,54289,1,0,0:0:0:0:
376,268,54622,5,2,0:0:0:0:
304,332,54956,1,0,0:0:0:0:
208,332,55289,1,8,0:0:0:0:
136,268,55622,1,2,0:0:0:0:
256,120,56289,1,0,0:0:0:0:
176,168,56622,2,0,P|94:180|31:94,1,190,8|4,0:0|0:0,0:0:0:0:
64,16,57622,5,0,0:0:0:0:
120,92,57956,2,0,B|176:168,1,95,8|0,0:0|0:0,0:0:0:0:
168,216,58456,2,0,B|216:208|264:232,1,95
288,268,58956,2,0,B|340:280|380:252,1,95,0|8,0:0|0:0,0:0:0:0:
356,160,59622,1,0,0:0:0:0:
448,188,59956,6,0,B|488:224|484:272,2,95,2|0|8,0:0|0:0|0:0,0:0:0:0:
356,160,60956,1,0,0:0:0:0:
316,136,61122,2,0,B|269:162|224:144,1,95
184,116,61622,2,0,L|204:212,1,95,0|8,0:0|0:0,0:0:0:0:
224,300,62289,1,0,0:0:0:0:
224,300,62456,1,0,0:0:0:0:
224,300,62622,5,2,0:0:0:0:
140,256,62956,2,0,B|96:272|64:312,1,95,0|8,0:0|0:0,0:0:0:0:
0,232,63622,1,0,0:0:0:0:
24,140,63956,2,0,B|68:124|100:84,1,95,0|0,0:0|0:0,0:0:0:0:
176,28,64622,1,8,0:0:0:0:
256,76,64956,1,0,0:0:0:0:
336,132,65289,6,0,B|308:172|256:192|200:168|172:132,2,190,4|8|2,0:0|0:0|0:0,0:0:0:0:
400,64,66956,1,0,0:0:0:0:
432,148,67289,2,0,B|412:192|368:224,1,95,8|0,0:0|0:0,0:0:0:0:
284,332,67956,5,6,0:0:0:0:
200,288,68289,1,0,0:0:0:0:
200,288,68622,2,0,B|156:276|120:240,1,95,8|0,0:0|0:0,0:0:0:0:
292,272,69289,1,2,0:0:0:0:
244,192,69622,1,0,0:0:0:0:
244,192,69955,2,0,B|251:146|283:107,1,95,8|0,0:0|0:0,0:0:0:0:
292,272,70622,1,2,0:0:0:0:
256,152,70956,6,0,B|176:104,1,95,0|8,0:0|0:0,0:0:0:0:
256,152,71622,2,0,B|336:104,1,95,0|2,0:0|0:0,0:0:0:0:
256,152,72289,2,0,B|256:248,1,95,0|8,0:0|0:0,0:0:0:0:
176,104,72956,1,0,0:0:0:0:
336,104,73289,1,4,0:0:0:0:
256,248,73622,5,0,0:0:0:0:
256,248,73789,1,0,0:0:0:0:
256,248,73956,1,8,0:0:0:0:
300,332,74289,2,0,B|256:356|208:332,1,95
208,164,74956,2,0,B|252:140|300:164,2,95,0|8|0,0:0|0:0|0:0,0:0:0:0:
96,252,75956,5,2,0:0:0:0:
12,300,76289,2,0,B|-8:256|12:208,1,95,0|8,0:0|0:0,0:0:0:0:
128,176,76956,1,2,0:0:0:0:
128,176,77622,1,0,0:0:0:0:
128,176,77956,2,0,B|176:156|228:180,1,95,8|0,0:0|0:0,0:0:0:0:
344,240,78622,5,4,0:0:0:0:
344,240,78956,2,0,B|392:220|402:163,1,95,0|8,0:0|0:0,0:0:0:0:
260,76,79622,2,0,B|212:96|201:152,1,95,0|2,0:0|0:0,0:0:0:0:
400,171,80289,2,0,B|391:119|343:99,1,95,0|8,0:0|0:0,0:0:0:0:
202,193,80955,2,0,B|211:243|259:263,1,95,0|2,0:0|0:0,0:0:0:0:
352,280,81622,5,0,0:0:0:0:
296,356,81956,1,8,0:0:0:0:
200,352,82289,1,0,0:0:0:0:
152,268,82622,2,0,B|104:296|104:348,1,95,2|0,0:0|0:0,0:0:0:0:
152,268,83289,2,0,B|200:240|200:188,1,95,8|0,0:0|0:0,0:0:0:0:
104,188,83956,5,4,0:0:0:0:
124,48,84289,2,0,B|224:32,1,95,0|8,0:0|0:0,0:0:0:0:
312,52,84956,2,0,B|352:24,2,47.5,0|0|2,0:0|0:0|0:0,0:0:0:0:
256,128,85622,1,0,0:0:0:0:
340,176,85956,2,0,B|336:232|292:252,1,95,8|0,0:0|0:0,0:0:0:0:
172,176,86622,6,0,B|176:232|220:252,2,95,4|0|8,0:0|0:0|0:0,0:0:0:0:
212,88,87622,2,0,B|240:88|256:76|256:76|272:88|312:88,1,95,0|2,0:0|0:0,0:0:0:0:
400,76,88289,2,0,B|444:52,2,47.5,0|0|8,0:0|0:0|0:0,0:0:0:0:
364,164,88956,2,0,B|348:212,2,47.5,0|0|4,0:0|0:0|0:0,0:0:0:0:
116,108,89956,5,8,0:0:0:0:
44,168,90289,1,0,0:0:0:0:
68,260,90622,1,2,0:0:0:0:
164,260,90956,1,0,0:0:0:0:
188,168,91289,2,0,B|232:148|280:168,1,95,8|0,0:0|0:0,0:0:0:0:
360,220,91956,5,2,0:0:0:0:
428,156,92289,1,0,0:0:0:0:
452,248,92622,2,0,B|504:224|520:176,2,95,8|0|2,0:0|0:0|0:0,0:0:0:0:
280,168,93622,2,0,B|228:192|212:240,2,95,0|8|0,0:0|0:0|0:0,0:0:0:0:
368,132,94622,5,2,0:0:0:0:
324,48,94956,1,0,0:0:0:0:
368,132,95289,2,0,B|432:204,1,95,8|0,0:0|0:0,0:0:0:0:
508,256,95956,2,0,B|472:300|424:296,1,95,2|0,0:0|0:0,0:0:0:0:
344,248,96622,1,8,0:0:0:0:
288,324,96956,1,0,0:0:0:0:
228,248,97289,6,0,B|176:244|140:212,1,95,4|0,0:0|0:0,0:0:0:0:
184,128,97956,2,0,B|236:132|272:164,1,95,8|0,0:0|0:0,0:0:0:0:
356,200,98622,1,2,0:0:0:0:
452,212,98956,1,0,0:0:0:0:
348,148,99289,5,8,0:0:0:0:
428,244,99622,1,0,0:0:0:0:
368,104,99956,5,6,0:0:0:0:
448,52,100289,1,0,0:0:0:0:
496,132,100622,2,0,B|504:228,1,95,8|0,0:0|0:0,0:0:0:0:
428,280,101289,1,2,0:0:0:0:
472,364,101622,2,0,B|428:384|380:364,2,95,0|8|0,0:0|0:0|0:0,0:0:0:0:
436,244,102622,5,2,0:0:0:0:
468,156,102956,1,0,0:0:0:0:
408,84,103289,2,0,B|312:52,1,95,8|0,0:0|0:0,0:0:0:0:
264,132,103956,2,0,B|168:132,1,95,2|0,0:0|0:0,0:0:0:0:
56,180,104622,1,8,0:0:0:0:
100,296,104956,1,0,0:0:0:0:
216,256,105289,6,0,B|312:256,1,95,2|0,0:0|0:0,0:0:0:0:
256,144,105956,1,8,0:0:0:0:
164,180,106289,2,0,B|172:228|216:256,1,95,0|2,0:0|0:0,0:0:0:0:
348,180,106956,2,0,B|340:228|296:256,2,95,0|8|0,0:0|0:0|0:0,0:0:0:0:
340,64,107956,5,4,0:0:0:0:
268,128,108289,1,0,0:0:0:0:
196,64,108622,1,8,0:0:0:0:
124,128,108956,1,0,0:0:0:0:
196,192,109289,1,2,0:0:0:0:
268,128,109622,2,0,B|320:156|368:144,2,95,0|8|0,0:0|0:0|0:0,0:0:0:0:
164,80,110622,5,4,0:0:0:0:
164,80,111289,2,0,B|84:88|40:144,2,142.500005435944,8|2|8,0:0|0:0|0:0,0:0:0:0:
232,100,112956,1,0,0:0:0:0:
296,64,113289,2,0,B|312:100|296:132,1,71.2500027179719,2|0,0:0|0:0,0:0:0:0:
232,256,113956,2,0,B|216:220|232:188,1,71.2500027179719,8|0,0:0|0:0,0:0:0:0:
248,156,114456,1,0,0:0:0:0:
144,63,114956,6,0,B|104:55|80:31,2,71.2500027179719,0|8|0,0:0|0:0|0:0,0:0:0:0:
212,84,115956,1,4,0:0:0:0:
280,107,116289,2,0,B|320:115|344:139,2,71.2500027179719,0|8|0,0:0|0:0|0:0,0:0:0:0:
272,179,117289,1,0,0:0:0:0:
204,155,117622,1,0,0:0:0:0:
136,175,117956,1,8,0:0:0:0:
68,151,118289,1,0,0:0:0:0:
0,175,118622,6,0,B|17:206|56:219,1,71.2500027179719,2|0,0:0|0:0,0:0:0:0:
204,155,119289,2,0,B|186:123|148:111,1,71.2500027179719,8|2,0:0|0:0,0:0:0:0:
32,236,120289,5,0,0:0:0:0:
80,304,120622,2,0,B|136:352|224:344,1,142.500005435944,8|4,0:0|0:0,0:0:0:0:
256,192,129289,12,4,131956,0:0:0:0:
216,88,132289,5,0,0:0:0:0:
216,88,132622,2,0,B|172:72|124:88,1,95,8|0,0:0|0:0,0:0:0:0:
80,172,133289,1,2,0:0:0:0:
124,256,133622,2,0,B|168:272|216:256,2,95,0|8|0,0:0|0:0|0:0,0:0:0:0:
172,172,134622,5,2,0:0:0:0:
220,92,134956,2,0,B|320:84,1,95,0|8,0:0|0:0,0:0:0:0:
284,172,135622,2,0,B|384:164,1,95,0|2,0:0|0:0,0:0:0:0:
472,140,136289,1,0,0:0:0:0:
472,140,136622,2,0,P|472:188|448:228,1,95,8|0,0:0|0:0,0:0:0:0:
328,308,137289,5,4,0:0:0:0:
328,308,137622,2,0,P|328:260|352:220,1,95,0|8,0:0|0:0,0:0:0:0:
380,128,138289,2,0,L|428:116,2,47.5
292,176,138956,2,0,B|252:200|200:180,2,95,0|8|0,0:0|0:0|0:0,0:0:0:0:
292,20,139956,1,2,0:0:0:0:
348,100,140289,2,0,B|388:76|440:96,1,95,0|8,0:0|0:0,0:0:0:0:
396,200,140956,5,2,0:0:0:0:
396,200,141622,1,0,0:0:0:0:
324,288,141956,1,8,0:0:0:0:
248,200,142289,1,0,0:0:0:0:
172,288,142622,1,6,0:0:0:0:
100,200,142956,6,0,B|68:156|68:112,1,95,0|8,0:0|0:0,0:0:0:0:
136,48,143622,2,0,B|168:92|168:136,1,95,0|2,0:0|0:0,0:0:0:0:
164,232,144289,2,0,B|218:226|250:196,1,95,0|8,0:0|0:0,0:0:0:0:
260,100,144955,2,0,B|205:105|173:135,1,95,0|2,0:0|0:0,0:0:0:0:
80,228,145622,5,0,0:0:0:0:
16,160,145956,1,8,0:0:0:0:
84,96,146289,1,0,0:0:0:0:
160,156,146622,1,2,0:0:0:0:
56,204,146956,1,0,0:0:0:0:
0,104,147289,1,8,0:0:0:0:
100,48,147622,1,0,0:0:0:0:
100,48,147956,6,0,B|144:16|192:40|240:60|288:40,1,190,4|8,0:0|0:0,0:0:0:0:
376,72,148956,1,0,0:0:0:0:
292,120,149289,2,0,B|248:152|200:128|152:108|104:128,1,190,0|8,0:0|0:0,0:0:0:0:
29,187,150289,5,0,0:0:0:0:
158,280,150622,1,4,0:0:0:0:
108,128,150956,1,0,0:0:0:0:
59,280,151289,1,8,0:0:0:0:
188,187,151622,1,0,0:0:0:0:
256,192,151956,12,4,153289,0:0:0:0:
100,140,153956,6,0,P|120:228|204:272,1,190,8|2,0:0|0:0,0:0:0:0:
256,192,154956,1,0,0:0:0:0:
412,140,155289,2,0,P|392:228|308:272,1,190,8|2,0:0|0:0,0:0:0:0:
256,192,156289,6,0,B|212:176|160:192,1,95,0|8,0:0|0:0,0:0:0:0:
196,264,156956,2,0,B|152:280|100:264,2,95,0|2|0,0:0|0:0|0:0,0:0:0:0:
256,192,157956,1,8,0:0:0:0:
256,336,158289,1,0,0:0:0:0:
316,264,158622,6,0,B|360:280|412:264,2,95,2|0|8,0:0|0:0|0:0,0:0:0:0:
256,192,159622,1,0,0:0:0:0:
316,116,159956,1,2,0:0:0:0:
256,44,160289,2,0,B|208:32|160:48,1,95,0|8,0:0|0:0,0:0:0:0:
104,124,160956,1,0,0:0:0:0:
32,64,161289,6,0,P|16:160|83:215,2,190,2|8|2,0:0|0:0|0:0,0:0:0:0:
104,124,162956,2,0,B|142:153|194:147,1,95,0|8,0:0|0:0,0:0:0:0:
296,100,163622,1,0,0:0:0:0:
396,148,163956,6,0,B|447:153|486:124,2,95,4|0|8,0:0|0:0|0:0,0:0:0:0:
316,92,164956,1,0,0:0:0:0:
240,36,165289,2,0,B|188:30|149:59,2,95,2|0|8,0:0|0:0|0:0,0:0:0:0:
256,128,166289,1,0,0:0:0:0:
256,128,166622,6,0,B|216:168|256:220|288:268|256:308,1,190,2|8,0:0|0:0,0:0:0:0:
172,260,167622,2,0,B|208:220|256:224,1,95,0|2,0:0|0:0,0:0:0:0:
340,260,168289,2,0,B|304:220|256:224,1,95,0|8,0:0|0:0,0:0:0:0:
424,308,168956,1,0,0:0:0:0:
484,236,169289,6,0,B|503:189|485:139,2,95,2|0|8,0:0|0:0|0:0,0:0:0:0:
400,196,170289,1,0,0:0:0:0:
324,140,170622,2,0,B|304:186|321:233,2,95,2|0|8,0:0|0:0|0:0,0:0:0:0:
256,76,171622,1,0,0:0:0:0:
164,104,171956,6,0,B|118:84|71:100,1,95,4|0,0:0|0:0,0:0:0:0:
112,184,172622,1,8,0:0:0:0:
68,268,172956,1,0,0:0:0:0:
156,304,173289,1,2,0:0:0:0:
248,280,173622,2,0,P|268:272|300:268,1,47.5
340,284,173956,2,0,L|424:240,1,95,8|0,0:0|0:0,0:0:0:0:
444,196,174456,1,0,0:0:0:0:
452,148,174622,6,0,B|408:168|360:148,1,95,4|0,0:0|0:0,0:0:0:0:
396,60,175289,2,0,B|352:40|304:60,1,95,8|0,0:0|0:0,0:0:0:0:
296,156,175956,1,2,0:0:0:0:
212,112,176289,2,0,B|160:92|140:48,2,95,0|8|0,0:0|0:0|0:0,0:0:0:0:
296,156,177289,1,2,0:0:0:0:
236,228,177622,1,0,0:0:0:0:
288,308,177956,6,0,P|328:344|380:336,1,95,8|0,0:0|0:0,0:0:0:0:
460,324,178622,2,0,L|448:228,1,95
400,148,179289,1,8,0:0:0:0:
304,212,179622,1,0,0:0:0:0:
204,160,179956,6,0,B|172:192|120:200,1,95,2|0,0:0|0:0,0:0:0:0:
28,216,180622,1,8,0:0:0:0:
4,124,180956,1,0,0:0:0:0:
96,104,181289,2,0,B|108:56|92:8,2,95,2|0|8,0:0|0:0|0:0,0:0:0:0:
48,188,182289,1,0,0:0:0:0:
104,264,182622,6,0,B|146:299|196:302|239:274|258:223,1,190,2|8,0:0|0:0,0:0:0:0:
336,276,183622,2,0,B|360:228|356:180,1,95,0|2,0:0|0:0,0:0:0:0:
396,96,184290,1,0,0:0:0:0:
333,26,184623,1,8,0:0:0:0:
246,66,184956,1,0,0:0:0:0:
257,160,185290,1,4,0:0:0:0:
104,272,185622,5,0,0:0:0:0:
104,272,185789,1,0,0:0:0:0:
104,272,185956,2,0,B|56:280|12:256,1,95,8|0,0:0|0:0,0:0:0:0:
36,164,186622,1,2,0:0:0:0:
132,144,186956,2,0,B|180:136|224:160,2,95,0|8|0,0:0|0:0|0:0,0:0:0:0:
192,64,187956,2,0,B|240:56|276:20,1,95,2|0,0:0|0:0,0:0:0:0:
284,116,188622,5,8,0:0:0:0:
284,116,188956,2,0,B|380:116,1,95,0|2,0:0|0:0,0:0:0:0:
460,168,189622,2,0,B|476:120|460:76,2,95,0|8|0,0:0|0:0|0:0,0:0:0:0:
388,292,190622,1,2,0:0:0:0:
296,180,190956,1,0,0:0:0:0:
184,268,191289,6,0,B|84:268,1,95,8|0,0:0|0:0,0:0:0:0:
32,192,191956,2,0,B|132:192,1,95,2|0,0:0|0:0,0:0:0:0:
208,144,192622,1,8,0:0:0:0:
296,180,192956,1,0,0:0:0:0:
368,120,193289,6,0,B|420:112|448:72,2,95,4|0|8,0:0|0:0|0:0,0:0:0:0:
232,76,194289,2,0,B|194:38|146:39,1,95,0|2,0:0|0:0,0:0:0:0:
192,220,194956,2,0,B|140:228|112:268,1,95,0|8,0:0|0:0,0:0:0:0:
328,264,195622,2,0,B|365:301|413:300,1,95,0|4,0:0|0:0,0:0:0:0:
100,124,206289,6,0,P|80:116|48:108,2,47.5,0|0|4,0:0|0:0|0:0,0:0:0:0:
176,180,206956,1,0,0:0:0:0:
268,152,207289,2,0,B|315:162|361:138,1,95,8|0,0:0|0:0,0:0:0:0:
440,96,207956,1,0,0:0:0:0:
500,164,208289,1,0,0:0:0:0:
420,228,208622,1,8,0:0:0:0:
420,228,208789,1,0,0:0:0:0:
420,228,208956,1,0,0:0:0:0:
316,312,209289,6,0,B|288:332|240:304|216:320,1,95,2|0,0:0|0:0,0:0:0:0:
132,344,209956,1,8,0:0:0:0:
52,292,210289,1,0,0:0:0:0:
56,196,210622,2,0,B|44:148|56:100,1,95
144,41,211289,2,0,B|156:88|144:136,1,95,8|0,0:0|0:0,0:0:0:0:
152,148,211789,1,0,0:0:0:0:
160,160,211956,6,0,B|208:156|252:176,1,95,2|0,0:0|0:0,0:0:0:0:
332,228,212622,1,8,0:0:0:0:
416,184,212956,1,0,0:0:0:0:
448,272,213289,2,0,B|496:252|512:204,2,95,2|0|8,0:0|0:0|0:0,0:0:0:0:
364,316,214289,1,0,0:0:0:0:
268,304,214622,6,0,B|220:308|220:308|178:330,2,95,4|0|8,0:0|0:0|0:0,0:0:0:0:
332,232,215622,2,0,P|356:228|384:212,2,47.5,0|0|2,0:0|0:0|0:0,0:0:0:0:
240,212,216289,1,0,0:0:0:0:
152,244,216622,2,0,P|149:195|168:148,1,95,8|0,0:0|0:0,0:0:0:0:
256,64,217289,5,4,0:0:0:0:
300,328,217956,6,0,B|256:348|204:328,1,95,8|0,0:0|0:0,0:0:0:0:
148,252,218622,1,2,0:0:0:0:
92,176,218956,2,0,B|48:156|-4:176,2,95,0|8|0,0:0|0:0|0:0,0:0:0:0:
172,128,219956,1,2,0:0:0:0:
252,176,220289,6,0,B|296:196|348:176,1,95,0|8,0:0|0:0,0:0:0:0:
480,128,220956,1,0,0:0:0:0:
432,208,221289,1,2,0:0:0:0:
344,176,221622,2,0,B|300:156|248:176,1,95,0|8,0:0|0:0,0:0:0:0:
192,248,222289,1,0,0:0:0:0:
92,304,222622,5,2,0:0:0:0:
24,212,222956,1,0,0:0:0:0:
120,148,223289,2,0,P|168:124|212:124,1,95,8|0,0:0|0:0,0:0:0:0:
300,144,223956,1,2,0:0:0:0:
396,140,224289,2,0,B|384:192|348:224,1,95,0|8,0:0|0:0,0:0:0:0:
236,204,224956,1,0,0:0:0:0:
180,280,225289,6,0,B|213:310|266:316,1,95,4|0,0:0|0:0,0:0:0:0:
416,264,225956,1,8,0:0:0:0:
360,340,226289,1,0,0:0:0:0:
320,224,226622,2,0,B|289:181|311:131,2,95,2|0|8,0:0|0:0|0:0,0:0:0:0:
360,340,227622,1,0,0:0:0:0:
264,316,227956,5,4,0:0:0:0:
224,228,228289,1,0,0:0:0:0:
204,184,228456,1,0,0:0:0:0:
184,140,228622,2,0,B|153:98|101:102,2,95,8|0|2,0:0|0:0|0:0,0:0:0:0:
280,152,229622,1,0,0:0:0:0:
368,112,229956,2,0,B|412:84|419:35,1,95,8|0,0:0|0:0,0:0:0:0:
229,28,230622,6,0,P|272:48|324:40,1,95,2|0,0:0|0:0,0:0:0:0:
140,64,231289,2,0,B|108:100|112:160,1,95,8|0,0:0|0:0,0:0:0:0:
40,216,231956,1,2,0:0:0:0:
88,300,232289,1,0,0:0:0:0:
184,308,232622,2,0,B|224:344|272:336,1,95,8|0,0:0|0:0,0:0:0:0:
204,220,233289,6,0,B|164:184|116:192,1,95,2|0,0:0|0:0,0:0:0:0:
132,288,233956,1,8,0:0:0:0:
224,308,234289,1,0,0:0:0:0:
300,252,234622,2,0,P|337:288|378:301,1,95,2|0,0:0|0:0,0:0:0:0:
462,257,235289,2,0,P|424:220|383:207,1,95,8|0,0:0|0:0,0:0:0:0:
300,168,235956,5,4,0:0:0:0:
268,80,236289,2,0,B|172:80,1,95,0|8,0:0|0:0,0:0:0:0:
204,172,236956,2,0,B|108:172,1,95,0|2,0:0|0:0,0:0:0:0:
0,212,237622,5,0,0:0:0:0:
96,352,237956,1,4,0:0:0:0:
244,268,238289,1,0,0:0:0:0:
164,116,238622,1,4,0:0:0:0:
48,112,238956,5,0,0:0:0:0:
28,156,239122,1,0,0:0:0:0:
36,204,239289,2,0,B|24:252|36:300,1,95,8|0,0:0|0:0,0:0:0:0:
116,348,239956,1,2,0:0:0:0:
192,296,240289,2,0,P|232:268|288:268,1,95,0|8,0:0|0:0,0:0:0:0:
368,296,240956,1,0,0:0:0:0:
432,224,241289,6,0,B|444:196|432:176|432:176|420:152|432:128,1,95,2|0,0:0|0:0,0:0:0:0:
440,36,241956,1,8,0:0:0:0:
356,80,242289,2,0,P|316:108|272:112,1,95,0|2,0:0|0:0,0:0:0:0:
180,84,242956,2,0,P|136:88|96:116,1,95,0|8,0:0|0:0,0:0:0:0:
168,176,243622,1,0,0:0:0:0:
256,208,243956,6,0,B|236:258|194:286|143:283|101:249,2,190,2|8|2,0:0|0:0|0:0,0:0:0:0:
336,260,245622,1,0,0:0:0:0:
416,208,245956,1,8,0:0:0:0:
336,60,246289,1,0,0:0:0:0:
416,113,246622,1,2,0:0:0:0:
252,208,246956,1,0,0:0:0:0:
336,164,247289,1,8,0:0:0:0:
244,16,247622,1,0,0:0:0:0:
252,112,247956,6,0,P|196:104|168:76,1,95,2|0,0:0|0:0,0:0:0:0:
124,184,248622,2,0,P|60:168|20:184,1,95,8|0,0:0|0:0,0:0:0:0:
72,284,249289,1,4,0:0:0:0:
256,192,249622,5,0,0:0:0:0:
256,192,249789,1,0,0:0:0:0:
256,192,249956,1,8,0:0:0:0:
320,264,250289,1,0,0:0:0:0:
412,240,250622,2,0,P|452:216|476:176,2,95,2|0|8,0:0|0:0|0:0,0:0:0:0:
320,264,251622,1,0,0:0:0:0:
268,344,251956,6,0,P|175:329|105:261,1,190,2|8,0:0|0:0,0:0:0:0:
12,264,252956,2,0,P|20:220|48:180,1,95,0|2,0:0|0:0,0:0:0:0:
180,128,253622,1,0,0:0:0:0:
92,92,253956,1,8,0:0:0:0:
136,212,254289,1,0,0:0:0:0:
200,280,254622,6,0,B|250:275|283:307|283:307|316:343|374:340,1,190,2|8,0:0|0:0,0:0:0:0:
404,144,255622,2,0,P|401:193|378:231,1,95,0|2,0:0|0:0,0:0:0:0:
314,171,256289,2,0,P|317:122|341:82,1,95,0|8,0:0|0:0,0:0:0:0:
250,55,256956,1,0,0:0:0:0:
250,55,257289,6,0,B|218:107|214:175|214:175|186:151|142:163,1,190,4|8,0:0|0:0,0:0:0:0:
298,187,258289,1,0,0:0:0:0:
246,267,258622,2,0,P|198:275|166:247,1,95,2|0,0:0|0:0,0:0:0:0:
286,323,259289,2,0,P|268:368|228:382,1,95,4|0,0:0|0:0,0:0:0:0:
314,255,259956,6,0,P|346:227|394:235,1,95,4|0,0:0|0:0,0:0:0:0:
440,252,260456,1,0,0:0:0:0:
484,232,260622,2,0,B|504:204|472:172|488:140,1,95,8|0,0:0|0:0,0:0:0:0:
464,100,261122,2,0,L|396:80,1,47.5,0|2,0:0|0:0,0:0:0:0:
324,92,261622,2,0,L|272:56,2,47.5,0|0|8,0:0|0:0|0:0,0:0:0:0:
324,92,262289,1,0,0:0:0:0:
324,92,262622,5,4,0:0:0:0:
416,158,262956,1,0,0:0:0:0:
380,266,263290,1,8,0:0:0:0:
266,267,263623,1,0,0:0:0:0:
232,156,263956,1,2,0:0:0:0:
276,352,264289,5,0,0:0:0:0:
155,276,264623,1,8,0:0:0:0:
351,229,264956,1,0,0:0:0:0:
256,192,265289,12,2,267289,0:0:0:0:
308,76,267956,6,0,B|352:44|400:68|400:68|448:88|492:68,1,190,4|8,0:0|0:0,0:0:0:0:
348,192,269289,2,0,B|304:224|256:200|256:200|208:180|160:200,1,190,2|8,0:0|0:0,0:0:0:0:
92,136,270289,1,0,0:0:0:0:
68,228,270622,6,0,P|48:220|16:192,2,47.5,4|0|0,0:0|0:0|0:0,0:0:0:0:
108,256,271122,1,0,0:0:0:0:
152,272,271289,1,8,0:0:0:0:
248,272,271622,2,0,L|304:232,2,47.5,0|0|2,0:0|0:0|0:0,0:0:0:0:
364,260,272289,2,0,L|384:208,2,47.5,0|0|8,0:0|0:0|0:0,0:0:0:0:
456,184,272956,1,2,0:0:0:0:
456,184,273289,6,0,P|392:132|288:148,1,190,4|8,0:0|0:0,0:0:0:0:
176,232,274289,1,0,0:0:0:0:
176,232,274622,2,0,P|240:284|344:268,1,190,2|8,0:0|0:0,0:0:0:0:
256,192,275622,12,2,277956,0:0:0:0:
224,80,278622,6,0,P|176:124|52:76,1,190,4|8,0:0|0:0,0:0:0:0:
288,304,279956,2,0,P|336:260|460:308,1,190,2|8,0:0|0:0,0:0:0:0:
372,344,280956,1,0,0:0:0:0:
372,344,281122,1,0,0:0:0:0:
372,344,281289,6,0,B|332:316|352:256|364:196|324:168,1,190,4|8,0:0|0:0,0:0:0:0:
256,104,282289,2,0,P|256:76|272:48,2,47.5,0|0|2,0:0|0:0|0:0,0:0:0:0:
192,172,282956,2,0,P|168:152|160:128,2,47.5,0|0|8,0:0|0:0|0:0,0:0:0:0:
288,340,283956,6,0,P|408:312|440:252,1,190,2|8,0:0|0:0,0:0:0:0:
224,44,285289,2,0,P|104:72|72:132,1,190,2|8,0:0|0:0,0:0:0:0:
44,216,286289,1,0,0:0:0:0:
225,237,286622,6,0,P|188:208|140:204,1,95,2|0,0:0|0:0,0:0:0:0:
292,200,287289,2,0,P|305:159|294:107,1,95,8|0,0:0|0:0,0:0:0:0:
292,276,287956,2,0,P|336:284|384:273,1,95,2|0,0:0|0:0,0:0:0:0:
440,172,288622,1,8,0:0:0:0:
344,108,288956,1,0,0:0:0:0:
248,172,289289,6,0,L|148:172,1,95,4|0,0:0|0:0,0:0:0:0:
57,172,289956,2,0,P|73:264|161:324,1,190,8|2,0:0|0:0,0:0:0:0:
236,252,290956,1,0,0:0:0:0:
312,340,291289,1,8,0:0:0:0:
384,252,291622,1,0,0:0:0:0:
476,320,291956,6,0,P|484:352|496:368,2,47.5,4|0|0,0:0|0:0|0:0,0:0:0:0:
480,208,292622,2,0,P|492:164|496:100,1,95,8|2,0:0|0:0,0:0:0:0:
476,72,293122,1,0,0:0:0:0:
448,32,293289,1,0,0:0:0:0:
360,68,293622,2,0,P|351:56|343:24,2,47.5,0|0|8,0:0|0:0|0:0,0:0:0:0:
328,192,294622,6,0,P|232:160|136:176,1,190,4|8,0:0|0:0,0:0:0:0:
60,132,295622,1,0,0:0:0:0:
12,212,295956,1,2,0:0:0:0:
44,300,296289,1,0,0:0:0:0:
132,336,296622,2,0,P|181:327|221:307,1,95,8|0,0:0|0:0,0:0:0:0:
272,192,297289,6,0,P|368:160|464:176,1,190,4|8,0:0|0:0,0:0:0:0:
416,260,298289,1,0,0:0:0:0:
328,296,298622,1,2,0:0:0:0:
232,276,298956,1,0,0:0:0:0:
128,200,299289,1,8,0:0:0:0:
144,312,299622,1,0,0:0:0:0:
212,156,299956,6,0,P|176:116|136:108,1,95,4|0,0:0|0:0,0:0:0:0:
300,132,300622,2,0,P|338:123|374:83,1,95,8|0,0:0|0:0,0:0:0:0:
424,196,301289,1,2,0:0:0:0:
364,320,301622,1,0,0:0:0:0:
240,260,301956,1,4,0:0:0:0:
256,192,302622,12,0,304956,0:0:0:0:
