osu file format v7

[General]
AudioFilename: Disturbed - Meaning of Life.mp3
AudioLeadIn: 500
PreviewTime: 53381
Countdown: 0
SampleSet: Normal
StackLeniency: 0.7
Mode: 0
LetterboxInBreaks: 0
EpilepsyWarning: 1

[Editor]
Bookmarks: 206121
DistanceSpacing: 1
BeatDivisor: 4
GridSize: 8

[Metadata]
Title:Meaning of Life
Artist:Disturbed
Creator:Mianki
Version:PsYcHo
Source:
Tags:The Sickness lanttu jericho2442

[Difficulty]
HPDrainRate:7
CircleSize:5
OverallDifficulty:8
SliderMultiplier:1.5
SliderTickRate:1

[Events]
//Background and Video events
0,0,"Disturbed-disturbed-160306_1024_768.jpg"
//Break Periods
2,47628,50967
2,84317,90992
2,160557,167231
//Storyboard Layer 0 (Background)
//Storyboard Layer 1 (Fail)
//Storyboard Layer 2 (Pass)
//Storyboard Layer 3 (Foreground)
//Storyboard Sound Samples
//Background Colour Transformations
3,100,163,162,255

[TimingPoints]
7880,476.493011435832,4,1,0,71,1,0
14659,-100,4,2,0,71,0,0
14898,-100,4,1,0,71,0,0
17519,-100,4,2,0,71,0,0
17757,-100,4,1,0,71,0,0
18114,-100,4,2,0,71,0,0
18710,-100,4,1,0,71,0,0
20378,-100,4,2,0,71,0,0
20616,-100,4,1,0,71,0,0
22165,-50,4,1,0,71,0,0
23118,-100,4,1,0,71,0,0
44086,-50,4,1,0,71,0,0
47900,-100,4,1,0,71,0,0
83158,-50,4,1,0,71,0,0
84119,-100,4,1,0,71,0,0
91744,-100,4,1,0,71,0,1
99359,-50,4,1,0,71,0,1
115083,-100,4,1,0,71,0,0
132713,-50,4,1,0,71,0,0
133206,-100,4,1,0,71,0,0
136525,-50,4,1,0,71,0,0
137495,-100,4,1,0,71,0,0
145001,-100,4,1,0,39,0,0
148438,-50,4,1,0,41,0,0
148933,-100,4,1,0,41,0,0
152507,-100,4,1,0,73,0,1
160851,-100,4,2,0,41,0,0
174406,-100,4,1,0,71,0,0
190846,-100,4,1,0,71,0,1
206093,-100,4,1,0,71,0,0

[Colours]
Combo1 : 213,0,0
Combo2 : 255,179,0

[HitObjects]
177,91,8356,1,0
388,204,9309,1,0
188,337,10262,1,0
49,140,11215,1,0
144,67,11691,2,0,B|226:34|295:102,1,150,0|4
434,278,13121,5,0
194,301,14074,1,0
301,156,14789,1,0
289,96,15027,1,0
184,38,15503,2,0,B|92:0|67:99,1,150,0|4
46,331,16933,5,0
216,272,17648,1,0
273,254,17886,1,0
325,180,18243,1,0
323,90,18601,1,0
283,44,18839,1,0
165,21,19315,6,0,B|44:-3|46:108,1,150,0|4
54,258,20507,1,0
102,293,20745,1,0
122,314,20864,1,0
144,293,20983,1,0
165,314,21102,1,0
186,292,21221,1,4
368,168,22174,6,0,B|302:97|289:183|213:102|239:217|166:216|137:167|116:156|115:119,2,280,0|0|4
466,306,23604,2,0,B|481:361|445:361,1,70,8|0
367,344,24080,1,0
338,319,24199,1,0
306,298,24319,1,0
271,284,24438,1,0
233,280,24557,1,8
195,284,24676,1,0
161,300,24795,1,0
92,330,25033,6,0,B|37:316|100:250,1,70,0|0
128,214,25510,1,8
150,183,25629,1,0
126,153,25748,1,0
51,142,25986,2,0,B|13:174|13:174|14:174,2,37.5,4|0|0
133,75,26463,1,8
224,23,26701,1,0
326,42,26939,6,0,B|362:49|382:100,1,70,4|0
374,167,27416,2,0,B|360:211|396:238,2,75,8|0|0
388,134,28011,1,0
404,100,28130,1,0
397,62,28250,1,0
373,33,28369,2,0,B|331:18|293:50,1,75,8|0
238,82,28845,5,0
229,156,29083,1,0
154,149,29322,1,8
152,74,29560,1,0
118,56,29679,1,0
85,74,29798,1,4
56,143,30036,1,0
81,213,30275,1,8
112,233,30394,1,0
148,241,30513,1,0
222,247,30751,5,4
296,252,30989,1,0
367,230,31228,1,8
395,205,31347,1,0
409,170,31466,1,0
412,94,31704,6,0,B|420:70|396:62,1,37.5,0|0
370,38,31942,2,0,B|346:13|314:38,1,37.5
299,31,32181,2,0,B|272:34|262:63,1,37.5,8|0
245,80,32419,2,0,B|286:132|222:144|222:144|222:143,1,75,0|0
161,158,32895,2,0,B|102:170|130:221|130:221,1,75,0|8
161,278,33372,2,0,B|194:315|246:282,1,75,0|0
280,237,33848,2,0,B|298:192|362:190,3,75,0|8|0|4
409,176,34801,5,0
432,247,35040,1,8
375,295,35278,1,0
304,322,35516,1,4
267,330,35635,1,0
229,325,35754,1,0
194,309,35873,1,0
168,281,35993,1,8
157,245,36112,1,0
157,207,36231,1,0
182,136,36469,5,4
300,44,36946,1,4
418,135,37422,1,4
372,195,37660,1,4
419,252,37899,2,4,B|470:252|470:252,4,37.5
256,192,38613,12,4,40281
256,192,40758,5,8
96,56,41234,1,4
200,88,41472,1,0
304,56,41711,1,8
408,80,41949,1,0
256,192,42187,12,4,43616
304,160,44093,6,4,C|288:216|264:160|232:216|216:160|184:240,3,300,4|4|4|4
256,192,45999,12,4,47428
304,262,51717,6,0,B|343:254|343:211,1,75,0|4
345,116,52193,2,0,B|342:69|299:63,1,75,8|0
211,64,52670,2,0,B|168:75|172:124,1,75,0|4
171,208,53146,2,0,B|172:256|210:266,1,75,8|0
323,266,53623,5,4
420,209,53861,1,0
393,99,54099,1,8
294,44,54338,1,0
259,29,54457,1,0
223,29,54576,1,0
151,50,54814,5,0
119,69,54933,1,0
110,106,55052,1,8
83,131,55171,1,0
81,168,55291,1,0
43,274,55529,5,4
128,348,55767,1,0
237,323,56005,1,8
319,246,56244,2,0,B|366:230,3,37.5
389,219,56720,5,0
445,169,56958,2,0,B|470:124|430:87,1,75,8|0
376,60,57435,2,0,B|321:29|286:82,1,75,4|0
274,128,57911,1,8
248,154,58030,1,0
213,168,58150,1,0
138,173,58388,1,0
77,128,58626,1,0
122,68,58864,2,0,B|170:94|210:69|200:13|278:38,1,150,8|0
398,82,59817,1,8
315,240,60294,5,4
251,304,60532,1,0
187,240,60770,1,4
218,155,61008,1,4
250,124,61128,1,4
282,155,61247,1,4
250,239,61485,5,0
250,239,61604,1,0
362,239,61961,1,0
362,239,62081,1,0
362,239,62200,2,0,B|463:239,1,75,8|0
437,201,62557,1,0
437,201,62676,2,0,B|513:202,1,75,8|0
511,127,63153,6,0,B|448:128,1,37.5,8|0
473,90,63391,2,0,B|406:90,1,37.5
436,127,63629,2,0,B|364:127,1,37.5,8|0
398,90,63867,2,0,B|334:90,1,37.5
360,127,64106,6,0,B|322:127|322:127|274:80|274:152,1,112.5,8|0
274,175,64582,1,4
214,218,64820,1,0
144,245,65059,2,4,B|104:180|146:100,2,150
256,192,66488,12,4,67441
259,192,67918,5,0
290,223,68037,1,0
290,268,68156,1,0
259,300,68275,1,0
215,310,68394,1,8
172,295,68513,1,0
160,253,68632,1,0
179,213,68751,1,0
216,188,68871,1,4
289,150,69109,5,0
367,122,69347,1,8
432,173,69585,2,0,B|478:205|427:240,1,75
404,259,69943,2,0,B|386:286|411:309,5,37.5,0|0|0|8|0|0
347,346,70777,5,4
266,304,71015,1,0
238,218,71253,1,8
280,138,71491,1,0
365,105,71730,1,4
449,138,71968,6,0,B|476:203|435:214,1,75,0|8
391,261,72444,2,0,B|336:271|311:244,1,75,0|8
259,216,72921,1,0
185,86,73397,2,0,B|204:42|256:46,1,75,0|8
390,78,74112,5,4
416,104,74231,1,0
390,131,74350,1,0
416,158,74469,1,0
390,184,74589,1,0
416,211,74708,1,0
390,237,74827,1,0
416,264,74946,1,0
390,290,75065,1,8
337,343,75303,5,0
265,321,75542,2,4,B|207:317|213:266,1,75
235,205,76018,2,4,B|277:172|251:124,2,75
182,257,76733,5,0
155,284,76852,1,0
117,284,76971,1,8
64,231,77209,1,0
64,156,77447,1,0
91,130,77567,1,0
129,130,77686,1,0
182,183,77924,1,8
248,217,78162,6,0,B|287:247|339:186,1,75
337,137,78639,2,0,B|335:87|257:88,1,75,0|8
214,108,79115,2,0,B|172:135|202:179,1,75
256,192,79592,12,4,80783
225,192,81259,6,0,B|317:193,4,75,8|0|8|0|8
75,192,82689,1,8
222,164,83165,2,0,C|195:152|192:126|228:114|222:92|181:75|188:40|209:27|234:39|253:56|265:67|288:51|297:37|323:25|343:35|349:63|335:86|308:87|287:111|290:129|308:132|313:150|295:165|283:175|271:172,1,600,4|4
80,89,91742,6,0,B|140:63|171:117,1,75,4|0
183,112,92100,1,0
209,138,92219,2,0,B|238:175|280:151,1,75
309,132,92576,1,0
345,121,92695,2,0,B|389:101|427:155,1,75,4|0
454,219,93172,5,4
393,262,93410,1,0
357,248,93529,1,0
321,235,93648,1,4
283,238,93767,1,0
247,250,93886,1,0
210,261,94006,1,0
172,256,94125,1,4
138,239,94244,1,0
109,214,94363,1,0
102,177,94482,1,0
114,141,94601,1,4
215,166,94839,6,0,B|248:193|302:166,1,75,0|0
320,156,95197,1,0
349,133,95316,1,0
370,102,95435,1,0
377,65,95554,2,0,B|374:22|320:39,1,75,4|0
288,58,95912,1,0
258,80,96031,2,0,B|217:106|184:84,1,75,0|0
151,73,96388,1,0
115,61,96507,2,0,B|72:51|58:102,1,75,4|0
29,192,96984,5,4
105,239,97222,2,0,B|124:258|153:253|153:253|159:244,1,37.5
182,262,97460,2,0,B|213:271|239:240,1,37.5,4|0
255,233,97698,2,0,B|278:217|312:223,1,37.5
335,230,97937,2,0,B|376:237|374:262,1,37.5,4|0
400,278,98175,2,0,B|432:328|479:270,1,75,0|4
483,215,98651,2,0,B|483:191,1,18.75
483,140,98890,1,4
382,75,99366,6,0,C|365:38|358:70|342:33|335:64|319:28|311:59|295:22|282:44|272:17,1,300,0|4
191,118,100319,2,4,C|197:128|172:126|193:160|163:149|185:183|155:171|176:205|146:194|168:228,1,300,0|4
253,313,101272,2,4,C|280:342|277:310|304:340|300:308|328:337|324:305|351:335|357:310|375:332,1,300,0|4
450,234,102225,2,4,C|439:228|461:215|425:198|456:192|420:174|452:168|416:151|447:145|411:127,1,300,0|4
280,56,103178,6,4,C|235:41|241:64|196:50|202:73|157:59|163:82|118:68|124:91|87:75,1,300
104,240,104131,2,4,C|109:242|92:259|138:270|121:287|166:298|149:315|194:327|177:343|222:355,1,300
368,344,105084,2,4,C|412:329|394:313|438:299|420:283|464:269|446:253|491:238|472:223|512:214,1,300
480,72,106037,2,4,C|473:72|480:49|435:61|442:38|397:50|403:27|358:39|365:16|320:28,1,300
176,128,106990,6,4,C|141:149|146:155|111:175|117:182|82:203|88:209|53:230|58:237|23:258|29:264|-4:285,1,300
168,352,107943,2,4,C|199:348|198:357|239:352|238:360|279:355|278:364|318:359|318:368|358:362|358:370|398:366,1,300
504,224,108896,2,4,C|491:185|484:189|473:149|465:154|453:115|445:119|433:79|426:84|414:44|407:49|394:10,1,300
224,56,109849,2,4,C|195:70|194:61|157:81|155:73|118:92|116:84|80:103|77:94|42:114|39:106|3:125,1,300
32,336,110802,6,4,C|72:328|103:298|128:297|147:280|172:279|199:259|224:258|255:228|313:222|313:222,1,300
496,168,111755,2,4,C|458:151|435:115|410:108|395:88|371:80|349:55|325:48|302:12|246:-6|246:-6,1,300
72,72,112708,2,4,C|63:112|79:152|72:176|80:200|72:224|79:256|71:280|87:320|72:376|72:376,1,300
256,192,113661,1,4
256,192,114137,1,0
256,192,114257,1,0
256,192,114376,1,0
256,192,114495,1,0
256,192,114614,1,4
392,254,115090,5,8
267,338,115567,2,0,B|232:352|187:338,1,75,0|0
160,325,115924,1,0
133,298,116043,1,8
114,265,116163,2,0,B|105:248|120:228,1,37.5
144,203,116401,1,0
179,190,116520,1,4
256,192,116758,1,0
318,151,116996,6,0,B|338:115|302:82,1,75,4|0
243,43,117473,1,4
208,30,117592,1,0
174,45,117711,1,0
120,98,117949,6,0,B|77:130|93:176|93:176|94:176,1,75,8|0
90,238,118426,1,4
103,273,118545,1,0
137,287,118664,1,0
171,270,118783,1,0
190,238,118902,2,0,B|207:192|253:199,1,75,8|0
318,219,119379,5,0
342,247,119498,1,0
370,273,119617,1,0
402,291,119736,2,0,B|428:308|444:276,1,37.5,0|8
460,260,119974,1,0
470,224,120094,2,0,B|482:171|423:166,1,75,0|4
362,161,120570,6,0,B|309:181|297:116,1,75
256,76,121047,1,0
182,92,121285,2,0,B|132:109|138:145,1,75,4|0
139,182,121642,1,0
156,215,121761,2,0,B|185:252|239:225,1,75,4|0
258,214,122119,1,0
287,191,122238,1,4
341,139,122476,5,0
339,64,122714,2,0,B|314:25|276:32,1,75
209,55,123191,1,8
175,72,123310,1,0
159,106,123429,1,0
138,178,123667,2,0,B|118:220|172:253,1,75
190,263,124025,1,0
227,265,124144,1,4
326,210,124382,5,0
408,136,124620,1,4
328,56,124859,1,0
248,136,125097,1,4
233,247,125335,5,0
211,318,125573,1,0
136,322,125812,1,0
83,268,126050,2,0,B|43:231|88:175,1,75,8|0
96,172,126407,1,0
90,134,126526,2,0,B|111:86|172:107,1,75,4|0
184,119,126884,1,0
218,102,127003,2,0,B|267:94|290:155,1,75,4|0
276,171,127360,1,0
299,200,127479,2,0,B|324:241|288:268,1,75
237,316,127956,6,0,B|164:347|84:308,1,150,8|0
69,163,128909,2,0,B|74:135|104:140,1,37.5,8|0
131,140,129147,2,0,B|150:136|155:164,1,37.5
169,197,129385,1,4
149,228,129504,1,0
112,237,129623,1,0
75,226,129743,1,0
53,195,129862,1,4
103,54,130338,5,0
251,34,130815,1,8
282,54,130934,1,0
307,80,131053,1,0
322,114,131172,2,0,B|334:136|322:159,1,37.5
314,187,131410,1,0
292,217,131529,1,0
210,254,131768,5,4
127,218,132006,1,0
110,129,132244,1,0
170,62,132482,1,0
256,96,132721,2,4,C|294:107|298:128|284:144|253:148|273:156|263:175|279:183|299:173|305:190|285:198|299:216|286:228|304:245,1,300
387,357,133674,5,8
418,337,133793,1,0
431,301,133912,2,0,C|494:300,2,37.5
416,266,134269,1,0
382,248,134388,2,0,C|412:196,2,37.5,0|0|8
344,252,134746,1,0
313,274,134865,2,0,C|268:257,4,37.5
320,352,135580,5,4
208,352,135818,1,0
320,352,136056,1,4
208,352,136294,1,0
184,248,136533,2,4,C|209:228|209:260|225:260|241:260|241:228|257:228|265:228|265:260|281:260|297:260|297:228|329:252,2,300
34,262,137962,6,0,B|19:217|50:177,1,75
77,124,138439,1,8
110,107,138558,1,0
147,111,138677,1,0
181,126,138796,1,0
207,152,138915,1,0
260,204,139153,2,0,B|297:236|353:192,1,75,0|4
393,168,139630,1,0
410,134,139749,1,0
392,100,139868,1,0
333,52,140106,2,0,B|287:28|250:59,1,75,0|4
202,96,140583,5,0
165,161,140821,2,0,B|137:201|176:228,1,75
241,258,141298,1,4
278,251,141417,1,0
306,226,141536,1,0
326,194,141655,1,0
331,156,141774,1,0
320,119,141893,1,0
290,96,142012,1,0
228,52,142251,6,8,B|207:36|174:32|174:32,1,37.5,4|4
157,26,142489,2,0,B|128:21|94:28,1,37.5
82,30,142727,2,0,B|56:31|41:52,1,37.5,0|0
24,72,142965,2,0,B|7:114|40:147,1,75,0|4
256,192,143442,12,0,144633
368,192,145109,6,0,B|425:191,2,37.5
256,192,145586,1,0
144,192,145824,2,0,B|80:192,2,37.5
256,192,146301,1,0
256,192,146420,1,0
256,192,146539,1,0
256,192,146777,12,0,147730
256,56,147968,6,0,B|256:93,1,37.5
256,150,148207,1,0
360,224,148445,2,0,C|336:248|320:264|296:264|296:280|280:272|264:272|264:272|248:280|240:280|224:272|208:264|200:280|200:280|168:264|152:240|128:208,1,300,0|4
208,136,149160,5,0
256,104,149279,1,0
304,136,149398,1,0
304,248,149636,1,0
256,280,149755,1,0
208,248,149874,1,0
112,192,150113,2,0,B|80:192,3,18.75
256,192,150589,12,0,151542
256,192,151780,5,0
256,79,152019,2,0,B|256:47,4,18.75
256,304,152733,6,4,B|256:339,4,18.75
181,219,153210,2,0,B|173:163|245:163,1,75,0|0
255,154,153567,1,0
291,165,153686,2,0,B|348:167|335:238,1,75,0|0
256,304,154163,6,0,B|280:304,7,18.75,4|0|0|0|0|0|0|0
256,304,154639,2,0,B|256:272,7,18.75,4|0|0|0|0|0|0|0
256,304,155116,2,0,B|232:304,7,18.75,4|0|0|0|0|0|0|0
256,304,155592,2,0,B|256:328,4,18.75,4|0|0|0|0
257,239,156069,5,0
286,131,156307,2,0,B|254:91|222:131,1,75
204,181,156664,1,0
157,212,156784,1,0
53,168,157022,5,0
79,58,157260,1,0
118,17,157379,1,0
174,20,157498,1,0
256,192,157975,12,0,159404
256,192,159643,12,0,160357
256,152,167981,5,0
256,152,168219,1,0
200,96,168458,1,2
256,152,168696,1,0
312,96,168934,1,8
256,240,169411,5,0
256,240,169649,1,0
256,312,169887,1,2
256,240,170125,1,0
256,240,170364,1,0
104,240,170840,1,8
48,296,171078,1,0
104,352,171317,1,4
296,192,171793,5,0
296,192,172031,1,0
352,136,172270,1,2
296,192,172508,1,0
352,248,172746,1,8
208,192,173223,5,0
208,192,173461,1,0
136,192,173699,1,2
208,192,173937,1,0
208,192,174176,1,0
256,192,174652,12,0,175605
177,183,176082,5,0
148,207,176201,1,0
151,246,176320,1,0
183,266,176439,1,0
219,255,176558,1,8
254,189,176796,5,4
328,185,177035,1,0
357,209,177154,1,0
354,247,177273,1,0
322,268,177392,1,0
286,256,177511,1,8
254,189,177749,5,4
215,124,177988,1,0
222,87,178107,1,0
256,70,178226,1,0
290,88,178345,1,0
298,125,178464,1,8
360,168,178702,6,0,B|408:184|424:144|424:144,1,75,4|0
459,78,179179,1,0
447,42,179298,1,0
414,22,179417,1,8
355,69,179655,1,4
367,105,179774,1,0
400,125,179893,1,0
481,202,180132,5,4
463,235,180251,1,0
430,254,180370,1,8
393,247,180489,1,0
367,219,180608,1,0
339,193,180727,1,0
308,216,180846,1,4
285,245,180966,1,0
248,253,181085,1,0
214,235,181204,1,0
193,203,181323,1,4
238,100,181561,5,0
136,52,181799,1,4
95,156,182038,1,0
105,268,182276,2,4,B|109:312|171:305,1,75
256,192,182752,12,4,183467
254,201,183944,5,4
235,168,184063,1,0
200,152,184182,1,8
162,157,184301,1,0
135,183,184420,1,0
118,216,184539,1,0
110,252,184658,1,0
110,289,184778,1,0
126,322,184897,6,0,B|158:350|192:309,1,75,0|4
212,280,185254,2,0,B|229:249|270:279,1,37.5
280,268,185492,2,0,B|305:273|301:307,1,37.5
295,332,185731,1,0
269,359,185850,1,4
164,359,186088,5,0
65,321,186326,2,0,B|43:265|79:219|79:219,1,75,0|4
94,146,186803,2,0,B|118:103|159:100|159:100|158:100,1,75,0|4
186,89,187160,1,0
223,89,187279,1,0
259,95,187398,1,0
290,115,187517,1,0
343,168,187756,6,0,B|377:203|364:238,1,75,4|8
354,271,188113,1,0
334,302,188232,2,0,B|313:337|257:329,1,75
232,320,188589,1,0
199,301,188709,2,0,B|161:280|163:227,1,75,0|4
230,148,189185,5,0
296,57,189423,2,0,B|256:33,4,37.5,0|0|0|0|4
328,81,190019,1,0
360,97,190138,2,0,B|408:129|408:129,4,37.5
342,208,190853,5,4
313,231,190972,1,0
269,242,191091,1,0
232,232,191210,1,0
200,212,191329,1,0
173,191,191448,1,0
147,163,191568,1,0
115,142,191687,1,0
79,154,191806,1,4
59,178,191925,2,0,B|39:196|49:232,1,37.5
59,246,192163,1,0
81,275,192282,5,0
113,293,192401,1,0
153,295,192521,1,0
189,288,192640,1,0
225,278,192759,1,4
258,259,192878,1,0
285,233,192997,1,0
297,197,193116,1,0
290,160,193235,1,0
265,131,193354,5,0
232,112,193474,1,0
119,105,193712,1,4
53,197,193950,1,0
92,302,194188,1,0
198,338,194427,1,0
304,301,194665,6,0,B|339:286|350:268|350:268,1,50,4|0
364,249,194903,1,0
377,214,195022,2,0,B|387:188|368:156|368:156,1,37.5
358,144,195260,1,0
326,122,195380,2,0,B|302:105|256:111,1,37.5
253,111,195618,1,4
215,115,195737,2,0,B|190:121|154:92|154:92,1,37.5
148,85,195975,1,0
116,64,196094,2,0,B|81:52|61:81|61:81|62:81,1,37.5
54,92,196332,1,0
36,125,196452,6,0,B|20:150|38:179,1,37.5,0|4
56,187,196690,1,0
91,198,196809,2,0,B|134:210|176:181,1,75
198,175,197166,1,0
231,157,197285,2,0,B|272:141|304:167,1,75,0|4
334,183,197643,2,0,B|357:200|359:239,1,37.5
358,250,197881,5,0
355,287,198000,1,0
130,271,198477,6,0,B|104:257|99:220,1,37.5,4|0
88,209,198715,2,0,B|82:178|102:150|101:150,1,37.5,0|0
105,137,198953,1,0
129,108,199072,2,0,B|153:96|195:113,1,37.5
202,111,199311,2,0,B|232:121|273:117,1,37.5,0|4
276,118,199549,1,0
312,109,199668,2,0,B|342:105|372:87,1,37.5
381,82,199906,2,0,B|410:77|426:96,1,37.5
444,113,200144,1,0
459,147,200264,5,0
467,183,200383,1,4
468,220,200502,2,0,B|461:253|430:275|431:275,1,37.5
431,285,200740,2,0,B|416:305|384:313|385:313,1,37.5
365,320,200978,2,0,B|337:332|296:323|296:323,1,37.5
290,325,201217,2,0,B|261:326|226:308|226:307,1,37.5,0|4
152,268,201574,1,0
146,155,201812,6,0,B|172:96|216:112,1,75
311,103,202289,1,4
394,178,202527,1,0
257,242,202765,1,4
120,179,203003,1,0
256,117,203242,1,4
312,68,203361,1,0
254,19,203480,1,0
197,68,203599,1,0
135,111,203718,1,0
72,69,203837,1,0
130,22,203956,1,4
256,192,204433,12,4,206101
