osu file format v5

[General]
AudioFilename: Disturbed InsideTheFire.mp3
AudioLeadIn: 0
PreviewTime: -1
Countdown: 1
SampleSet: Soft
StackLeniency: 0.4
Mode: 0
LetterboxInBreaks: 1

[Metadata]
Title:Inside The Fire
Artist:Disturbed
Creator:Saturos-fangirl
Version:Normal
Source:
Tags:

[Difficulty]
HPDrainRate:3
CircleSize:4
OverallDifficulty:3
SliderMultiplier:1.2
SliderTickRate:2

[Events]
//Background and Video events
0,0,"3d-fire.jpg"
//Break Periods
2,74346,77334
2,127963,141802
2,197483,205833
//Storyboard Layer 0 (Background)
//Storyboard Layer 1 (Failing)
//Storyboard Layer 2 (Passing)
//Storyboard Layer 3 (Foreground)
//Storyboard Sound Samples
//Background Colour Transformations
3,100,163,162,255

[TimingPoints]
14466,319.148936170213,4,1,0,79,1
220795,-100,4,2,0,100,0

[Colours]
Combo1 : 241,170,3
Combo2 : 252,78,3
Combo3 : 0,128,192
Combo4 : 236,0,0

[HitObjects]
256,192,14465,12,0,15742
356,100,16380,6,0,B|404:111|432:155|420:216,1,120
412,247,17019,2,0,B|376:308|337:302|259:282|256:274,1,120,0|0
250,294,17657,2,0,B|186:256|199:208|220:151,1,120
262,170,18295,5,0
174,87,18934,2,0,B|190:43|274:18|323:71|318:74,1,120
327,82,19572,2,0,B|358:176|254:189,3,120
229,183,20848,5,0
131,113,21487,1,0
214,26,22125,1,0
296,84,22763,2,0,B|371:105|323:180,1,120
270,151,23402,5,0
150,157,24040,2,0,B|158:229|196:280|247:220|351:241|251:362,1,240,0|0
256,192,24997,12,0,25955
251,207,26593,6,0,B|124:207,2,120
130,209,27870,5,0
94,160,28189,2,0,B|106:133|168:73|311:148,2,180
150,180,29465,2,0,B|366:297,2,240
195,141,31061,5,0
314,156,31700,1,0
347,205,32019,2,0,B|428:187|375:111,2,120
241,148,33295,5,0
291,189,33614,2,0,B|284:298|160:311|152:183,1,240
64,273,34891,5,0
108,194,35370,2,0,B|38:170|47:67|151:44,1,180,0|0
256,192,36008,12,0,37444
268,179,38083,5,0
326,194,38402,1,0
359,243,38721,1,0
335,298,39040,1,0
285,332,39359,1,0
226,317,39678,1,0
167,302,39997,2,0,B|95:318|19:232|58:196,1,180
116,139,40955,5,0
158,96,41274,2,0,B|269:194,2,120
250,172,42551,2,0,B|159:259,2,120
295,132,43508,5,0
311,189,43827,2,0,B|279:251|287:270|354:301,2,120,0|0|0
204,134,45104,2,0,B|108:112|40:202|69:276|138:338|375:278,1,480,0|0
368,221,46700,1,0
368,160,47019,1,0
308,158,47338,1,0
306,94,47657,1,0
308,158,47976,1,0
240,159,48296,5,0
241,219,48615,1,0
240,159,48934,1,0
175,160,49253,1,0
175,220,49572,1,0
175,160,49891,1,4
197,99,50211,5,0
132,95,50530,1,0
72,95,50849,1,0
68,160,51168,1,0
4,162,51487,1,0
68,160,51806,1,0
70,224,52125,5,0
130,223,52445,1,0
70,224,52764,1,0
71,294,53083,1,0
71,294,53561,1,4
112,155,54360,6,0,B|174:117|228:126|224:192|235:216|229:248,1,180
230,223,55317,2,0,B|204:290|216:316|248:345|297:349|330:321|324:285,1,180
399,331,56274,2,0,B|430:359|473:307|465:275|495:242,1,120,0|4
450,213,56913,6,0,B|388:175|334:184|338:250|327:274|253:213,1,180
293,240,57870,2,0,B|234:237|268:328|235:336|204:321|185:298|172:260,1,180,0|0
100,320,58828,2,0,B|69:348|26:296|34:264|4:231,1,120,0|4
52,204,59466,6,0,B|86:164|151:141|217:188|237:248|288:119,1,240
299,112,60423,1,2
255,224,61062,1,2
205,331,61700,6,2,B|155:315|135:250|137:199|171:149|239:128|296:139|347:170|375:239|362:288|322:315|270:344,2,480
144,334,64572,6,0,B|144:133,1,180
205,88,65529,2,0,B|327:245,1,180,0|0
374,298,66487,1,4
259,262,67125,6,0,B|58:262,1,180
98,173,68083,2,0,B|255:51,1,180,0|0
150,64,69040,1,4
112,177,69679,6,0,B|124:260|153:271|192:280|255:276|291:232|268:165,1,240
288,154,70636,1,0
264,271,71274,1,2
264,271,71594,1,2
212,301,71912,6,2,B|176:276|113:204|151:149|203:101|290:102|351:123|369:158|392:248|355:297|310:308|294:307,1,480
265,229,73668,1,2
265,229,74146,1,6
256,192,78774,12,4,79572
68,219,80370,6,0,B|38:112|205:117|198:191,1,180,0|0
379,277,81806,2,0,B|435:185|320:128,2,180
321,259,83083,2,0,B|346:313|325:376|255:383|166:356|174:230|262:237|261:258|263:296,1,300
266,204,84359,5,0
202,186,84678,2,0,B|134:294,2,120,4|0|0
153,151,85636,1,0
160,91,85955,1,4
279,103,86593,5,0
336,113,86912,1,0
382,150,87231,1,0
328,176,87551,1,0
300,228,87870,2,0,B|268:311|172:324|96:286|72:201|102:131|182:95|250:169|206:211,1,420,0|0
213,200,89465,1,0
180,149,89785,5,4
63,178,90423,1,0
70,239,90742,1,0
129,248,91061,2,0,B|111:236|88:196|139:163|159:180|179:206|175:227,1,120,0|0
253,267,92019,5,0
279,321,92338,1,4
219,323,92657,1,0
158,321,92976,6,0,B|132:280|132:226|205:195|204:200,1,120,4|0
200,159,93614,2,0,B|272:257,2,120,4|0|4
150,193,94572,1,0
112,245,94891,5,4
141,128,95529,1,0
81,117,95848,2,0,B|101:45|137:9|177:70,1,120,0|0
279,132,96806,6,0,B|301:94|348:88|372:137|384:176,1,120,0|0
384,212,97444,2,0,B|376:270|292:293,3,120
256,192,98721,12,0,99678
2,276,99997,6,0,B|142:146,1,180,4|0
206,207,100955,2,0,B|379:367,1,180,4|0
422,298,101912,6,0,B|293:140,1,180,4|0
230,96,102870,2,0,B|59:256,1,180,4|0
30,160,103827,6,0,B|-10:261|29:325|115:332|100:287,1,180,4|0
143,254,104785,2,0,B|220:271|283:268|291:197|254:155|262:160|236:155|224:152,1,180,4|0
188,127,105742,5,4
256,192,105902,12,6,107178
123,218,107976,6,0,B|161:285|200:166,2,120
150,271,108934,2,0,B|118:338|190:367|258:333|244:270|206:238|186:260,1,180
219,266,109891,1,4
244,143,110529,5,0
207,60,111008,2,0,B|137:80|130:166|165:208|239:231|297:209|330:172|341:124|324:80|260:56,1,420
242,113,112444,1,4
304,164,113083,6,0,B|386:95,2,60
354,196,113721,2,0,B|395:254|320:321|271:224,1,120,0|4
250,176,114678,5,2
250,176,114997,1,2
202,212,115317,2,2,B|173:184|141:146|137:88|183:44|237:18|304:20|327:35|365:84|378:151|358:190|335:210|264:226,2,480
264,164,118189,5,0
210,244,118667,1,0
302,273,119146,1,0
302,273,119624,5,0
213,312,120103,1,4
155,145,120742,5,0
244,144,121220,1,0
334,145,121699,1,0
243,145,122178,1,0
153,147,122656,1,4
153,147,122976,1,4
102,178,123295,5,0
136,293,123934,2,0,B|191:355,2,60
242,237,124890,1,0
242,237,125210,1,0
209,287,125529,2,0,B|119:270|67:166|77:72|168:9|301:13|394:72|411:116|421:208|341:297|265:293,1,720,0|0
248,236,127763,1,4
256,192,143242,12,4,145317
374,136,145955,5,0
256,192,146434,12,4,147870
197,95,148508,6,0,B|109:110|115:213,3,120,0|0|4|0
116,172,149785,2,0,B|72:189|43:248|87:314|139:335|268:286,1,300,0|0
340,271,151061,6,0,B|419:247|414:187|372:133|317:126,1,180,4|0
284,200,152019,2,0,B|219:168|207:109|258:56|295:64,1,180,4|0
189,59,152976,1,0
188,59,153295,1,0
135,89,153614,6,0,B|68:125|67:198|85:218|134:256|163:251|173:196,1,240
272,272,154891,2,0,B|299:308|351:304|371:278|365:230|325:180|368:143|427:155|455:196,1,240,0|0
409,291,156168,6,0,B|396:214|358:179|307:164|252:184|238:264|246:302,1,240
340,325,157444,6,0,B|354:423|144:400|119:154,1,360
66,166,158721,6,0,B|112:108|173:142|175:190|148:210|217:275|276:250|287:185,1,240,0|0
349,162,159997,2,0,B|347:107|295:86|275:156|223:149|194:178|173:170|136:69,1,240
44,159,161274,6,0,B|57:82|95:47|146:32|201:52|215:132|207:170,1,240
189,231,162551,6,0,B|298:343|361:8|468:256,1,360
383,288,163827,6,0,B|281:361,2,120
290,211,165104,2,0,B|139:115,2,120
404,248,166380,6,0,B|473:137,2,120
197,152,167657,6,0,B|197:282,3,120
257,268,168934,5,0
257,268,169253,1,0
332,174,169891,1,0
332,174,170210,1,0
214,198,170848,5,0
214,198,171168,1,0
188,315,171806,1,0
188,315,172125,1,0
67,315,172763,6,0,B|-10:279|29:210,2,120
108,271,173721,2,0,B|192:269|174:178,2,120
92,212,174678,6,0,B|2:227|51:311,2,120
256,192,175955,12,0,176912
380,155,177551,6,0,B|251:290,1,180
251,195,178508,2,0,B|120:331,2,180
160,115,180104,6,0,B|313:245,1,180
335,150,181061,2,0,B|494:297,2,180
419,65,182657,6,0,B|385:25|320:2|254:49|234:109|296:179,1,240
275,197,183614,1,2
275,317,184253,5,2
275,317,184572,1,0
311,269,184891,2,2,B|357:248|373:195|380:132|305:82|248:70|232:83|130:135|121:211|180:236|201:280|246:282,2,480
347,322,187763,6,0,B|444:334|466:303|476:263|468:220|448:240,1,180
368,228,188720,2,0,B|338:132|251:113|198:119|179:199|135:241|136:231|95:193|84:167,1,360
266,170,190317,6,0,B|262:94|219:59|124:52|128:118|133:148,1,180
139,174,191274,2,0,B|66:196|64:269|188:316|264:268|318:249|299:200|279:170|233:163|221:187,1,360
333,234,192870,6,0,B|342:314|292:328|253:337|190:333|137:300|169:141,1,360
232,255,194466,5,2
232,314,194785,1,0
285,340,195104,2,2,B|336:337|375:260|344:188|305:139|216:126|142:172|90:224|146:304|148:345|187:347|203:346,1,480
235,268,196860,1,2
235,268,197338,1,2
256,192,207072,12,0,207870
169,238,208668,6,0,B|196:285|217:328|333:332|379:307|400:252|373:199,1,300
260,216,210104,5,0
260,216,210423,2,0,B|322:187|238:182|241:179|321:158|319:149|235:150|225:147|232:145|317:121|309:122|311:121|231:118|226:117|235:111|301:90|309:86|301:80|237:70|236:70|235:69|295:36|301:35|233:26,1,240
182,53,211380,2,0,B|100:39|114:125|138:123,2,120
289,107,212657,5,0
308,163,212976,2,0,B|208:201|209:254|274:269|364:268,1,240
466,215,214253,2,0,B|416:90,2,120
403,318,215529,6,0,B|492:303|504:262|445:153|404:170|366:276|319:284|268:260|226:200,1,360
185,220,216806,2,0,B|134:218|129:155|159:118|208:106|235:139|236:162|244:209|233:222,2,180
256,192,218083,12,0,222231
