osu file format v5

[General]
AudioFilename: Disturbed InsideTheFire.mp3
AudioLeadIn: 0
PreviewTime: -1
Countdown: 1
SampleSet: Soft
StackLeniency: 0.5
Mode: 0
LetterboxInBreaks: 1

[Metadata]
Title:Inside The Fire
Artist:Disturbed
Creator:Saturos-fangirl
Version:Hard
Source:
Tags:

[Difficulty]
HPDrainRate:4
CircleSize:5
OverallDifficulty:7
SliderMultiplier:1.4
SliderTickRate:2

[Events]
//Background and Video events
0,0,"3d-fire.jpg"
//Break Periods
2,74346,77734
2,127912,142113
//Storyboard Layer 0 (Background)
//Storyboard Layer 1 (Failing)
//Storyboard Layer 2 (Passing)
//Storyboard Layer 3 (Foreground)
//Storyboard Sound Samples
//Background Colour Transformations
3,100,163,162,255

[TimingPoints]
14466,319.148936170213,4,1,0,79,1
220955,-100,4,2,0,79,0

[Colours]
Combo1 : 252,165,3
Combo2 : 221,74,4
Combo3 : 0,128,192
Combo4 : 213,0,0

[HitObjects]
204,108,14465,1,0
256,192,14625,12,4,15742
356,100,16380,6,0,B|404:111|432:155|420:216,1,140,0|0
386,299,17019,2,0,B|337:340|311:354|233:334|230:326,1,140,0|0
166,298,17657,2,0,B|128:257|115:212|189:160,1,140
256,221,18295,5,8
256,221,18455,1,8
179,95,18934,2,0,B|195:51|279:26|328:79|323:82,1,140
369,133,19572,2,0,B|396:224|296:240,3,140
231,181,20848,5,8
231,181,21008,1,8
126,78,21487,1,0
126,78,21646,1,0
126,78,21806,1,0
213,34,22125,1,0
213,34,22285,1,0
213,34,22444,1,0
296,84,22763,2,0,B|354:98|327:132,2,70
197,79,23402,5,8
197,79,23561,1,8
197,79,23721,1,8
195,177,24040,2,0,B|203:249|241:300|292:240|396:261|296:382,1,280,0|4
256,192,24997,12,4,25955
381,138,26274,5,0
246,207,26753,2,0,B|151:207,1,70
125,207,27072,2,0,B|42:207,2,70,0|0|0
125,207,27870,5,4
71,130,28189,2,0,B|96:113|157:89|232:113,3,140,0|0|0|0
293,150,29465,2,0,B|231:191,1,70,4|0
234,189,29785,2,0,B|307:223,2,70,4|0|0
234,189,30263,2,0,B|155:224,1,70,4|0
169,217,30742,1,4
228,295,31061,6,0,B|297:324,1,70
439,333,31700,1,8
453,286,31859,2,0,B|492:270|462:228,2,70
404,291,32338,2,0,B|363:292|370:227,1,70,0|0
399,97,32976,5,8
356,121,33136,2,0,B|284:76|312:166,1,70
284,223,33614,2,0,B|215:269|169:237|145:217,2,140,0|0|4
217,150,34572,1,0
119,138,34891,5,0
119,138,35051,1,0
53,210,35370,2,0,B|-21:152|3:59|96:60,1,210,8|8
256,192,36008,12,4,36806
218,212,37125,6,0,B|218:128,3,70
337,126,38083,5,8
362,167,38242,2,0,B|390:168|409:219,1,70
441,259,38561,1,0
384,258,38721,2,0,B|322:299,1,70
308,243,39040,2,0,B|384:299,1,70
399,328,39359,1,4
290,355,39678,1,0
206,299,39997,2,0,B|134:315|58:229|97:193,1,140
90,238,40476,1,0
90,238,40636,1,0
112,142,40955,5,0
193,87,41274,2,0,B|257:152,1,70,8|0
242,137,41593,2,0,B|307:198,2,70
243,137,42231,2,0,B|184:189,1,70,8|0
243,137,42551,2,0,B|312:79,1,70,8|0
437,128,43189,1,8
406,166,43348,6,0,B|407:206|363:229,1,70,0|0
283,183,43827,2,0,B|242:228|278:289|326:295,2,140,8|0|0
160,81,45104,2,4,B|64:59|-4:149|25:223|94:285|331:225,1,420
471,192,46380,6,0,B|388:192,1,70,4|0
363,160,46700,1,0
360,211,46859,1,0
263,193,47178,2,0,B|179:192,1,70,4|0
150,217,47497,1,0
110,199,47657,2,0,B|38:199,1,70,0|4
120,322,48295,6,0,B|203:322,1,70,4|0
231,295,48614,1,0
229,348,48774,1,0
231,249,49093,2,0,B|315:248,1,70,4|0
343,272,49412,1,0
336,222,49572,2,0,B|408:222,1,70,4|0
257,53,50210,6,0,B|257:136,1,70,4|0
233,166,50529,1,0
281,166,50689,1,0
182,164,51008,2,0,B|181:248,1,70,4|0
207,275,51327,1,0
158,271,51487,2,0,B|158:197,1,70,4|0
297,168,52125,6,0,B|295:249,1,70,4|0
268,277,52444,1,0
317,276,52604,1,0
219,276,52923,2,0,B|218:360,1,70,4|0
258,373,53242,1,2
303,353,53402,1,6
334,315,53561,1,2
112,155,54359,6,0,B|168:212,1,70
212,157,54838,2,0,B|154:213,1,70
259,213,55317,2,0,B|315:270,1,70
359,215,55795,2,0,B|301:271,1,70
365,343,56274,2,0,B|396:371|439:319|431:287|461:254,1,140,0|8
397,181,56912,6,0,B|341:238,1,70
297,183,57391,2,0,B|355:239,1,70
249,235,57870,2,0,B|193:292,1,70
149,237,58348,2,0,B|207:293,1,70
112,331,58827,2,0,B|58:303|56:214|107:179,1,140,0|8
121,118,59465,6,0,B|155:78|220:55|286:102|306:162|244:232,1,280
250,225,60423,1,2
250,225,60742,1,0
249,225,61061,5,2
249,225,61380,1,0
213,316,61700,6,2,B|145:295|123:234|135:167|177:118|253:97|323:115|374:154|397:228|378:280|342:320|278:329,2,560
115,331,64572,6,0,B|18:331,1,70
53,233,65051,2,0,B|51:150,1,70,0|0
118,234,65529,2,0,B|193:234,1,70
255,163,66008,2,0,B|255:86,1,70,0|0
255,162,66487,1,12
62,195,67125,6,0,B|62:98,1,70
62,27,67604,2,0,B|146:27,1,70
161,118,68083,2,0,B|161:193,1,70
259,190,68561,2,0,B|336:190,1,70
259,190,69040,1,12
79,270,69678,6,0,B|91:353|120:364|159:373|222:369|258:325|226:234,1,280
234,260,70636,1,2
234,260,70955,1,0
234,260,71274,1,2
234,260,71593,1,0
209,354,71912,6,2,B|158:351|101:255|135:193|184:142|278:140|343:162|385:192|422:283|375:349|307:361|291:360,1,560
319,264,73507,1,2
295,238,73667,1,2
225,240,73986,1,2
200,265,74146,1,6
256,192,78934,12,4,79572
133,293,80051,5,8
68,219,80370,2,0,B|48:104|205:117|198:191,1,210,0|0
343,310,81487,5,8
379,277,81646,6,0,B|419:235|382:185,1,70
363,176,81966,1,0
322,149,82125,2,0,B|276:118|248:166,3,70
322,149,82763,1,8
274,234,83083,2,0,B|299:288|259:338|202:344|125:312|127:205|215:212|214:233|216:271,1,280
215,267,83880,1,0
215,267,84040,5,0
215,267,84200,1,0
215,267,84359,1,4
160,185,84678,6,0,B|121:249,1,70,8|0
71,327,85157,2,0,B|115:259,1,70,8|0
77,230,85476,2,0,B|37:209|44:153|117:145|137:145,1,140
129,145,85955,1,8
129,145,86114,1,0
225,128,86434,5,8
380,112,86912,2,0,B|353:188,1,70
308,186,87231,1,8
308,186,87391,1,0
348,213,87551,1,8
348,213,87710,1,0
300,228,87870,6,0,B|268:264|202:281|155:259|133:220|128:170|180:125|243:164|206:211,1,280,8|8
214,191,88827,2,0,B|295:137,1,70,0|8
272,152,89306,2,0,B|188:110,1,70,0|8
133,84,89785,6,0,B|91:148,1,70,12|0
56,232,90263,1,0
56,232,90423,1,0
91,266,90583,1,8
135,286,90742,1,0
166,248,90902,2,0,B|148:236|125:196|176:163|196:180|216:206|212:227,1,140,8|0
311,230,91540,5,8
282,273,91700,1,8
312,320,91859,2,0,B|368:299|379:258|352:238|339:236,2,70
262,318,92338,1,10
213,319,92497,1,2
163,320,92657,1,10
114,320,92817,1,2
64,319,92976,6,2,B|38:278|38:224|111:193|110:198,1,140,10|14
157,150,93614,2,0,B|204:208,1,70
201,204,93934,2,0,B|268:141,2,70,0|0|4
126,268,94572,1,8
56,328,94891,6,4,B|87:328,3,17.5
47,230,95370,1,0
47,230,95689,1,8
51,181,95848,2,0,B|71:109|107:73|147:134,1,140,0|0
204,195,96487,6,8,B|240:226|268:186,2,70,8|8|8
279,132,97125,6,0,B|301:94|348:88|372:137|384:176,1,140,0|8
384,212,97604,2,0,B|376:270|328:270,1,70,0|8
312,300,97923,2,0,B|283:328|232:310,1,70,0|8
191,304,98242,2,0,B|147:279|172:232,1,70,0|8
256,192,98721,12,4,99678
138,292,99997,6,0,B|213:228,1,70,4|0
228,215,100317,1,0
228,215,100476,1,4
228,215,100795,2,0,B|296:279,1,70,0|4
278,262,101114,1,0
315,295,101274,2,0,B|372:234,1,70,0|4
363,243,101912,6,0,B|306:171,1,70,4|0
286,145,102231,1,0
334,139,102391,1,4
246,97,102710,2,0,B|179:155,1,70,0|4
156,174,103029,1,0
156,174,103189,1,0
156,174,103348,1,4
52,182,103827,6,0,B|2:193|-6:254|23:275,1,70,4|0
14,295,104146,2,0,B|24:333|84:330,1,70,0|4
105,239,104625,2,0,B|153:224|150:324,2,70,0|4|0
105,239,105104,1,0
105,239,105263,1,4
239,246,105583,5,0
256,192,105742,12,6,106380
369,132,106700,5,2
270,132,107019,5,2
172,133,107338,5,2
172,133,107497,1,2
172,133,107657,1,6
150,265,107976,6,0,B|188:332|213:221,1,70
198,269,108455,2,0,B|223:212|263:307,1,70
247,272,108934,2,0,B|215:339|287:368|355:334|341:271|303:239|283:261,1,210
290,256,109572,1,0
290,256,109731,1,0
290,256,109891,1,12
440,33,110529,6,0,B|399:47|351:65,1,70,8|0
290,162,111008,2,0,B|220:182|213:268|248:310|322:333|380:311|413:274|424:226|407:182|343:158,1,420,8|8
228,89,112285,1,0
228,89,112444,1,12
392,69,113083,6,0,B|454:22,1,70,8|0
392,69,113402,2,0,B|477:113,1,70,8|0
454,101,113721,2,8,B|495:159|420:226|371:129,1,140
404,264,114359,1,2
404,264,114519,1,2
404,264,114678,5,2
298,302,114997,1,2
202,242,115317,2,2,B|154:215|126:172|121:107|146:55|215:28|292:25|354:62|376:94|389:165|369:201|335:240|264:256,2,560
264,164,118189,6,0,B|190:177|224:224,1,70,4|0
215,202,118508,2,0,B|240:236|153:280,2,70,4|0|0
213,203,119146,6,0,B|189:227|176:153,1,70,4|0
216,205,119465,2,0,B|250:180|294:267,2,70,4|0|0
216,205,120104,1,12
216,205,120423,1,12
148,145,120742,6,0,B|228:146,1,70,4|0
218,146,121061,2,0,B|311:146,2,70,4|0|0
219,146,121700,2,0,B|219:239,1,70,4|0
218,146,122019,2,0,B|218:58,2,70,4|0|0
220,147,122657,1,12
220,147,122976,1,12
128,167,123295,6,0,B|175:231,1,70,4|0
213,203,123614,2,0,B|262:264,1,70,4|0
297,229,123934,2,0,B|363:304,2,70,4|0|12
266,42,124572,1,0
266,42,124731,1,0
266,42,124891,1,6
266,42,125051,1,2
266,42,125210,1,6
197,130,125529,2,2,B|107:177|72:280|110:360|197:414|307:402|381:346|413:263|393:180|339:131|259:119,1,700,2|2
260,122,127285,1,2
197,130,127604,1,2
197,130,127763,1,14
256,192,143242,12,4,144997
374,136,145317,5,8
374,136,145636,1,8
256,192,145795,12,4,147551
378,168,147870,5,4
392,100,148029,1,4
334,60,148189,1,4
197,95,148508,6,0,B|109:110|115:213,1,140,0|8
206,226,149146,2,0,B|261:228|254:164,2,70,0|0|8
116,186,149785,2,0,B|72:203|43:262|87:328|139:349|240:314,1,280,0|8
318,276,150742,1,8
318,276,151061,6,0,B|397:252|392:192|350:138|295:131,1,210
300,131,151700,1,8
300,131,151859,1,8
300,131,152019,1,0
267,170,152178,6,0,B|202:138|190:79|259:103|273:99,1,140,0|2
170,81,152817,1,2
170,81,152976,1,2
73,46,153295,1,2
76,148,153614,6,0,B|9:184|41:264|90:282|172:264|180:189|136:147,1,280,0|8
146,157,154412,1,8
146,157,154572,1,8
176,254,154891,6,0,B|203:290|255:286|275:260|269:212|229:162|272:125|331:137|359:178,1,280,0|8
356,175,155689,1,8
356,175,155848,1,8
457,157,156168,6,0,B|444:80|406:45|355:30|300:50|286:130|294:168,1,280,0|8
292,148,156965,1,8
292,148,157125,1,8
307,249,157444,6,0,B|302:282|260:261|222:175,1,70,4|0
210,217,157763,1,0
210,217,157923,2,0,B|188:239|149:165,1,70,4|0
119,153,158242,1,0
119,153,158402,2,0,B|97:175|58:101,1,70,4|0
73,68,158721,6,0,B|119:10|180:44|182:92|155:112|224:177|283:152|294:87,1,280,8|8
288,106,159519,1,0
288,106,159678,1,8
323,201,159997,6,0,B|321:146|269:125|249:195|197:188|168:217|147:209|108:96,1,280,8|8
116,121,160795,1,0
116,121,160955,1,8
115,123,161274,6,0,B|128:46|166:11|217:-4|272:16|286:96|278:134,1,280,8|8
280,114,162072,1,0
279,114,162231,1,8
258,214,162551,6,0,B|263:247|305:226|343:140,1,70,4|0
355,182,162870,1,0
355,182,163029,2,0,B|377:204|416:130,1,70,4|0
454,159,163348,1,0
454,159,163508,2,0,B|497:161|497:253,1,70,4|0
359,284,164146,6,0,B|297:348,1,70,4|0
212,346,164625,1,0
212,346,164785,2,0,B|137:264,1,70,4|0
66,290,165263,1,0
66,290,165423,2,0,B|130:224,1,70,4|0
207,206,165902,1,0
207,206,166061,2,0,B|125:157,2,70,4|0|0
304,238,166700,6,0,B|352:168,1,70,4|0
305,89,167178,1,0
305,89,167338,2,0,B|217:122,1,70,4|0
198,144,167657,5,2
198,144,167816,2,0,B|200:230,1,70
150,218,168135,1,2
113,185,168295,2,0,B|89:230|109:270,2,70,0|0|2
132,139,168774,1,0
285,134,169253,5,0
285,134,169413,1,8
285,134,169572,1,8
285,134,169732,1,8
382,163,170051,1,8
382,163,170211,1,8
382,163,170370,1,8
414,259,170688,5,8
414,259,170848,1,8
414,259,171008,1,8
314,268,171327,1,8
314,268,171486,1,8
314,268,171646,1,8
233,330,171965,5,8
233,330,172125,1,8
233,330,172284,1,8
233,330,172444,1,12
183,226,172763,2,0,B|106:190|166:158,1,70,0|4
237,153,173242,2,0,B|297:133|265:84,1,70,0|4
176,105,173720,2,0,B|124:83|139:46,1,70,0|4
242,63,174199,2,0,B|314:40|277:-3,1,70,0|4
387,23,174678,6,0,B|310:59|370:91,1,70,0|4
441,96,175156,2,0,B|501:116|469:165,1,70,0|4
380,144,175635,2,0,B|328:166|343:203,1,70,0|4
256,192,175955,12,12,176593
328,49,176912,5,8
380,155,177551,2,0,B|324:212,1,70,0|0
280,157,178029,2,0,B|338:213,1,70
233,213,178508,2,0,B|177:270,1,70
133,215,178987,2,0,B|191:271,1,70
127,343,179465,2,0,B|96:371|53:319|61:287|31:254,1,140,0|8
95,181,180104,6,0,B|151:238,1,70
195,183,180583,2,0,B|137:239,1,70
243,235,181061,2,0,B|299:292,1,70
343,237,181540,2,0,B|285:293,1,70
380,331,182019,2,0,B|434:303|436:214|385:179,1,140,0|8
371,118,182657,6,0,B|337:78|272:55|206:102|186:162|248:232,1,280,8|8
242,225,183614,1,2
242,225,183934,1,0
243,225,184253,1,2
243,225,184572,1,0
279,316,184891,6,2,B|347:295|369:234|357:167|315:118|239:97|169:115|118:154|95:228|114:280|150:320|214:329,2,560
377,331,187763,6,0,B|474:331,1,70
439,233,188242,2,0,B|441:150,1,70,0|0
374,234,188721,2,0,B|299:234,1,70
237,163,189200,2,0,B|237:86,1,70,0|0
237,162,189678,1,12
430,195,190317,6,0,B|430:98,1,70
430,27,190795,2,0,B|345:27,1,70
331,118,191274,2,0,B|331:193,1,70
233,190,191753,2,0,B|156:190,1,70
233,190,192231,1,12
413,270,192870,6,0,B|401:353|372:364|333:373|270:369|234:325|266:234,1,280
258,260,193827,1,2
258,260,194146,1,0
258,260,194465,1,2
258,260,194785,1,0
283,354,195104,6,2,B|334:351|391:255|357:193|308:142|214:140|149:162|107:192|70:283|117:349|185:361|201:360,1,560
173,264,196700,1,2
197,238,196859,1,2
267,240,197178,1,2
292,265,197338,1,6
90,255,197817,6,0,B|68:216|100:189|114:183,1,70
149,190,198136,2,0,B|143:137|71:132,3,70,0|0|8|0
59,149,198774,2,0,B|55:80|127:93,3,70,0|0|0|0
88,43,199412,2,0,B|150:43|144:111,3,70,0|0|0|4
256,125,200210,6,0,B|207:184,1,70,8|0
113,191,200689,2,0,B|106:247|195:223,3,70,0|0|0|0
201,211,201327,2,0,B|224:250|193:286,3,70
120,321,202125,1,4
120,321,202285,1,4
120,321,202444,1,4
68,255,202763,6,0,B|52:182|116:168|152:188,1,140,8|0
282,252,203402,2,0,B|329:235|325:184,2,70
244,161,204040,2,0,B|242:112|301:100,2,70
343,175,204678,1,4
343,175,204838,1,4
343,175,204997,1,4
429,211,205317,6,0,B|396:288|344:333|305:344|243:346|184:333|132:275|136:224|144:172|148:147|206:148|231:121|280:136|298:176|291:218|273:231|249:240|236:230,1,560,8|0
256,192,206912,12,4,208029
263,210,208348,5,8
169,238,208668,1,0
169,238,208827,2,0,B|196:285|217:328|333:332|379:307|400:252|373:199,1,280
382,239,209625,1,0
382,239,209785,1,0
287,210,210104,5,8
287,210,210263,1,0
287,210,210423,2,0,B|349:181|265:176|268:173|348:152|346:143|262:144|252:141|259:139|344:115|336:116|338:115|258:112|253:111|262:105|328:84|336:80|328:74|264:64|263:64|262:63|322:30|328:29|260:20,1,210,8|0
292,25,211061,1,8
199,55,211380,2,0,B|142:67|130:105|155:125,1,70
142,141,211700,1,4
199,140,211859,1,0
142,141,212019,1,4
93,142,212178,1,0
143,141,212338,1,6
89,59,212657,5,0
89,58,212817,1,0
88,58,212976,2,0,B|28:90|95:108|52:128|29:120,1,70,0|0
32,164,213295,2,8,B|71:199|89:160,2,70
141,187,213934,1,0
141,187,214253,2,0,B|95:253,1,70
112,293,214572,2,0,B|31:247,2,70,8|8|8
223,295,215210,5,0
223,295,215529,2,0,B|291:275|310:244|257:157|233:160|190:238|146:247|103:225|80:191,1,280
105,113,216487,1,2
105,113,216646,1,2
104,113,216806,2,2,B|53:111|48:48|78:11|127:-1|168:26|173:73|163:102|152:115,2,210
256,192,218083,12,0,222231
