osu file format v9

[General]
AudioFilename: Indestructible.mp3
AudioLeadIn: 0
PreviewTime: 59266
Countdown: 1
SampleSet: Normal
StackLeniency: 1
Mode: 0
LetterboxInBreaks: 0

[Editor]
Bookmarks: 32825,73408,98814,115158,172491,175908
DistanceSpacing: 1
BeatDivisor: 4
GridSize: 8

[Metadata]
Title:Indestructible
Artist:Disturbed
Creator:narakucrimson
Version:Trained
Source:
Tags:hard rock heavy alternative nu metal

[Difficulty]
HPDrainRate:5
CircleSize:4
OverallDifficulty:4
ApproachRate:5
SliderMultiplier:1.1
SliderTickRate:2

[Events]
//Background and Video events
0,0,"background.jpg"
Video,0,"Vid.avi"
//Break Periods
2,41681,49615
2,92348,97614
2,149348,164281
2,232015,237614
//Storyboard Layer 0 (Background)
//Storyboard Layer 1 (Fail)
//Storyboard Layer 2 (Pass)
//Storyboard Layer 3 (Foreground)
//Storyboard Sound Samples
//Background Colour Transformations
3,100,163,162,255

[TimingPoints]
22815,333.333333333333,4,1,0,100,1,0
62814,-133.333333333333,4,1,0,100,0,0
68148,-100,4,1,0,100,0,1
72314,-133.333333333333,4,1,0,100,0,1
73481,-100,4,1,0,100,0,1
89481,-100,4,1,0,100,0,0
120148,-133.333333333333,4,1,0,100,0,0
125481,-100,4,1,0,100,0,1
129648,-133.333333333333,4,1,0,100,0,1
130814,-100,4,1,0,100,0,1
146814,-100,4,1,0,100,0,0
181481,-133.333333333333,4,1,0,100,0,0
182314,-100,4,1,0,100,0,0
186814,-100,4,1,0,100,0,1
206814,-100,4,2,0,70,0,0
207981,-100,4,1,0,100,0,0
213481,-100,4,1,0,100,0,1
229481,-100,4,1,0,100,0,0

[Colours]
Combo1 : 137,114,20
Combo2 : 30,131,18
Combo3 : 210,15,15
Combo4 : 184,186,139

[HitObjects]
112,112,22815,1,0
168,112,22981,1,0
280,112,23314,1,0
328,144,23481,2,0,B|328:200|328:200|280:224,1,110,8|0
112,224,24314,1,0
112,336,24648,2,0,B|152:336|152:336|176:312,1,55,0|8
272,320,25148,6,0,B|272:248,2,55
336,320,25648,1,0
432,272,25981,1,8
336,208,26314,1,0
432,152,26648,1,0
336,96,26981,1,4
168,80,27481,6,0,B|104:80|104:80,1,55
168,176,27981,2,0,B|104:176,1,55,0|8
216,128,28481,1,0
384,128,28981,2,0,B|352:176|352:176|296:176|296:176,1,110,0|0
299,176,29481,1,8
208,232,29814,6,0,B|128:232,2,55
256,264,30314,2,0,B|288:312|288:312|344:312,1,110,0|8
448,312,30981,1,0
448,200,31315,1,0
448,144,31481,2,0,B|448:88,1,55
392,88,31815,2,0,B|352:48,1,55,8|0
296,48,32148,2,0,B|232:48,1,55
344,176,32814,6,0,B|288:168|288:168|232:176,1,110,8|0
384,256,33648,2,0,B|344:296|344:296|272:296,1,110,0|0
232,296,34148,1,8
120,296,34481,1,0
120,240,34648,2,0,B|120:216|120:216|152:192,1,55
192,168,34981,2,0,B|232:144|232:144|232:72,1,110,0|8
344,80,35648,2,0,B|344:144|344:144|392:176,1,110
280,208,36314,6,0,B|328:240,1,55,8|0
296,288,36648,2,0,B|360:328,1,55,8|0
400,320,36981,2,0,B|440:288|440:288|440:224,1,110
440,176,37481,5,8
392,80,37815,1,0
224,80,38315,2,0,B|160:80|160:80|128:112,1,110,0|0
128,168,38815,2,0,B|128:240,1,55,8|0
184,216,39148,2,0,B|184:296,1,55
240,272,39481,1,0
296,272,39648,1,0
392,216,39981,6,0,B|392:160|392:160|448:120|448:120,2,110,8|0|0
448,216,40815,2,0,B|448:280,1,55
448,328,41148,2,0,B|376:328,1,55,8|0
336,328,41481,1,4
120,96,50815,6,0,B|120:152,1,55
120,208,51148,2,0,B|208:208|208:208|224:224,1,110,0|8
280,224,51648,1,0
280,224,52148,1,0
224,112,52481,6,0,B|224:32,1,55
280,56,52815,2,0,B|280:112,2,55,8|0|0
376,112,53481,2,0,B|424:112|424:112|456:168,1,110
456,224,53981,1,0
456,280,54148,1,8
400,280,54315,2,0,B|368:280|368:280|344:312,2,55
376,176,54981,6,0,B|312:176|312:176|288:216,1,110
264,264,55481,2,0,B|232:320|232:320|184:320,1,110,8|0
80,320,56148,2,0,B|80:240,2,55
176,264,56815,1,8
176,152,57148,1,0
272,96,57481,1,0
384,96,57815,5,0
384,208,58148,1,8
328,208,58315,2,0,B|328:288|328:288|248:328,1,165
232,216,59148,2,0,B|232:160|232:160|296:120,1,110,0|8
328,104,59648,2,0,B|328:32,2,55
424,160,60315,6,0,B|424:216|424:216|376:248,1,110
320,248,60815,1,8
264,248,60981,2,0,B|240:264|240:264|216:248,1,55
104,248,61481,2,0,B|104:192|104:192|152:160,1,110
176,56,62148,2,0,B|80:120,1,110,8|8
168,192,62815,6,0,B|248:192|248:192|304:112,1,164.999995082617,4|8
344,56,63815,1,0
432,192,64481,6,0,B|432:288,2,82.4999975413085,0|8|0
432,112,65481,2,0,B|352:112|352:112|288:176|288:176,1,164.999995082617,0|8
240,112,66481,5,0
184,176,66815,1,0
128,112,67148,1,0
80,48,67481,1,8
192,312,68148,5,4
192,256,68315,1,0
272,184,68648,1,8
360,120,68981,1,0
416,120,69148,1,0
432,288,69648,6,0,B|432:352,2,55
368,288,70148,1,8
304,288,70315,2,0,B|304:224,2,55
240,288,70815,2,0,B|184:288,1,55
200,176,71315,2,0,B|152:176|152:176|112:224,1,110,8|0
56,224,71815,2,0,B|56:160|56:160|96:112,1,110
128,88,72315,6,0,B|168:80|168:80|208:88,1,82.5,0|8
248,88,72814,1,0
288,88,72981,2,0,B|336:88,1,41.2499987706542
272,192,73481,5,4
216,192,73648,1,0
104,192,73981,2,0,B|64:224|64:224|64:336,1,165,8|0
176,336,74815,5,0
176,280,74981,2,0,B|200:264|200:264|224:280,2,55
120,280,75481,2,0,B|104:232|104:232|120:168,1,110,8|0
136,120,75981,2,0,B|152:64,1,55
168,16,76315,2,0,B|224:16|224:16|248:64|248:64,1,110,0|8
360,64,76981,2,0,B|392:120|392:120,1,55
392,224,77481,5,0
248,224,77815,1,0
352,296,78148,1,8
216,296,78481,1,0
160,200,78815,6,0,B|192:136|192:136|288:136,1,165,4|8
360,56,79648,1,0
304,56,79814,2,0,B|192:56,1,110
192,112,80314,6,0,B|112:112,2,55
192,168,80814,2,0,B|248:168,2,55,8|0|0
192,224,81314,1,0
192,280,81481,1,0
32,224,81981,1,0
32,224,82481,1,0
192,168,82814,6,0,B|232:168|232:168|272:112,1,110
328,208,83481,1,8
376,112,83814,2,0,B|408:168|408:168|464:168,1,110,0|4
328,280,84648,5,8
160,280,85148,2,0,B|160:160,1,110
296,72,85981,2,0,B|216:72|216:72|152:144,1,165
256,184,86814,6,0,B|344:184|344:184|392:248,1,165,0|8
224,248,87814,1,0
112,248,88148,1,0
168,152,88481,1,0
224,56,88814,1,8
272,152,89148,1,8
328,56,89481,1,4
256,192,89814,12,4,92148
256,280,98814,6,0,B|256:200,1,55
256,168,99148,2,0,B|256:112,2,55,0|0|8
312,168,99648,2,0,B|368:168|368:168|400:216,1,110
432,256,100148,1,0
432,312,100315,1,0
376,312,100481,1,0
264,312,100814,2,0,B|232:312|232:312|208:344,2,55,8|0|8
264,256,101314,2,0,B|200:256|200:256|168:216,1,110
168,164,101814,6,0,B|196:128|196:128|260:128,1,110,0|8
372,128,102481,2,0,B|372:48,2,55
464,192,103148,1,0
352,192,103481,2,0,B|296:192,1,55,8|0
296,248,103814,2,0,B|232:248,1,55,8|0
144,192,104314,6,0,B|80:192,2,55,0|8|0
200,192,104814,1,8
200,136,104981,2,0,B|200:80|200:80|264:64,1,110
308,68,105481,2,0,B|360:81|360:81|360:137,1,110
432,224,106148,1,8
400,272,106314,1,0
368,224,106481,1,8
336,272,106648,1,0
224,272,106981,6,0,B|160:272,2,55,0|0|0
224,216,107481,2,0,B|224:104,1,110,8|0
336,104,108148,6,0,B|376:152|376:152,1,55,0|0
424,144,108481,2,0,B|424:24,1,110,0|8
312,32,109148,2,8,B|232:112,1,110,0|0
184,216,109814,5,0
296,216,110148,1,8
352,216,110314,1,0
408,216,110481,1,0
408,104,110814,2,0,B|344:104|344:104|304:64,1,110
200,72,111481,1,8
144,168,111814,1,0
256,168,112148,1,0
312,72,112481,6,0,B|368:72|368:72,2,55,0|0|8
200,72,113148,1,0
88,72,113481,2,0,B|88:152|88:152|120:192,1,110
176,264,114148,1,8
240,176,114481,1,0
304,264,114814,1,0
368,176,115148,5,0
368,64,115481,1,8
312,64,115648,2,0,B|200:64|200:64|152:96,2,165
456,144,117148,2,0,B|344:144,1,110,0|0
288,144,117648,6,0,B|288:216,1,55
288,256,117981,1,0
232,256,118148,2,0,B|168:256|168:256|128:216,1,110,8|0
136,112,118814,2,0,B|136:184,1,55
256,56,119481,1,0
360,184,120148,6,0,B|320:120|320:120|232:120,1,164.999995082617,4|8
272,192,121148,2,0,B|182:192|182:192|142:128,1,164.999995082617,0|0
184,56,122148,1,8
104,56,122481,1,0
48,112,122814,2,0,B|48:200|48:200|112:248,1,164.999995082617,0|8
152,312,123814,5,0
200,248,124148,1,0
248,312,124481,1,0
296,248,124814,1,8
416,72,125481,5,4
360,72,125648,1,0
256,112,125981,1,8
152,72,126314,1,0
96,72,126481,1,0
96,240,126981,6,0,B|168:240,1,55
152,184,127314,2,0,B|208:184,1,55,0|8
208,240,127648,2,0,B|280:240,2,55
208,296,128148,2,0,B|136:296,1,55
152,184,128648,2,0,B|176:144|176:144|248:144,1,110,8|0
296,144,129148,2,0,B|320:96|320:96|392:96,1,110
432,96,129648,6,0,B|432:192,1,82.5,0|0
432,216,130148,1,8
464,240,130314,1,0
464,280,130481,1,0
464,320,130648,1,0
408,328,130814,5,4
352,328,130981,1,0
272,328,131314,2,0,B|240:280|240:280|168:280,1,110,8|0
136,280,131814,1,0
136,168,132148,5,0
192,168,132314,2,0,B|216:152|216:152|240:168,2,55
192,224,132814,2,0,B|248:240|248:240|312:224,1,110,8|0
352,216,133314,2,0,B|352:160,1,55
352,104,133648,2,0,B|408:104|408:104|432:152|432:152,1,110,0|8
480,248,134314,2,0,B|480:320|480:320,1,55
376,328,134814,5,0
272,208,135148,1,0
176,328,135481,1,8
80,208,135814,1,0
80,96,136148,6,0,B|112:32|112:32|208:32,1,165,4|8
176,136,136981,1,0
232,136,137148,2,0,B|344:136,1,110
392,88,137648,6,0,B|432:152,2,55
328,88,138148,2,0,B|288:152,2,55,8|0|0
360,40,138648,1,0
360,40,138814,1,0
464,168,139314,2,0,B|416:240|416:240|336:240,1,165,8|0
296,136,140148,6,0,B|264:80|264:80|216:80,1,110
184,184,140814,1,8
152,80,141148,2,0,B|104:80|104:80|72:136,1,110,0|4
128,288,141981,5,8
240,288,142314,2,0,B|296:288,1,55
384,224,142814,2,0,B|352:184|352:184|240:184,1,165
384,112,143814,2,0,B|272:112,1,110
216,112,144314,6,0,B|104:112,1,110,0|8
184,192,144981,1,0
240,192,145148,1,0
240,304,145481,2,0,B|296:304|296:304|328:256,1,110
424,208,146148,2,8,B|384:160|384:160|320:160,1,110
224,160,146814,1,4
256,192,147148,12,4,149148
96,80,165481,6,0,B|184:144|184:144|288:72|288:72,1,220,0|8
352,160,166481,2,0,B|240:240|240:240|144:240,1,220
160,128,167481,1,8
256,72,167815,1,0
312,72,167981,1,0
400,136,168315,6,0,B|400:208,1,55
344,192,168648,2,0,B|296:248,1,55,0|8
256,232,168981,2,0,B|176:232,1,55
200,288,169315,2,0,B|152:344,1,55
112,328,169648,2,0,B|48:328,1,55
56,272,169981,2,0,B|56:200,1,55,0|8
56,104,170481,1,0
168,104,170815,6,0,B|192:104|192:104|224:136,1,55
216,184,171148,2,0,B|240:208|240:208|280:208,1,55
288,160,171481,2,0,B|320:160|320:160|344:184,1,55,8|0
392,176,171815,2,0,B|408:160|408:160|448:160,1,55
440,104,172148,2,0,B|408:104|408:104|384:80,1,55
336,88,172481,2,0,B|320:104|320:104|288:104,1,55
232,104,172815,2,0,B|192:104|192:104|168:128,1,55,8|0
152,160,173148,2,0,B|136:176|136:176|104:176,1,55
104,232,173481,6,0,B|272:232,1,165,4|0
432,232,174481,1,0
432,64,174981,2,0,B|432:136,1,55
432,232,175481,1,8
320,232,175815,1,0
208,232,176148,6,0,B|208:152|208:152|128:96,2,165,4|0|0
104,208,177481,2,0,B|104:288|104:288|184:344,1,165,8|0
256,192,178481,2,0,B|256:72|256:72,1,110
256,82,178981,1,0
368,80,179315,6,0,B|432:80|432:80,1,55,0|8
424,192,179815,2,0,B|392:240|392:240|320:240,1,110
384,136,180481,2,0,B|328:136|328:136|296:184,1,110,0|8
232,272,181148,1,0
152,272,181481,6,0,B|152:232|152:232|120:192|120:192|120:152,1,123.749996311963,4|0
120,104,182148,1,8
120,104,182315,1,0
120,48,182481,2,0,B|200:48|200:48|256:128,1,165
336,48,183315,2,0,B|384:112,1,55,0|8
400,136,183648,5,0
368,184,183815,1,0
400,232,183981,1,0
368,272,184148,2,0,B|336:312|336:312|216:312,1,165
222,312,184815,1,8
112,312,185148,1,0
112,144,185648,5,0
152,104,185815,1,0
208,104,185981,1,0
248,144,186148,1,8
464,144,186815,5,4
408,144,186981,1,0
328,224,187315,1,8
248,304,187648,1,0
192,304,187815,1,0
64,192,188315,6,0,B|64:256,2,55
64,136,188815,2,0,B|64:64,1,55,8|0
104,40,189148,1,0
160,40,189315,1,0
216,40,189481,2,0,B|272:40,1,55
352,112,189981,2,0,B|320:160|320:160|264:160,1,110,8|0
216,160,190481,2,0,B|160:160|160:160|120:208,1,110
96,248,190981,5,0
96,248,191315,2,0,B|32:248,4,55
152,248,192148,5,4
208,248,192315,1,0
304,304,192648,2,0,B|376:304|376:304|432:232,1,165,8|0
328,192,193481,5,0
328,136,193648,2,0,B|328:80,2,55
272,136,194148,2,0,B|256:184|256:184|272:248,1,110,8|0
288,296,194648,2,0,B|296:328|296:328|336:328,1,55
376,328,194981,2,0,B|432:328|432:328|456:264|456:264,1,110,0|8
416,176,195648,2,0,B|392:240|392:240,1,55
304,176,196148,5,0
304,56,196481,1,0
184,176,196815,1,8
184,56,197148,1,0
64,56,197481,6,0,B|48:136|48:136|64:216,1,165,4|8
88,328,198315,1,0
144,328,198481,2,0,B|256:328,1,110
256,272,198981,6,0,B|328:272,2,55
256,216,199481,2,0,B|200:216,2,55,8|0|0
256,160,199981,1,0
256,104,200148,2,0,B|192:104,1,55
88,104,200648,1,0
88,216,200981,2,0,B|88:280,1,55
200,272,201481,6,0,B|232:320|232:320|304:320,1,110
296,208,202148,1,8
312,96,202481,2,0,B|368:96|368:96|400:152,1,110,0|4
240,96,203315,5,8
72,96,203815,2,0,B|72:216,1,110
208,296,204648,2,0,B|128:296|128:296|72:232,1,165
184,224,205481,6,0,B|272:224|272:224|320:160,1,165,0|8
318,162,206481,1,0
256,256,206815,5,0
256,312,206981,1,0
256,200,207315,1,8
256,88,207648,1,8
256,144,207815,1,4
152,104,208148,5,4
152,48,208315,1,0
256,16,208648,1,8
360,48,208981,1,0
360,104,209148,1,0
360,216,209481,6,0,B|360:272,1,55
256,144,210148,2,0,B|256:224,1,55
256,256,210481,2,0,B|256:328,1,55
144,192,211148,1,0
144,304,211481,2,0,B|144:240,1,55
152,80,212148,6,0,B|256:56|256:56|376:88,1,220
416,104,212981,1,0
416,160,213148,1,0
368,184,213315,1,0
312,184,213481,5,4
256,184,213648,1,0
160,240,213981,2,0,B|192:288|192:288|264:288,1,110,8|0
296,288,214481,1,0
408,288,214815,5,0
384,240,214981,2,0,B|408:224|408:224|432:240,2,55
344,200,215481,2,0,B|288:184|288:184|224:200,1,110,8|0
184,200,215981,2,0,B|112:200,1,55
128,144,216315,2,0,B|184:144|184:144|208:96|208:96,1,110,0|8
320,96,216981,2,0,B|384:96|384:96,1,55
336,216,217481,5,0
176,216,217815,1,0
336,216,218148,1,8
176,216,218481,1,0
256,144,218815,6,0,B|328:144|328:144|392:72,1,165,4|8
288,40,219648,1,0
232,40,219815,2,0,B|120:40,1,110
80,88,220315,6,0,B|80:152,1,55
80,200,220648,2,0,B|120:240,1,55,0|8
176,240,220981,2,0,B|256:240,1,55
288,240,221315,1,0
344,240,221481,1,0
256,96,221981,2,0,B|336:96|336:96|400:168,1,165
368,264,222815,6,0,B|336:320|336:320|288:320,1,110
256,216,223481,1,8
224,320,223815,2,0,B|176:320|176:320|144:264,1,110,0|4
72,120,224648,5,8
184,120,224981,2,0,B|240:120,1,55
200,224,225481,2,0,B|232:184|232:184|344:184,1,165
464,304,226481,2,0,B|344:304,1,110
296,304,226981,6,0,B|176:304,1,110,0|8
256,216,227648,1,0
200,216,227815,1,0
256,120,228148,2,0,B|200:120|200:120|168:72,1,110
272,48,228815,2,8,B|328:48|328:48|360:96,1,110
288,160,229481,1,4
256,192,229815,12,4,231815
208,128,238814,5,0
208,184,238980,1,0
304,128,239313,1,0
360,128,239480,2,0,B|360:184|360:184|312:208,1,110,8|0
456,128,240313,1,0
456,240,240647,2,0,B|456:280|456:280|432:304,1,55,0|8
336,296,241147,6,0,B|272:296,2,55
336,240,241647,1,0
280,144,241980,1,8
224,240,242313,1,0
168,144,242647,1,0
112,240,242980,1,4
208,104,243481,6,0,B|208:168|208:168,1,55
304,104,243981,2,0,B|304:168,1,55,0|8
256,56,244481,1,0
256,112,244648,1,0
256,168,244814,1,0
256,224,244981,2,0,B|208:256|208:256|160:224|160:224,1,110,0|0
112,224,245481,1,8
112,112,245814,6,0,B|32:112,2,55
168,112,246314,2,0,B|200:64|200:64|256:64,1,110,0|8
360,64,246981,1,0
360,176,247314,2,0,B|360:232,1,55
416,232,247648,2,0,B|416:168,1,55,0|8
472,176,247981,2,0,B|472:240,1,55,0|4
