osu file format v9

[General]
AudioFilename: Indestructible.mp3
AudioLeadIn: 0
PreviewTime: 59266
Countdown: 1
SampleSet: Normal
StackLeniency: 1
Mode: 0
LetterboxInBreaks: 0

[Editor]
Bookmarks: 41648,63898,98814,165481,172491
DistanceSpacing: 1
BeatDivisor: 4
GridSize: 8

[Metadata]
Title:Indestructible
Artist:Disturbed
Creator:narakucrimson
Version:Newbie
Source:
Tags:hard rock heavy alternative nu metal

[Difficulty]
HPDrainRate:1
CircleSize:3
OverallDifficulty:2
ApproachRate:2
SliderMultiplier:0.8
SliderTickRate:2

[Events]
//Background and Video events
0,0,"background.jpg"
Video,0,"Vid.avi"
//Break Periods
2,41681,49254
2,92348,97254
2,149348,163921
2,232014,237254
//Storyboard Layer 0 (Background)
//Storyboard Layer 1 (Fail)
//Storyboard Layer 2 (Pass)
//Storyboard Layer 3 (Foreground)
//Storyboard Sound Samples
//Background Colour Transformations
3,100,163,162,255

[TimingPoints]
22815,333.333333333333,4,1,0,100,1,0
68148,-100,4,1,0,100,0,1
89481,-100,4,1,0,100,0,0
125481,-100,4,1,0,100,0,1
146814,-100,4,1,0,100,0,0
181481,-100,4,1,0,100,0,0
182314,-100,4,1,0,100,0,0
186814,-100,4,1,0,100,0,1
206814,-100,4,2,0,71,0,0
207981,-100,4,1,0,100,0,0
213481,-100,4,1,0,100,0,1
229481,-100,4,1,0,100,0,0

[Colours]
Combo1 : 137,114,20
Combo2 : 30,131,18
Combo3 : 210,15,15
Combo4 : 184,186,139

[HitObjects]
432,304,22815,1,0
288,304,23481,1,8
208,304,23815,1,0
104,248,24315,2,0,B|136:200|136:200|200:200,1,120,0|8
280,200,25148,1,0
360,200,25481,1,0
432,104,25981,6,0,B|352:104,2,80,8|0|0
432,24,26981,2,0,B|304:24,1,120,4|0
152,24,28148,6,0,B|152:112,1,80,8|0
152,224,28981,2,0,B|192:264|192:264|256:264,1,120,0|8
336,264,29815,2,0,B|416:264,1,80
416,144,30648,2,0,B|328:144,2,80,8|0|0
152,72,32148,5,0
152,72,32815,2,0,B|152:160,1,80,8|0
48,144,33648,2,0,B|72:216|72:216|120:216,1,120,0|8
152,288,34481,1,0
192,216,34815,2,0,B|236:216|236:216|260:144,1,120,0|8
328,104,35648,2,0,B|368:96|368:96|408:104,2,80,0|0|4
368,216,36815,1,4
208,224,37481,6,0,B|128:224,1,80,8|0
120,104,38315,2,0,B|56:104|56:104|24:152,1,120,0|8
24,232,39148,2,0,B|24:312,1,80
144,312,39981,2,0,B|184:320|184:320|224:312,2,80
184,120,41481,1,4
256,96,50814,5,0
256,256,51481,2,0,B|256:336,2,80,8|0|0
408,200,52815,6,0,B|448:200,2,40,8|0|0
408,120,53481,1,0
272,200,54148,2,0,B|272:112,2,80,8|0|0
56,176,55481,6,0,B|96:240|96:240|184:240,1,160,8|0
224,312,56481,1,0
264,240,56814,1,8
304,312,57148,1,0
344,240,57481,1,0
344,80,58148,6,0,B|272:80|272:80|216:168,1,160,8|0
184,224,59148,1,0
104,224,59481,1,8
104,304,59814,2,0,B|184:304,1,80
416,280,60814,5,8
264,320,61481,2,0,B|176:320|176:320|128:264,1,160,0|8
128,104,62814,6,0,B|174:49|174:49|262:49,1,160,0|8
344,48,63814,1,0
336,200,64481,6,0,B|336:288,2,80,0|8|0
416,200,65481,2,0,B|416:120|416:120|344:88,1,160,0|8
264,88,66481,6,0,B|184:88,3,80,0|0|0|8
184,248,68148,6,0,B|241:248|241:248|288:288,2,120,4|8|0
104,248,69481,1,0
104,168,69814,1,0
104,88,70148,1,8
184,88,70482,1,0
264,88,70814,1,0
384,88,71314,2,0,B|384:208,1,120,8|0
384,288,72148,6,0,B|344:336|344:336|248:336,1,160
96,272,73481,6,0,B|96:192|96:192|168:152,1,160,4|8
248,152,74481,1,0
328,152,74814,2,0,B|408:152,2,80,0|0|8
368,224,75814,2,0,B|424:224,2,40
216,280,76814,1,0
280,328,77148,1,0
360,328,77481,6,0,B|440:328,3,80,0|0|8|0
432,248,78815,6,0,B|432:192|432:192|480:152,1,120,4|0
360,136,79814,2,0,B|432:80,1,80,0|0
360,136,80481,2,0,B|272:136,1,80,0|8
200,136,81148,1,0
200,216,81481,2,0,B|248:216|248:216|272:240|272:240|320:240,2,120
200,136,82815,6,0,B|200:56,1,80
280,40,83481,1,8
360,56,83815,2,0,B|360:136,1,80,0|4
336,296,84814,6,0,B|256:312|256:312|176:296,2,160,8|0|8
316,136,86814,2,0,B|256:148|256:148|196:136,1,120,0|8
104,216,87815,1,0
136,288,88148,1,0
216,288,88481,1,0
296,288,88815,1,8
376,288,89148,1,8
416,216,89481,1,4
256,192,89815,12,4,92148
256,192,98814,5,4
416,192,99481,2,0,B|336:192,1,80,8|0
360,112,100148,2,0,B|272:112,1,80
200,112,100814,2,0,B|112:112,2,80,8|0|0
200,272,102148,6,0,B|304:272|304:272|344:224,1,160,8|0
392,168,103148,2,0,B|448:104,1,80,0|8
384,56,103814,1,0
328,120,104148,1,0
184,192,104814,6,0,B|128:192|128:192|96:160|96:160|32:160,2,160,8|0|8
224,264,106481,1,0
264,192,106814,1,0
304,264,107148,5,0
344,192,107481,2,0,B|344:136|344:136|376:104|376:104|376:40,2,160,8|0|8
344,272,109148,2,0,B|344:360,1,80,0|4
208,272,110148,6,0,B|152:272,2,40,8|0|0
72,184,111148,1,0
112,112,111481,1,8
152,184,111815,1,0
192,112,112148,1,0
352,112,112814,6,0,B|408:112,2,40,8|0|0
488,200,113814,1,0
448,272,114147,1,8
408,200,114481,1,0
368,272,114814,1,0
256,160,115481,6,0,B|256:104,2,40,8|0|0
320,208,116148,1,0
256,256,116481,1,0
192,304,116814,1,8
256,352,117148,2,0,B|336:352,1,80,0|0
336,192,118148,6,0,B|256:176|256:176|176:192,1,160,8|0
16,192,119481,1,0
152,104,120148,6,0,B|198:49|198:49|286:49,1,160,0|8
368,48,121148,1,0
368,208,121814,2,0,B|456:208,2,80,0|8|0
288,208,122815,2,0,B|288:128|288:128|216:88,1,160,4|8
136,88,123814,6,0,B|136:168,1,80,0|0
136,248,124481,2,0,B|224:248,1,80,0|8
232,88,125481,6,0,B|232:128|232:128|272:160|272:160|272:192,2,120,0|8|0
312,88,126814,1,0
392,88,127148,1,0
448,144,127481,1,8
448,224,127814,2,0,B|448:304,1,80
352,224,128648,2,0,B|328:288|328:288|272:288,1,120,8|0
200,288,129481,6,0,B|200:120,1,160,0|8
360,128,130815,6,0,B|288:128|288:128|240:48,1,160,4|8
164,52,131815,2,0,B|140:92|140:92|108:92,1,80
24,96,132481,2,0,B|24:184,1,80,0|8
24,256,133148,2,0,B|24:312,2,40
160,176,134148,1,8
296,256,134815,5,0
376,256,135148,1,0
432,192,135481,1,8
432,112,135815,1,0
352,112,136148,6,0,B|296:112|296:112|256:160,1,120,4|0
136,168,137148,2,0,B|136:88,1,80,0|0
56,112,137814,2,0,B|56:192,1,80,0|8
56,272,138481,1,0
136,272,138814,2,0,B|184:272|184:272|208:296|208:296|256:296,2,120
128,192,140148,6,0,B|200:152,1,80
256,208,140814,1,8
314,153,141148,2,0,B|384:192,1,80,0|4
256,96,142147,6,0,B|176:112|176:112|96:96,2,160,8|0|8
416,88,144147,2,0,B|356:76|356:76|296:88,1,120,0|8
296,208,145148,1,0
216,208,145481,1,0
160,264,145815,1,0
216,320,146148,1,8
296,320,146481,1,8
356,264,146815,1,4
256,192,147148,12,4,149148
120,64,165481,6,0,B|208:64|208:64|272:112,1,160,4|8
272,184,166481,2,0,B|360:184|360:184|424:136,1,160,0|0
416,64,167481,1,8
336,64,167814,6,4,B|288:64,1,40,0|4
176,64,168481,2,0,B|176:144,2,80,0|8|0
256,88,169481,2,0,B|256:168,1,80
200,224,170148,1,8
256,280,170481,1,0
336,280,170814,6,0,B|384:280|384:280|416:312,1,80,4|0
464,248,171481,2,0,B|441:225|441:225|441:177,1,80,8|0
360,176,172148,2,0,B|360:127|360:127|382:105,1,80,0|0
328,48,172814,2,0,B|305:70|305:70|257:70,1,80,8|0
256,152,173481,6,0,B|88:152,1,160,4|8
96,232,174481,2,0,B|256:232,1,160
336,232,175481,2,0,B|416:232,1,80,8|0
432,152,176148,6,0,B|392:96|392:96|296:96,1,160,4|8
256,32,177148,1,0
211,96,177481,2,0,B|120:96|120:96|80:152,1,160,0|8
120,224,178481,1,0
200,224,178814,2,0,B|288:224,2,80,0|0|8
200,304,179814,2,0,B|288:304,4,80,0|0|0|8|0
200,224,181481,6,0,B|200:144|200:144|272:96,1,160,4|8
336,56,182481,1,0
424,192,183148,2,0,B|344:192,3,80,0|8|0|4
184,200,184814,1,8
184,120,185148,2,0,B|240:72|240:72|328:72,1,160,0|0
408,72,186148,1,8
280,168,186814,6,0,B|337:168|337:168|384:208,2,120,4|8|0
232,232,188147,1,0
184,168,188480,1,0
136,232,188814,1,8
88,168,189148,1,0
40,104,189480,1,0
160,104,189980,2,0,B|280:104,1,120,8|0
360,104,190814,6,0,B|360:184|360:184|432:232,1,160,0|8
280,176,192147,6,0,B|280:96|280:96|208:56,1,160,4|8
136,88,193147,1,0
136,168,193480,2,0,B|136:256,2,80,0|0|8
216,168,194480,2,0,B|216:224,2,40
376,168,195480,1,8
456,168,195814,1,0
456,248,196147,6,0,B|368:248,3,80,0|0|8|0
296,248,197481,6,0,B|296:192|296:192|344:152,1,120,4|0
224,136,198480,2,0,B|296:80,1,80,0|0
352,40,199147,2,0,B|448:40,1,80,0|8
480,104,199814,1,0
480,184,200147,2,0,B|480:232|480:232|456:256|456:256|456:304,2,120
400,184,201481,6,0,B|400:104,1,80
320,104,202147,1,8
240,104,202481,2,0,B|160:104,1,80,0|4
192,264,203480,6,0,B|232:288|232:288|256:312|256:312|280:288|280:288|320:264,2,160,8|0|8
256,120,205481,2,0,B|256:216,2,80,0|0|8
256,40,206481,1,0
336,40,206814,5,0
400,88,207148,1,0
336,136,207481,1,8
400,184,207814,1,0
336,232,208148,1,4
112,136,209148,5,0
112,56,209481,1,0
256,128,210148,1,0
256,208,210481,1,0
400,136,211148,1,0
400,56,211481,1,0
256,128,212148,2,0,B|256:304,1,160
416,272,213481,6,0,B|344:272|344:272|296:352,1,160,4|8
216,352,214481,2,0,B|176:352|176:352|152:312,1,80
80,288,215147,2,0,B|80:200,1,80,0|8
80,128,215814,2,0,B|80:72,2,40
216,216,216814,1,8
352,128,217481,5,0
432,128,217814,1,0
488,184,218147,1,8
488,264,218481,1,0
424,312,218814,6,0,B|368:312|368:312|328:264,1,120,4|0
208,240,219813,2,0,B|208:320,1,80,0|0
128,296,220480,2,0,B|128:216,1,80,0|8
128,136,221147,1,0
208,136,221480,2,0,B|256:136|256:136|280:112|280:112|328:112,2,120
184,216,222814,6,0,B|184:296,1,80
256,336,223480,1,8
328,296,223814,2,0,B|328:216,1,80,0|4
336,56,224813,6,0,B|256:40|256:40|176:56,2,160,8|0|8
320,216,226813,2,0,B|256:224|256:224|192:216,1,120,0|8
128,120,227814,1,0
172,52,228147,1,0
216,120,228481,1,0
296,120,228814,1,8
340,52,229147,1,8
384,120,229481,1,4
256,192,229814,12,4,231814
256,192,238814,5,0
96,192,239481,1,8
96,272,239815,1,0
216,272,240315,2,0,B|248:320|248:320|312:320,1,120,0|8
392,320,241148,1,0
432,248,241481,1,0
432,128,241981,6,0,B|352:128,2,80,8|0|0
432,48,242981,2,0,B|304:48,1,120,4|0
152,64,244147,5,8
232,64,244481,1,0
328,128,244981,2,0,B|296:176|296:176|224:176,1,120,0|8
152,176,245814,1,0
72,176,246147,1,0
152,264,246647,5,8
200,328,246981,1,0
248,264,247314,1,0
296,328,247647,2,0,B|432:328,1,120,0|4
