osu file format v9

[General]
AudioFilename: Indestructible.mp3
AudioLeadIn: 0
PreviewTime: 59266
Countdown: 1
SampleSet: Normal
StackLeniency: 1
Mode: 0
LetterboxInBreaks: 0

[Editor]
Bookmarks: 98814,218824,238824
DistanceSpacing: 1
BeatDivisor: 4
GridSize: 4

[Metadata]
Title:Indestructible
Artist:Disturbed
Creator:narakucrimson
Version:Indestructible
Source:
Tags:hard rock heavy alternative nu metal

[Difficulty]
HPDrainRate:8
CircleSize:4
OverallDifficulty:8
ApproachRate:8
SliderMultiplier:1.4
SliderTickRate:2

[Events]
//Background and Video events
0,0,"background.jpg"
Video,0,"Vid.avi"
//Break Periods
2,41681,48898
2,92348,98064
2,149681,164731
2,232014,238065
//Storyboard Layer 0 (Background)
//Storyboard Layer 1 (Fail)
//Storyboard Layer 2 (Pass)
//Storyboard Layer 3 (Foreground)
//Storyboard Sound Samples
//Background Colour Transformations
3,100,163,162,255

[TimingPoints]
22815,333.333333333333,4,1,0,100,1,0
62814,-133.333333333333,4,1,0,100,0,0
68148,-100,4,1,0,100,0,1
72314,-133.333333333333,4,1,0,100,0,1
73481,-100,4,1,0,100,0,1
89481,-100,4,1,0,100,0,0
120148,-133.333333333333,4,1,0,100,0,0
125481,-100,4,1,0,100,0,1
129648,-133.333333333333,4,1,0,100,0,1
130814,-100,4,1,0,100,0,1
146814,-100,4,1,0,100,0,0
181481,-133.333333333333,4,1,0,100,0,0
182314,-100,4,1,0,100,0,0
186814,-100,4,1,0,100,0,1
206814,-100,4,2,0,80,0,0
207981,-100,4,1,0,100,0,0
213481,-100,4,1,0,100,0,1
229481,-100,4,1,0,100,0,0

[Colours]
Combo1 : 137,114,20
Combo2 : 30,131,18
Combo3 : 210,15,15
Combo4 : 184,186,139

[HitObjects]
392,200,22815,1,4
320,208,22981,1,0
248,216,23148,1,0
176,224,23314,1,0
104,232,23481,1,8
104,80,23814,1,0
240,80,24148,5,0
312,80,24314,1,0
448,80,24648,1,0
448,152,24814,1,8
312,176,25148,5,0
240,176,25314,1,0
168,176,25481,2,0,B|168:224|168:224|208:248,1,70
72,160,25981,1,8
232,112,26314,1,0
408,112,26648,1,0
408,264,26981,5,8
352,304,27148,1,0
296,264,27314,1,8
240,304,27481,2,0,B|160:304,1,70,0|0
72,200,27981,5,0
72,128,28148,1,8
72,272,28481,2,0,B|160:272|160:272|184:224,1,140
216,160,28981,1,0
296,48,29314,5,0
368,48,29481,2,0,B|416:80|416:80|416:176,1,140,8|0
464,216,29981,1,0
416,272,30148,1,0
368,216,30314,1,0
144,216,30648,5,8
256,48,30981,1,0
256,248,31314,5,0
184,248,31481,2,0,B|184:296|184:296|200:312,1,70
256,352,31814,1,8
312,312,31981,2,0,B|328:296|328:296|328:224,1,70
328,176,32314,1,4
256,56,32648,5,0
328,56,32814,1,8
184,56,33148,2,0,B|88:56|88:56|88:176,1,210
88,312,33981,2,0,B|88:264|88:264|128:240,1,70,0|8
184,136,34481,5,0
184,208,34648,1,0
184,280,34814,2,0,B|184:320|184:320|216:344,1,70
336,280,35314,1,8
336,136,35648,1,0
336,280,35981,1,0
256,160,36314,5,8
256,88,36481,1,0
192,120,36648,1,8
192,48,36814,1,0
128,88,36981,2,0,B|72:128|72:128|72:208,1,140
72,272,37481,1,8
256,272,37815,6,0,B|256:128,1,140
256,48,38315,1,0
392,48,38648,2,0,B|392:96|392:96|424:120,1,70,0|8
464,240,39148,5,0
384,240,39315,1,0
424,304,39481,2,0,B|424:344|424:344|376:344,1,70
256,344,39981,1,8
256,200,40315,1,0
256,64,40648,5,0
328,64,40815,2,0,B|328:152,1,70
400,136,41148,1,8
472,136,41315,2,0,B|472:216,1,70,0|4
256,72,49648,6,0,B|256:168,1,70
328,128,49981,2,0,B|328:200,1,70,0|8
184,128,50315,2,0,B|184:208,1,70
208,336,50815,1,0
256,280,50981,1,0
304,336,51148,1,0
440,336,51481,6,0,B|440:264,1,70,8|0
440,192,51815,2,0,B|440:120,1,70,8|0
336,32,52315,6,0,B|336:120|336:120|232:208,1,210,0|8
168,200,52981,2,0,B|80:128|80:128|80:16,1,210
208,96,53815,1,0
208,232,54148,2,0,B|208:288|208:288|240:320,1,70,8|0
280,264,54481,2,0,B|296:280|296:280|296:344,1,70,0|0
424,264,54981,5,0
368,216,55148,1,0
368,144,55315,1,0
312,96,55481,1,8
168,96,55815,1,0
256,200,56148,1,0
208,256,56315,1,0
136,256,56481,1,0
136,120,56815,2,0,B|160:88|160:88|192:88,1,70,8|0
264,88,57148,2,0,B|296:88|296:88|320:120,1,70,8|0
384,240,57648,5,0
432,184,57815,1,0
384,128,57981,1,0
336,184,58148,1,8
384,240,58315,1,0
248,224,58648,2,0,B|320:304|320:304|320:336,1,140
248,336,59148,1,0
144,240,59481,5,8
144,168,59648,1,0
200,120,59815,1,0
200,48,59981,1,0
64,48,60315,6,0,B|64:128,1,70
64,192,60648,1,0
64,264,60815,1,8
64,336,60981,1,0
64,264,61148,1,0
200,264,61481,5,0
248,208,61648,1,0
320,208,61815,2,0,B|336:144|336:144|320:72,1,140,0|8
248,72,62315,1,0
192,24,62481,1,8
246,140,62815,6,0,B|456:140,1,209.999993741512,4|8
456,140,63815,1,0
456,280,64481,5,0
256,192,64815,1,8
56,280,65148,1,0
256,122,65481,2,0,B|256:336,1,209.999993741512,0|8
328,120,66481,5,0
256,332,66815,1,0
184,120,67148,1,0
256,224,67481,2,0,B|256:120,1,104.999996870756,8|0
128,88,68148,5,0
176,40,68315,1,0
256,160,68648,1,8
336,40,68981,1,0
384,88,69148,1,0
160,88,69648,5,0
160,160,69815,1,0
160,232,69981,1,0
160,304,70148,1,8
232,304,70315,1,0
304,304,70481,5,0
376,304,70648,1,0
376,232,70815,1,0
376,160,70981,1,0
448,304,71315,1,8
304,232,71648,1,0
304,160,71815,1,0
448,96,72314,6,0,B|417:57|417:57|361:57,1,104.999996870756,8|0
304,56,72815,2,0,B|240:56,1,52.4999984353781,8|0
200,56,73148,2,0,B|136:56,1,52.4999984353781
104,128,73481,6,0,B|104:208,1,70,4|0
256,192,73981,1,8
408,256,74315,2,0,B|408:176,1,70,4|0
408,48,74815,1,0
336,48,74981,6,0,B|336:128,1,70
264,104,75315,2,0,B|264:184,1,70,0|8
192,160,75648,2,0,B|192:248,1,70
120,216,75981,2,0,B|120:312,1,70
192,288,76315,2,0,B|248:288|248:288|320:216,1,140,0|8
408,128,76981,1,0
408,200,77148,1,0
472,64,77481,6,0,B|408:48|408:48|336:64,1,140
168,64,78148,2,0,B|104:48|104:48|32:64,1,140,8|0
104,184,78815,5,4
104,256,78981,2,0,B|176:256|176:256|232:192,2,140,0|8|0
104,328,79814,1,0
240,328,80148,5,0
288,272,80314,1,0
336,216,80481,2,0,B|336:128,1,70,0|0
408,144,80814,2,0,B|408:240,1,70,8|0
480,216,81148,2,0,B|480:136,1,70
408,72,81481,5,0
336,72,81648,2,0,B|272:72|272:72|216:144,2,140,0|8|0
336,144,82481,2,0,B|336:288,1,140
265,284,82981,6,0,B|185:284,1,70
112,168,83481,1,8
256,168,83814,1,0
400,168,84148,1,4
256,320,84648,5,0
120,312,84981,1,0
120,312,85148,2,0,B|168:200|168:200|208:200,1,140
392,312,85981,2,0,B|344:200|344:200|256:200,1,210
256,64,86814,5,0
192,112,86981,2,0,B|256:144|256:144|320:112,1,140,0|8
256,224,87648,2,0,B|256:312,1,70
136,216,88148,5,0
376,216,88481,1,0
184,352,88814,1,8
256,120,89148,1,8
328,352,89481,1,4
256,192,89648,12,0,92148
256,216,98814,6,0,B|256:312,1,70
328,272,99147,2,0,B|360:336,1,70,0|0
184,272,99481,2,0,B|152:336,1,70,8|0
208,208,99981,1,0
256,152,100147,1,0
304,208,100314,1,0
352,152,100481,1,0
440,336,100814,6,0,B|440:264,1,70,8|0
440,192,101148,2,0,B|440:120,1,70,8|0
320,56,101648,6,0,B|248:56,1,70,0|0
176,56,101982,2,0,B|104:56,1,70,0|8
224,136,102481,2,0,B|296:136|296:136|336:192,1,140
400,160,102981,2,0,B|448:224,1,70
288,240,103481,2,0,B|360:240,1,70,8|0
224,240,103814,2,0,B|152:240,1,70,8|0
256,144,104314,5,0
208,88,104481,1,0
256,32,104648,1,0
304,88,104814,1,8
256,144,104981,2,0,B|256:288,1,140
256,284,105481,1,0
368,144,105814,1,0
144,144,106148,2,0,B|144:216,1,70,8|0
144,336,106481,2,0,B|144:256,1,70,8|0
256,184,106981,6,0,B|256:112,1,70
296,48,107314,1,0
216,48,107481,2,0,B|160:48|160:48|96:128,1,140,8|0
224,192,108148,6,0,B|256:208|256:208|288:192,2,70
328,64,108814,2,0,B|344:144,1,70,8|0
176,64,109148,2,0,B|160:144,1,70,8|0
256,240,109648,6,0,B|256:320|256:320|184:344,1,140
184,272,110148,2,0,B|184:176,1,70,8|0
304,128,110648,1,0
232,128,110814,1,0
240,56,110981,2,0,B|192:56|192:56|168:104,1,70
104,208,111481,6,0,B|184:208,1,70,8|0
408,208,111814,2,0,B|328:208,1,70
256,320,112314,5,0
256,248,112481,1,0
200,200,112648,1,0
256,152,112814,1,8
312,104,112981,1,0
256,56,113148,1,0
384,112,113481,6,0,B|432:112|432:112|464:144,1,70
448,200,113814,1,0
360,312,114148,1,8
288,312,114314,1,0
360,240,114481,1,8
288,240,114648,1,0
152,240,114981,5,0
104,176,115148,1,0
104,104,115314,1,0
104,104,115481,1,8
168,136,115648,2,0,B|208:184|208:184|296:184,1,140
352,184,116148,1,0
352,112,116314,1,0
304,56,116481,1,0
440,56,116814,5,8
440,144,116981,1,0
440,56,117148,1,0
440,144,117314,1,0
440,288,117648,5,0
368,288,117814,1,0
328,224,117981,1,0
256,224,118148,1,0
184,224,118314,1,0
184,152,118481,2,0,B|208:96|208:96|296:96,1,140
360,96,118981,1,4
352,336,120148,6,0,B|256:292|256:292|160:336,1,209.999993741512,0|8
256,216,121148,1,0
400,72,121814,5,0
112,104,122148,1,8
400,136,122481,1,0
112,168,122814,2,0,B|172:252|172:252|280:252,1,209.999993741512,0|8
256,104,123814,5,0
336,296,124148,1,0
256,104,124481,1,0
176,296,124814,1,8
256,104,125148,1,0
128,160,125481,5,0
200,160,125648,1,0
256,288,125981,1,8
312,160,126314,1,0
384,160,126481,1,0
200,264,126981,5,0
200,192,127148,1,0
200,120,127314,1,0
200,48,127481,1,8
272,48,127648,1,0
344,48,127814,5,0
416,48,127981,1,0
416,120,128148,1,0
416,192,128314,1,0
272,192,128648,1,8
416,192,128981,1,0
488,192,129148,1,0
416,344,129648,6,0,B|368:344|368:344|336:296,1,104.999996870756
296,264,130148,2,0,B|264:264|264:264|240:288,1,52.4999984353781,8|0
296,192,130481,2,0,B|264:192|264:192|240:168,1,52.4999984353781,0|0
200,228,130814,1,4
256,32,131314,5,0
184,32,131481,1,8
112,32,131648,1,0
40,32,131814,1,0
256,96,132314,5,0
256,96,132481,2,0,B|256:176,1,70
184,152,132815,2,0,B|184:232,1,70,8|0
328,152,133148,2,0,B|328:240,1,70,0|0
328,288,133481,2,0,B|288:288|288:288|240:312|240:312|184:312,1,140
193,312,133981,1,8
400,288,134315,1,8
368,224,134481,1,0
296,224,134648,1,0
256,164,134814,6,0,B|184:164|184:164|120:108,1,140
256,164,135481,2,0,B|328:164|328:164|392:108,1,140,8|0
256,240,136148,6,0,B|256:312,1,70,4|0
192,200,136648,1,8
144,328,136981,2,0,B|248:328,1,70
416,336,137481,5,0
416,264,137648,1,0
344,264,137814,2,0,B|240:264,1,70,0|0
272,192,138148,2,0,B|272:112,1,70,8|0
344,120,138481,2,0,B|424:120,1,70
416,48,138814,5,0
344,48,138981,1,0
208,48,139314,1,8
104,144,139648,1,0
104,216,139814,1,0
240,216,140148,6,0,B|240:184|240:184|272:160,2,70
368,160,140814,2,0,B|440:160|440:160|480:224,2,140,8|0|4
152,160,141981,5,0
256,64,142314,1,0
256,136,142481,1,0
256,208,142648,1,0
256,280,142814,1,0
352,80,143314,2,0,B|256:40|256:40|160:80,1,210
216,128,143981,5,0
296,128,144148,1,0
368,160,144314,2,0,B|424:160|424:160|448:248,1,140,0|8
392,288,144814,1,0
336,240,144981,2,0,B|264:240,1,70
136,176,145481,6,0,B|136:96|136:96|200:56,1,140
280,176,146148,2,8,B|280:256|280:256|216:296,1,140,8|8
208,176,146814,1,4
256,192,146981,12,4,149481
104,80,165481,6,0,B|136:120|136:120|232:120|232:120|256:144|256:144|360:144,1,280,0|8
352,72,166315,1,0
424,72,166481,2,0,B|424:216|424:216|336:216,1,210
288,216,167148,1,0
240,272,167315,1,0
168,272,167481,1,8
168,136,167815,6,0,B|88:136,1,70,0|0
344,136,168315,1,0
384,136,168398,1,0
424,136,168481,1,0
424,208,168648,1,0
384,208,168731,1,0
344,208,168815,1,8
344,280,168981,6,0,B|424:280,2,70
272,280,169481,1,0
248,304,169565,1,0
224,328,169648,1,0
168,280,169815,2,0,B|224:224,1,70
112,232,170148,1,8
168,176,170315,1,0
224,120,170481,1,0
344,56,170815,6,0,B|344:128,1,70
344,200,171148,2,0,B|272:264,1,70
336,304,171481,2,0,B|400:248,1,70,8|0
424,200,171815,1,0
424,128,171981,1,0
352,128,172148,1,0
280,128,172315,5,0
224,176,172481,1,0
280,224,172648,1,0
224,272,172815,2,0,B|152:272,1,70,8|0
72,272,173148,1,0
112,344,173315,1,0
192,344,173481,6,0,B|248:344|248:344|336:264|336:264|392:264,1,210,4|0
440,264,174148,1,8
440,120,174481,1,0
240,192,174981,2,0,B|152:192,1,70
32,192,175481,1,8
32,56,175815,1,0
168,56,176148,6,0,B|208:128|208:128|344:128,1,210,0|0
336,128,176815,1,8
336,128,177148,1,0
472,128,177481,2,0,B|432:200|432:200|296:200,1,210,0|0
232,200,178148,1,8
88,200,178481,1,0
160,320,178815,5,0
232,320,178981,1,0
400,320,179315,1,0
328,320,179481,1,8
464,256,179815,5,0
392,256,179981,1,0
336,208,180148,1,0
216,144,180481,1,0
96,208,180815,1,8
216,280,181148,1,0
312,232,181481,6,0,B|256:144|256:144|144:144,1,209.999993741512,0|8
80,144,182315,2,0,B|80:72,1,70
256,32,182981,5,0
320,120,183148,1,0
192,120,183315,1,0
256,208,183481,1,8
128,208,183648,1,0
192,304,183815,1,0
320,304,183981,1,0
384,208,184148,1,4
256,64,184648,1,0
256,152,184815,1,8
192,280,185148,5,0
224,280,185231,1,0
256,296,185315,1,0
288,280,185398,1,0
320,280,185481,1,0
256,216,185648,2,0,B|256:176,4,35
256,216,186148,1,4
120,200,186815,5,0
120,128,186981,1,0
256,120,187315,1,8
392,128,187648,1,0
392,200,187815,1,0
256,40,188315,5,0
312,80,188481,1,0
256,120,188648,1,0
200,160,188815,1,8
256,200,188981,1,0
200,240,189148,5,0
144,200,189315,1,0
88,160,189481,1,0
32,200,189648,1,0
144,280,189981,1,8
144,120,190315,1,0
216,120,190481,1,0
416,48,190981,6,0,B|416:128|416:128|344:160,1,140
360,224,191481,1,8
424,200,191648,1,0
488,176,191815,1,0
488,240,191981,1,0
424,264,192148,5,4
360,288,192315,1,0
392,152,192648,1,8
160,160,192981,2,0,B|232:160|232:160,1,70,0|0
160,280,193481,1,0
104,232,193648,6,0,B|104:312,1,70
160,232,193981,2,0,B|160:136,1,70,0|8
216,232,194315,2,0,B|216:320,1,70
272,232,194648,1,0
304,168,194815,5,0
376,168,194981,1,0
256,96,195315,1,8
136,168,195648,1,0
208,168,195815,1,0
472,64,196148,6,0,B|408:48|408:48|336:64,1,140
168,64,196815,2,0,B|104:48|104:48|32:64,1,140,8|0
104,184,197481,5,4
104,256,197648,2,0,B|176:256|176:256|232:192,2,140,0|8|0
104,328,198481,1,0
232,280,198815,5,0
304,280,198981,1,0
336,216,199148,2,0,B|336:128,1,70,0|0
408,144,199481,2,0,B|408:240,1,70,8|0
480,216,199815,2,0,B|480:136,1,70
408,72,200148,5,0
336,72,200315,2,0,B|272:72|272:72|216:144,2,140,0|8|0
336,144,201148,2,0,B|336:288,1,140
265,284,201648,6,0,B|185:284,1,70
112,168,202148,1,8
184,168,202315,1,0
256,168,202481,1,0
400,168,202815,1,4
256,16,203314,5,0
392,24,203647,1,0
392,24,203814,2,0,B|344:136|344:136|304:136,1,140
120,24,204648,2,0,B|168:136|168:136|256:136,1,210
256,344,205481,5,0
192,312,205648,2,0,B|256:280|256:280|320:312,1,140,0|8
256,168,206315,1,0
256,96,206481,1,0
88,120,206815,5,0
88,192,206981,1,0
256,304,207315,1,8
416,200,207648,1,0
416,128,207815,1,4
80,56,208148,5,0
128,112,208315,1,0
256,56,208648,1,8
384,112,208981,1,0
432,56,209148,1,0
160,296,209648,5,0
232,296,209815,1,0
232,224,209981,1,0
304,224,210148,1,8
304,152,210315,1,0
232,152,210481,5,0
160,152,210648,1,0
160,80,210815,1,0
232,80,210981,1,0
160,224,211315,1,8
304,80,211648,1,0
376,80,211815,1,0
376,288,212315,5,0
232,296,212648,1,0
232,224,212815,1,8
160,224,212981,2,0,B|80:224,1,70
88,152,213315,2,0,B|88:64,1,70,0|4
88,82,213648,1,0
224,40,213981,5,0
296,40,214148,1,8
368,40,214315,1,0
440,40,214481,1,0
256,136,214981,6,0,B|256:216,1,70
328,192,215315,2,0,B|328:272,1,70,0|8
184,192,215648,2,0,B|184:280,1,70
184,328,215981,2,0,B|224:328|224:328|272:352|272:352|328:352,2,140
128,272,216815,1,8
48,272,216981,1,0
88,200,217148,1,0
256,72,217481,5,4
256,280,217815,1,4
304,128,218148,1,8
256,176,218315,1,0
208,128,218481,1,0
112,200,218815,6,0,B|112:272,1,70,4|0
232,200,219315,1,8
240,344,219648,2,0,B|136:344,1,70
48,280,220148,5,0
120,280,220315,1,0
192,280,220481,2,0,B|296:280,1,70,0|0
256,208,220815,2,0,B|256:128,1,70,8|0
184,144,221148,2,0,B|104:144,1,70
112,72,221481,5,0
184,72,221648,1,0
320,72,221981,1,0
456,72,222315,1,0
456,144,222481,1,0
456,280,222815,6,0,B|456:248|456:248|424:224,2,70
320,280,223481,2,0,B|248:280|248:280|208:216,2,140,8|0|4
392,80,224648,5,0
256,80,224981,1,0
256,152,225148,1,0
256,224,225315,1,0
256,296,225481,1,0
160,96,225981,2,0,B|256:56|256:56|352:96,1,210
296,144,226648,5,0
216,144,226815,1,0
144,176,226981,2,0,B|88:176|88:176|64:264,1,140,0|8
120,304,227481,1,0
176,260,227648,2,0,B|248:260,1,70
376,192,228148,6,0,B|376:112|376:112|312:72,1,140
232,192,228815,2,8,B|232:272|232:272|296:312,1,140,8|8
304,224,229315,1,0
304,152,229481,1,4
256,192,229648,12,4,231814
120,184,238815,5,8
192,176,238981,1,0
264,168,239148,1,0
336,160,239315,1,0
408,152,239481,1,8
408,304,239815,1,0
272,304,240148,5,0
200,304,240315,1,0
64,304,240648,1,0
64,232,240815,1,8
200,208,241148,5,0
272,208,241315,1,0
344,208,241481,2,0,B|344:160|344:160|304:136,1,70
440,224,241981,1,8
272,264,242315,1,0
104,264,242648,1,0
104,120,242981,5,8
104,120,243148,1,0
176,120,243315,1,8
248,120,243481,2,0,B|328:120,1,70,0|0
432,184,243981,5,0
432,256,244148,1,8
312,184,244481,2,0,B|232:184,1,70
256,256,244815,2,0,B|168:256,1,70
88,160,245315,5,0
160,160,245481,2,0,B|208:128|208:128|208:32,1,140,8|0
280,48,245981,1,0
344,80,246148,1,0
280,112,246315,1,0
280,248,246648,5,8
136,248,246981,1,0
256,136,247315,5,0
328,136,247481,2,0,B|328:88|328:88|312:72,1,70
256,32,247815,1,8
200,72,247981,2,0,B|184:88|184:88|184:160,1,70,0|4
