osu file format v5

[General]
AudioFilename: system of a down - down with the sickness.mp3
AudioLeadIn: 0
PreviewTime: -1
Countdown: 1
SampleSet: Normal
StackLeniency: 0.7
Mode: 0
LetterboxInBreaks: 1

[Metadata]
Title:Down With The Sickness
Artist:Disturbed
Creator:BlackSoul
Version:
Source:
Tags:

[Difficulty]
HPDrainRate:5
CircleSize:5
OverallDifficulty:5
SliderMultiplier:1.4
SliderTickRate:1

[Events]
//Background and Video events
//Break Periods
2,114692,120295
//Storyboard Layer 0 (Background)
//Storyboard Layer 1 (Failing)
//Storyboard Layer 2 (Passing)
//Storyboard Layer 3 (Foreground)
//Storyboard Sound Samples
//Background Colour Transformations
3,100,163,162,255

[TimingPoints]
108,666.96309470876,4,1,0,100,1

[HitObjects]
256,192,31121,12,0,32122
96,128,32789,5,0
96,128,33456,1,0
160,128,34123,1,0
160,128,34790,1,0
224,128,35457,1,0
224,128,36124,1,0
288,128,36790,1,0
288,128,37457,1,0
64,192,38124,5,0
64,192,38791,1,0
192,192,39458,1,0
192,192,40125,1,0
320,192,40792,1,0
320,192,41459,1,0
160,96,42126,1,0
256,96,42460,1,0
192,160,42793,1,0
192,224,43460,1,0
192,224,44127,1,0
288,224,44794,1,0
288,224,45461,1,0
160,128,46128,5,0
160,128,46795,1,0
256,128,47462,1,0
224,160,47795,1,0
192,192,48129,1,0
32,128,48796,5,0
32,128,49463,1,0
128,128,50130,1,0
192,160,50463,1,0
224,192,50797,1,0
288,128,51464,5,0
288,128,52131,1,0
320,192,52798,1,0
128,96,53465,5,0
128,96,54132,1,0
128,96,54798,1,0
256,128,55465,1,0
224,192,55799,1,0
128,224,56132,1,0
128,224,56799,5,0
128,224,57466,1,0
224,224,58133,1,0
288,160,58467,1,0
256,96,58800,1,0
256,96,59467,1,0
256,96,60134,1,0
192,64,60801,5,0
96,96,61135,1,0
96,160,61468,1,0
96,160,62135,1,0
96,224,62802,1,0
160,224,63136,1,0
256,224,63469,1,0
288,224,63802,1,0
352,192,64136,5,0
352,192,64803,1,0
352,192,65470,1,0
352,192,66137,1,0
352,128,66470,1,0
288,96,66804,1,0
288,96,67471,1,0
224,160,68138,1,0
288,192,68805,1,0
224,224,69138,1,0
288,256,69472,1,0
128,224,70139,5,0
128,224,70806,1,0
192,160,71473,1,0
224,256,71806,1,0
256,160,72140,1,0
256,160,72806,1,0
256,160,73473,1,0
160,128,73807,1,0
256,96,74140,1,0
320,96,74474,1,0
320,192,74807,1,0
320,192,75474,1,0
256,192,76141,1,0
256,192,76808,1,0
160,128,77475,1,0
160,128,78142,1,0
224,96,78809,1,0
224,96,79143,1,0
256,96,79476,5,0
256,96,79810,1,0
320,96,80143,1,0
320,96,80810,1,0
224,160,81477,1,0
224,160,81810,1,0
256,160,82144,1,0
256,160,82477,1,0
288,160,82811,1,0
288,160,83478,1,0
160,128,84145,5,0
160,128,84478,1,0
192,128,84812,1,0
192,128,85145,1,0
288,128,85479,1,0
288,128,86146,1,0
288,128,86813,1,0
288,128,87480,1,0
224,128,87813,1,0
160,128,88147,1,0
96,160,88814,5,0
192,192,89147,1,0
256,192,89481,1,0
256,128,89814,1,0
160,96,90148,1,0
160,96,90481,1,0
224,64,90814,1,0
288,64,91481,5,0
288,64,92148,1,0
288,128,92815,1,0
256,128,93149,1,0
224,160,93482,1,0
224,160,93816,1,0
224,160,94149,1,0
192,192,94483,1,0
192,192,94816,1,0
192,192,95150,1,0
128,192,95483,1,0
128,128,95817,1,0
128,64,96150,1,0
224,64,96817,5,0
224,64,97484,1,0
352,64,98151,1,0
352,128,98485,1,0
256,128,98818,1,0
128,160,99485,5,0
128,160,100152,1,0
192,64,100819,1,0
384,192,101152,1,0
192,224,101486,1,0
96,96,102153,5,0
96,96,102820,1,0
160,224,103487,1,0
224,96,103820,1,0
256,192,104154,1,0
256,192,104821,1,0
160,160,105488,1,0
256,128,105821,1,0
320,160,106155,1,0
320,224,106488,1,0
224,256,106822,1,0
128,160,107489,5,0
128,160,108156,1,0
96,160,108822,1,0
192,128,109156,1,0
256,64,109489,1,0
320,160,110156,5,0
320,160,110823,1,0
288,256,111490,1,0
192,224,111824,1,0
128,128,112157,1,0
224,96,112824,5,0
224,96,113491,1,0
288,160,114158,1,0
160,224,114492,1,0
256,192,121495,12,0,122829
160,160,123496,5,0
160,160,124163,1,0
256,64,124830,5,0
256,160,125163,1,0
288,224,125497,1,0
64,192,126164,5,0
64,192,126830,1,0
160,192,127497,1,0
256,192,127831,1,0
384,192,128164,1,0
192,64,128831,5,0
224,128,129498,1,0
128,224,130165,1,0
256,256,130832,1,0
224,192,131499,1,0
192,64,132500,1,0
192,64,132833,1,0
288,96,133167,1,0
256,160,133500,1,0
96,128,134167,5,0
96,128,134834,1,0
192,64,135501,1,0
192,160,135834,1,0
384,128,136168,1,0
32,192,136835,5,0
384,224,137168,1,0
128,288,137502,1,0
192,160,137835,1,0
256,256,138169,1,0
288,160,138502,1,0
352,64,138836,1,0
160,64,139503,5,0
160,64,140170,1,0
32,128,140837,1,0
128,192,141170,1,0
32,256,141504,1,0
288,128,142171,5,0
384,32,142838,1,0
448,128,143171,1,0
320,192,143505,1,0
448,224,143838,1,0
352,320,144172,1,0
128,224,144838,5,0
128,224,145505,1,0
320,160,146172,1,0
224,96,146506,1,0
352,32,146839,1,0
416,192,147506,5,0
288,256,147840,1,0
288,160,148173,1,0
192,192,148507,1,0
192,256,148840,1,0
128,224,149174,1,0
128,128,149507,1,0
128,96,150174,5,0
128,96,150841,1,0
320,96,151508,1,0
256,192,151842,1,0
96,96,154843,6,0,L|224:224,1,140
64,96,156177,2,0,L|224:224,1,140
384,64,157511,2,0,L|288:160,2,70
32,160,158845,5,0
32,160,159512,1,0
160,160,160179,1,0
160,160,160846,1,0
288,160,161513,1,0
288,160,162180,1,0
96,64,162846,5,0
224,96,163513,1,0
128,160,164180,1,0
256,192,164847,12,0,165514
96,128,166181,5,0
96,128,166848,1,0
192,160,167515,1,0
128,192,167849,1,0
224,224,168182,1,0
32,96,168849,2,0,L|160:160,1,140
96,96,170183,1,0
160,96,170517,1,0
224,128,170850,1,0
128,160,171517,5,0
128,160,172184,1,0
288,128,172851,1,0
288,192,173184,1,0
352,192,173518,1,0
32,96,174185,2,0,L|160:160,1,140
64,128,175519,2,0,L|64:224,2,70
256,128,176853,2,0,L|256:224,2,70
128,160,178187,2,0,L|192:192,4,140
64,128,181521,5,0
64,128,182188,1,0
320,128,182855,1,0
320,128,183522,1,0
64,352,184189,1,0
448,352,184856,1,0
128,160,185523,1,0
384,160,186190,1,0
224,96,186857,5,0
64,160,187858,1,0
64,160,188525,1,0
256,192,189192,12,0,189525
64,128,190525,5,0
64,128,190859,1,0
160,160,191859,1,0
160,160,192193,1,0
64,96,193193,2,0,L|160:160,1,70
224,96,194527,2,0,L|192:160,1,70
64,160,195861,1,0
64,160,196528,1,0
192,64,197195,5,0
192,224,197529,1,0
64,96,198529,5,0
64,96,199196,1,0
288,160,199863,1,0
96,224,201197,1,0
96,224,201864,1,0
192,224,202531,1,0
192,224,202864,1,0
256,192,203865,12,0,204198
64,160,204865,5,0
256,160,205199,1,0
160,224,206199,1,0
160,224,206866,1,0
160,128,207867,1,0
160,128,208200,1,0
64,128,209200,5,0
64,128,209867,1,0
192,160,210534,1,0
192,160,210868,1,0
96,224,211868,5,0
160,128,212535,1,0
224,192,212869,1,0
64,160,213869,5,0
64,160,214536,1,0
160,160,215203,1,0
160,160,215537,1,0
64,224,216204,5,0
128,96,216871,2,0,L|192:160,1,70
96,160,218538,1,0
96,160,219205,1,0
224,160,219872,1,0
224,160,220205,1,0
96,96,221206,5,0
192,96,221873,1,0
160,64,222206,6,0,L|224:160,2,70
96,128,223207,1,0
96,128,223874,1,0
224,160,224541,5,0
224,160,224874,1,0
160,160,225875,1,0
192,224,226208,1,0
256,160,226875,1,0
256,96,227542,5,0
256,96,227875,1,0
160,96,228209,1,0
64,128,228876,1,0
96,192,229543,5,0
96,192,229876,1,0
96,192,230210,1,0
96,192,230543,1,0
160,224,230877,1,0
256,160,231544,1,0
160,128,231877,1,0
256,96,232211,1,0
320,128,232544,1,0
320,192,232878,1,0
256,256,233211,1,0
192,256,233545,1,0
64,192,234212,1,0
64,96,235545,6,0,L|128:160,2,70
64,192,236879,2,0,L|128:224,2,70
64,256,238213,2,0,L|128:288,2,70
224,128,239547,2,0,L|224:192|288:224,1,140
352,224,240548,2,0,L|416:160,2,70
288,224,241548,2,0,L|384:160,2,210
256,192,244216,12,0,244883
256,192,253887,12,0,254887
96,160,255554,5,0
96,160,256221,1,0
192,160,256888,1,0
192,160,257555,1,0
128,192,258222,1,0
192,96,258889,5,0
288,192,259556,1,0
128,224,260223,5,0
192,160,260557,1,0
256,96,260890,1,0
352,192,261557,5,0
384,256,262224,1,0
256,256,262891,1,0
256,192,263558,1,0
160,192,263891,1,0
192,128,264225,1,0
288,96,264558,1,0
320,96,264892,1,0
160,96,265559,5,0
160,128,265892,1,0
160,192,266226,1,0
32,192,266893,1,0
32,192,267560,1,0
96,128,268227,1,0
224,160,268894,1,0
160,224,269561,5,0
160,224,270228,1,0
64,128,270895,2,0,L|128:192,1,70
192,128,271561,1,0
192,128,272228,1,0
192,224,272895,5,0
96,96,273562,5,0
128,160,274229,1,0
128,160,274730,1,0
128,160,275063,1,0
224,160,275397,1,0
224,160,275563,1,0
224,160,275897,1,0
