osu file format v14

[General]
AudioFilename: Club Penguin_ Penguin Band (feat. Cadence) - Ghosts Just Wanna Dance.mp3
AudioLeadIn: 0
PreviewTime: -1
Countdown: 0
SampleSet: Normal
StackLeniency: 0.5
Mode: 2
LetterboxInBreaks: 0
WidescreenStoryboard: 1

[Editor]
DistanceSpacing: 2
BeatDivisor: 4
GridSize: 8
TimelineZoom: 1

[Metadata]
Title:Ghosts Just Want To Dance
TitleUnicode:Ghosts Just Want To Dance
Artist:Disney
ArtistUnicode:Disney
Creator:Beizer
Version:Beizers Snowball
Source:Club Penguin
Tags:Club Penguin, Beizer, Ghosts just want to dance
BeatmapID:1268409
BeatmapSetID:600244

[Difficulty]
HPDrainRate:5
CircleSize:3.5
OverallDifficulty:6.3
ApproachRate:6.3
SliderMultiplier:1.4
SliderTickRate:1

[Events]
//Background and Video events
0,0,"maxresdefault.jpg",0,0
//Break Periods
//Storyboard Layer 0 (Background)
//Storyboard Layer 1 (Fail)
//Storyboard Layer 2 (Pass)
//Storyboard Layer 3 (Foreground)
//Storyboard Sound Samples

[TimingPoints]
4443,352.941176470588,4,1,0,100,1,0

[Colours]
Combo1 : 125,150,207
Combo2 : 219,152,223
Combo3 : 59,75,165
Combo4 : 128,0,128

[HitObjects]
256,208,4443,6,0,L|336:208,1,70,0|0,3:3|3:3,3:3:0:0:
368,152,4795,2,0,L|224:56,1,140,0|0,3:3|3:3,3:3:0:0:
256,144,5325,1,0,3:3:0:0:
120,144,5501,2,0,L|232:48,1,140,0|0,3:3|3:3,3:3:0:0:
184,232,6031,2,0,P|232:192|392:168,1,210,0|4,3:3|3:3,3:3:0:0:
440,168,6737,1,0,3:3:0:0:
328,168,6913,1,4,3:3:0:0:
216,168,7090,1,0,3:3:0:0:
152,168,7266,6,0,L|80:168,1,70,4|0,3:3|3:3,3:3:0:0:
216,168,7619,2,0,L|216:80,1,70,4|0,3:3|3:3,3:3:0:0:
358,176,7972,2,0,L|262:176,1,70,4|0,3:3|3:3,3:3:0:0:
288,176,8325,2,0,L|288:96,1,70,4|0,3:3|3:3,3:3:0:0:
216,176,8678,2,0,P|80:152|56:16,1,280,0|0,3:3|3:3,3:3:0:0:
216,32,9560,5,0,3:3:0:0:
288,32,9737,2,0,L|400:144,1,140,0|0,3:3|3:3,3:3:0:0:
456,136,10266,1,0,3:3:0:0:
392,136,10442,2,0,L|288:240,1,140,0|0,3:3|3:3,3:3:0:0:
368,232,10972,2,0,L|368:320,1,70,0|0,3:3|3:3,3:3:0:0:
256,232,11325,2,0,L|256:320,1,70,0|0,3:3|3:3,3:3:0:0:
152,232,11678,2,0,L|264:336,1,140,0|0,3:3|3:3,3:3:0:0:
440,200,12207,5,0,3:3:0:0:
352,200,12384,1,0,3:3:0:0:
264,200,12560,1,4,3:3:0:0:
184,200,12737,1,0,3:3:0:0:
104,200,12913,1,4,3:3:0:0:
264,200,13090,1,0,3:3:0:0:
184,200,13266,1,4,3:3:0:0:
104,200,13442,5,0,0:0:0:0:
24,200,13619,2,4,L|24:152,1,35,4|4,3:3|3:3,3:3:0:0:
56,200,13795,2,0,L|56:144,1,35,0|0,3:3|3:3,3:3:0:0:
88,200,13972,2,4,L|88:152,1,35,4|4,3:3|3:3,3:3:0:0:
120,200,14148,2,0,L|120:160,1,35,0|0,3:3|3:3,3:3:0:0:
152,200,14325,2,4,L|152:160,1,35,4|4,3:3|3:3,3:3:0:0:
184,200,14501,2,0,L|184:160,1,35,0|0,3:3|3:3,3:3:0:0:
184,200,14678,2,4,L|128:200,1,35,4|4,3:3|3:3,3:3:0:0:
96,200,14854,1,4,3:3:0:0:
464,200,15384,6,0,L|384:200,1,70,0|0,3:3|3:3,3:3:0:0:
328,200,15737,2,0,L|176:200,1,140,0|0,3:3|3:3,3:3:0:0:
256,200,16266,1,0,3:3:0:0:
256,200,16442,2,0,L|368:88,1,140,0|0,3:3|3:3,3:3:0:0:
256,200,16972,2,0,L|256:112,1,70,0|0,3:3|3:3,3:3:0:0:
186,200,17325,2,0,L|328:200,1,140,0|0,3:3|3:3,3:3:0:0:
186,200,17854,1,0,3:3:0:0:
186,200,18031,2,0,L|32:200,1,140,0|0,3:3|3:3,3:3:0:0:
46,200,18560,1,0,3:3:0:0:
46,200,18737,2,0,L|128:200,1,70,0|0,3:3|3:3,3:3:0:0:
116,200,19090,2,0,L|32:200,1,70,0|0,3:3|3:3,3:3:0:0:
46,200,19442,2,0,L|128:200,1,70,0|0,3:3|3:3,3:3:0:0:
184,200,19795,6,0,L|248:144,1,70,0|0,3:3|3:3,3:3:0:0:
240,200,20148,2,0,L|304:152,1,70,0|0,3:3|3:3,3:3:0:0:
368,192,20501,2,0,L|368:112,1,70,0|0,3:3|3:3,3:3:0:0:
232,192,20854,1,0,3:3:0:0:
