osu file format v5

[General]
AudioFilename: Darkwing Duck.mp3
AudioLeadIn: 0
PreviewTime: 0
Countdown: 0
SampleSet: Normal

[Metadata]
Title:Darkwing Duck Theme Song
Artist:Disney
Creator:KirbyPink
Version:Insane

[Difficulty]
HPDrainRate:7
CircleSize:5
OverallDifficulty:6
SliderMultiplier:2
SliderTickRate:4

[Events]
//Background and Video events
1,0,"Darkwing intro 2.wmv"
//Break Periods
2,29632,31623
//Storyboard Layer 0 (Background)
//Storyboard Layer 1 (Failing)
//Storyboard Layer 2 (Passing)
//Storyboard Layer 3 (Foreground)
//Storyboard Sound Samples
//Background Colour Transformations
3,100,163,162,255

[TimingPoints]
1780,574.162679425837,4,1,0,100

[Colours]
Combo1 : 209,209,209
Combo2 : 64,0,128
Combo3 : 128,0,255
Combo4 : 255,128,0

[HitObjects]
256,192,1780,1,0
256,192,2067,1,0
256,192,2354,2,0,B|256:384,1,166.666666666667
256,352,3024,1,0
256,320,4076,5,0
320,320,4363,6,0,B|480:256,1,166.666666666667
472,194,5129,1,0
472,193,5416,1,0
416,160,5607,2,0,B|224:32,1,200
249,50,6373,1,0
256,128,6756,6,0,B|256:320,1,166.666666666667
256,295,7521,1,0
192,254,7713,6,0,B|192:94,1,133.333333333333
184,34,8669,6,0,B|51:123,1,133.333333333333
64,192,9339,5,0
64,256,9531,1,0
64,322,9818,2,0,B|416:320,2,333.333333333333
92,246,11923,6,0,B|172:162|169:171|162:170|249:259|249:259|346:176|346:176|459:275|459:275,1,466.666666666667
411,267,13550,1,0
411,267,13837,6,0,B|339:259|282:220|249:196|251:143|258:74|259:40,1,300
256,64,14985,5,0
320,32,15344,5,0
352,96,15631,5,0
352,160,15846,5,0
32,32,17856,1,0
32,32,18143,6,0,B|32:256,1,200
32,288,19004,1,0
96,320,19291,2,0,B|96:96,1,200
96,64,20153,1,0
96,64,20440,1,0
480,32,21301,1,0
480,32,21588,6,0,B|480:256,1,200
480,288,22449,1,0
416,320,22736,2,0,B|256:128,3,200
192,192,24746,1,0
192,192,25033,6,0,B|320:192,1,100
256,192,27043,5,0
224,256,27617,5,0
224,256,27904,1,0
224,256,28191,1,0
224,256,28478,1,0
224,256,28765,1,0
224,256,29052,1,0
256,192,29339,1,0
32,288,32210,6,0,B|160:288|224:256|288:224|320:192|320:160|320:128|320:96|256:64|192:64|128:96|96:128|96:192|160:224|192:256|256:288|320:288|384:288|416:288|416:288,1,800
384,196,34794,6,0,B|384:96,1,100
320,96,35368,2,0,B|192:96,1,100
160,96,35942,2,0,B|160:224,1,100
160,256,36516,2,0,B|288:256,1,100
320,256,37091,2,0,B|320:384,1,100
320,356,37665,2,0,B|160:192,1,200
160,192,38526,1,0
128,64,39387,6,0,B|224:160,1,100
192,128,39961,1,0
259,193,40248,2,0,B|329:264,1,100
320,256,40823,1,0
384,224,41397,6,0,B|480:128,1,100
448,160,41971,1,0
352,160,42258,2,0,B|282:90,1,100
288,96,42833,1,0
32,32,43980,1,0
32,32,44267,6,0,B|32:256,1,200
32,288,45128,1,0
96,320,45415,2,0,B|96:96,1,200
96,64,46277,1,0
96,64,46564,1,0
256,192,47138,1,0
480,32,47425,1,0
480,32,47712,6,0,B|480:256,1,200
480,288,48573,1,0
416,320,48860,2,0,B|416:96,1,200
416,64,49722,1,0
416,64,50009,1,0
192,160,50583,6,0,B|192:288,1,100
256,160,51157,6,0,B|256:288,1,100
320,160,51732,6,0,B|320:288,1,100
256,96,52449,6,0,B|256:224,1,100
64,33,54028,5,0
63,34,54315,2,0,B|63:162,1,100
153,48,54890,6,0,B|151:359|151:358|152:359|342:344|351:304|370:194|363:121|273:22|139:34,1,800
146,34,57473,1,0
162,112,57760,5,0
208,136,58335,5,0
256,192,58622,5,4
