osu file format v5

[General]
AudioFilename: Darkwing Duck.mp3
AudioLeadIn: 0
PreviewTime: 0
Countdown: 0
SampleSet: Normal

[Metadata]
Title:Darkwing Duck Theme Song
Artist:Disney
Creator:KirbyPink
Version:Hard

[Difficulty]
HPDrainRate:6
CircleSize:6
OverallDifficulty:6
SliderMultiplier:2.2
SliderTickRate:2

[Events]
//Background and Video events
1,0,"Darkwing intro 2.wmv"
//Break Periods
2,29632,31623
//Storyboard Layer 0 (Background)
//Storyboard Layer 1 (Failing)
//Storyboard Layer 2 (Passing)
//Storyboard Layer 3 (Foreground)
//Storyboard Sound Samples
//Background Colour Transformations
3,100,163,162,255

[TimingPoints]
1780,574.162679425837,4,1,0,100

[Colours]
Combo1 : 209,209,209
Combo2 : 64,0,128
Combo3 : 128,0,255
Combo4 : 255,128,0

[HitObjects]
256,192,1780,1,0
256,192,2354,2,0,B|64:192|64:256|128:256,1,220
128,256,3502,6,0,B|192:320|256:320|424:191|384:320|383:255|512:256,1,220
391,255,4650,6,0,B|448:256|448:192|256:192,1,220
256,192,5798,1,0
256,256,6373,6,0,B|320:320|384:256|384:192|320:128|256:192,1,220
292,164,7521,6,0,B|244:216|180:152|180:88|244:23|256:64,1,220
256,64,8669,6,0,B|305:13|369:77|369:141|305:205|292:164,1,220
304,179,9818,6,0,B|256:128|192:192|192:256|256:320|268:279,1,220
256,64,11540,5,0
256,128,12114,1,0
256,192,12689,1,0
320,128,13263,1,0
192,128,13837,1,0
128,128,14411,6,0,B|192:64|192:192|128:256|192:320,1,220
153,286,15559,6,0,B|187:315|226:327|266:324|298:316|328:309|361:290,1,220
340,289,16708,6,0,B|384:256|320:192|320:64|384:128,1,220
349,63,17856,5,0
348,64,18430,2,0,B|128:64,1,220
127,128,19579,2,0,B|347:128,1,220
347,127,20727,6,0,B|375:249|326:307|188:273|194:316|106:250|139:187|127:127,1,440
131,62,22449,5,0
128,64,23023,2,0,B|348:64,1,220
347,128,24172,2,0,B|127:128,1,220
128,128,25320,1,0
258,192,27043,5,0
256,192,29339,5,0
320,192,32210,5,0
256,256,32784,1,0
256,192,33358,1,0
320,128,33933,2,0,B|256:0|64:320,1,220
192,192,35081,5,0
256,256,35655,1,0
256,192,36229,1,0
192,128,36803,2,0,B|256:0|448:320,1,220
358,187,37952,6,0,B|358:222|341:250|319:282|301:273|278:259|276:247|274:237|273:226|272:214|274:207|276:196|276:191|272:174|269:164|254:152|228:147|224:148|215:151|204:157|195:172|192:181|187:189|185:200|186:217|190:233|196:249|197:261|193:275|177:276|154:266|139:250|129:221|127:206|121:184|111:162|107:159|84:157|80:159|74:169|71:181|67:190|64:197,1,440
164,127,39674,1,0
164,127,40248,6,0,B|137:249|186:307|324:273|318:316|406:250|373:187|385:127,1,440
381,62,41970,5,0
384,64,42544,2,0,B|164:64,1,220
165,128,43693,2,0,B|385:128,1,220
384,128,44841,1,0
128,192,47713,1,0
128,192,48287,2,0,B|231:250|364:226|413:202|512:128,2,220
128,192,50009,1,0
256,192,52880,1,0
128,128,53454,2,0,B|384:128,1,220
348,192,54602,2,0,B|128:192,1,220
128,128,55751,2,0,B|384:128,2,220
128,320,57473,5,0
256,320,58047,1,0
384,320,58622,1,4
