osu file format v5

[General]
AudioFilename: Disgaea OST - Running Fire.mp3
AudioLeadIn: 0
PreviewTime: -1
Countdown: 1
SampleSet: Normal
StackLeniency: 0.7
Mode: 0
EditorBookmarks: 98813

[Metadata]
Title:Running Fire
Artist:Disgaea OST
Creator:Kasada
Version:Insane
Source:
Tags:

[Difficulty]
HPDrainRate:4
CircleSize:6
OverallDifficulty:5
SliderMultiplier:1.4
SliderTickRate:1

[Events]
//Background and Video events
//Break Periods
2,92413,97613
//Storyboard Layer 0 (Background)
//Storyboard Layer 1 (Failing)
//Storyboard Layer 2 (Passing)
//Storyboard Layer 3 (Foreground)
//Storyboard Sound Samples
//Background Colour Transformations
3,100,163,162,255

[TimingPoints]
1810,400.005627484245,4,1,0,100
87811,400.005627484246,4,2,0,100
99010,400.005627484246,4,1,0,100

[HitObjects]
48,40,1809,1,0
80,40,1910,1,0
112,40,2010,1,0
144,40,2110,1,0
176,40,2210,1,0
144,104,2410,1,0
176,104,2510,1,0
208,104,2610,1,0
240,104,2710,1,0
272,104,2810,1,0
336,104,3010,2,0,B|416:104,1,70
448,160,3410,5,0
416,160,3510,1,0
384,160,3610,1,0
352,160,3710,1,0
320,160,3810,1,0
248,160,4010,1,0
216,160,4110,1,0
184,160,4210,1,0
152,160,4310,1,0
120,160,4410,1,0
48,176,4610,2,0,B|48:216,3,35
88,216,5010,6,0,B|136:216,1,35
160,216,5210,2,0,B|216:216,1,35
224,216,5410,1,0
296,216,5610,2,0,B|336:216,1,35
368,216,5810,2,0,B|408:216,1,35
440,216,6010,1,0
432,288,6210,2,0,B|376:288,4,35
288,288,7010,5,2
216,168,7410,1,0
72,168,7810,1,4
72,304,8210,6,0,B|72:240,4,35
144,304,8810,2,0,B|144:264,4,35
216,304,9410,2,0,B|288:304,1,70
286,304,9810,2,0,B|287:343,4,35
352,304,10410,2,0,B|352:344,4,35
352,96,11410,6,0,B|352:56,4,35
280,96,12010,2,0,B|280:56,4,35
208,96,12610,1,0
176,104,12710,1,0
144,128,12810,1,0
120,152,12910,1,0
112,184,13010,5,0
112,304,13360,2,0,B|136:304,1,17.5
272,304,13810,1,0
408,304,14210,1,0
408,160,14610,5,4
408,40,14960,2,0,B|384:40,1,17.5
248,40,15410,1,0
104,64,15810,1,0
80,88,15910,1,0
64,120,16010,1,0
56,152,16110,1,0
56,184,16210,5,0
80,248,16410,1,0
128,296,16610,1,0
192,320,16810,1,0
256,328,17010,1,0
320,312,17210,1,0
376,280,17410,1,0
408,216,17610,1,4
424,144,17810,5,4
424,144,18010,5,4
424,144,18210,5,4
424,144,18410,5,4
256,192,18610,12,4,19410
472,352,19610,1,0
400,352,19810,1,0
328,352,20010,1,0
256,352,20210,2,0,B|112:352,1,140
32,160,21210,1,0
104,160,21410,1,0
176,160,21610,2,0,B|256:160,2,70
432,48,22810,5,0
360,48,23010,1,0
288,48,23210,1,0
216,48,23410,2,0,B|144:48,1,70
88,88,23810,2,0,B|48:160,1,70
112,192,24210,2,0,B|168:248,1,70
264,336,24810,5,0
336,336,25010,1,0
336,336,25110,1,0
336,336,25210,1,0
336,336,25310,1,0
368,328,25410,1,0
368,328,25510,1,0
368,328,25610,1,0
368,328,25710,1,0
400,304,25810,5,0
424,240,26010,1,0
376,184,26210,1,0
304,184,26410,1,0
344,240,26610,1,0
272,240,26810,1,0
232,184,27010,1,0
192,240,27210,1,0
152,184,27410,1,0
152,184,27510,1,0
152,184,27610,1,0
48,88,28010,2,0,B|48:48,2,35
256,88,28810,5,0
280,112,28910,1,0
256,136,29010,1,0
232,112,29110,1,0
256,88,29210,1,0
328,88,29410,6,0,B|400:88,1,70
464,88,29810,2,0,B|464:48,2,35
464,224,30410,2,0,B|392:224,1,70
320,224,30810,2,0,B|248:224,2,70
256,192,31410,12,0,32210
56,48,32410,2,0,B|96:48,2,35
56,120,32810,1,0
56,192,33010,1,0
192,192,33410,2,0,B|344:192,1,140
400,192,34010,2,0,B|400:136,2,35
400,264,34410,1,0
328,264,34610,1,0
256,264,34810,1,0
184,264,35010,5,0
184,264,35110,1,0
184,264,35210,1,0
184,264,35310,1,0
184,264,35410,1,0
112,264,35610,6,0,B|112:336,2,70
112,192,36210,2,0,B|80:152|64:104|64:56|104:32|152:32,1,210
176,32,36910,1,0
208,32,37010,1,0
344,32,37410,1,0
480,32,37810,1,0
416,152,38210,1,0
272,152,38610,1,0
272,152,38710,1,0
272,152,38810,1,0
200,152,39010,6,0,B|112:152,1,70
128,224,39410,1,0
104,248,39510,1,0
128,272,39610,1,0
264,272,40010,2,0,B|192:272,2,70
336,272,40610,2,0,B|384:216,1,70
424,160,41010,2,0,B|368:96,1,70
336,56,41410,2,0,B|280:104,1,70
232,152,41810,2,0,B|160:96,1,70
256,192,42210,12,0,42610
256,192,43010,1,2
256,192,43210,1,2
112,184,43610,1,0
160,128,43810,1,0
224,96,44010,1,0
296,96,44210,1,0
352,136,44410,1,4
432,248,44810,6,0,B|352:280,1,70
240,328,45410,2,0,B|185:378|120:288,1,140
96,232,46010,1,0
80,160,46210,2,0,B|81:107|128:104,1,70
216,104,46810,1,0
288,104,47010,1,0
424,104,47410,1,0
424,176,47610,1,0
424,248,47810,2,0,B|376:248,4,35
280,248,48610,5,0
208,248,48810,1,0
72,216,49210,1,2
160,104,49610,1,2
296,104,50010,1,2
400,200,50410,1,2
280,272,50810,1,2
144,312,51210,1,2
144,312,51410,1,4
424,320,52210,2,0,B|344:184,1,140
280,80,53010,2,0,B|112:88,1,140
72,88,53610,1,0
128,224,54010,5,0
264,224,54410,1,0
336,224,54610,1,0
128,224,55210,2,0,B|352:224,1,210
409,222,56010,6,0,B|423:152|378:56|265:77,1,210
152,72,57010,5,4
56,72,57260,1,4
56,168,57560,1,4
152,168,57810,1,4
288,168,58210,5,0
240,216,58410,1,0
296,256,58610,1,0
248,304,58810,1,0
104,152,59410,1,0
152,104,59610,1,0
216,80,59810,1,0
288,80,60010,1,0
352,112,60210,5,0
352,112,60310,1,0
352,112,60410,1,0
392,168,60610,1,0
392,168,60710,1,0
392,168,60810,1,0
392,168,60910,1,0
392,168,61010,1,0
432,304,61410,6,0,B|280:304,1,140
80,304,62410,1,0
80,272,62510,1,0
80,240,62610,1,0
80,32,63210,2,0,B|184:128,1,140
280,224,64010,1,0
336,272,64210,1,0
384,216,64410,5,0
360,192,64510,1,0
336,168,64610,1,0
400,144,64810,1,0
376,120,64910,1,0
352,96,65010,1,0
144,64,65610,6,0,B|144:112,2,35
144,64,66010,1,0
144,136,66210,2,0,B|144:232,1,70
144,344,66810,2,0,B|144:264,1,70
144,200,67210,5,0
144,200,67310,1,0
144,200,67410,1,0
256,192,67810,5,0
256,192,68210,1,0
72,56,68810,2,0,B|120:56,2,35
72,128,69210,1,0
72,192,69410,1,0
72,264,69610,1,0
208,264,70010,2,0,B|208:184,1,70
208,120,70410,2,0,B|256:64,1,70
392,104,71010,5,2
392,240,71410,1,2
248,240,71810,1,2
104,240,72210,1,2
104,168,72410,1,2
104,96,72610,1,2
104,96,72810,1,2
240,96,73211,1,2
240,96,73411,1,2
312,96,73611,1,0
344,96,73711,1,0
376,96,73811,1,0
464,48,74211,5,0
320,48,74611,1,0
112,56,75211,1,0
112,88,75311,1,0
112,120,75411,1,0
320,120,76011,1,0
256,192,76411,12,0,77011
56,176,77411,1,0
200,176,77811,1,0
408,184,78411,1,0
408,216,78511,1,0
408,248,78611,1,0
200,256,79211,1,0
256,192,79411,12,0,80211
48,40,80611,1,0
184,40,81011,1,0
392,40,81611,1,0
392,72,81711,1,0
392,104,81811,1,0
400,312,82411,1,0
256,312,82811,1,0
184,312,83011,1,0
112,312,83211,1,0
40,312,83411,2,0,B|40:256|56:192|88:144|120:104|160:80|208:56|264:40|312:40|360:56|400:64|440:112|456:144,1,560
304,168,85411,5,0
160,168,85811,1,0
160,264,86061,1,0
256,264,86361,1,0
352,264,86611,1,0
360,56,87211,1,0
256,192,87811,12,0,92211
48,56,98811,5,0
120,56,99010,1,0
192,56,99210,1,0
264,56,99410,1,0
400,56,99810,1,0
400,56,99910,1,0
400,56,100010,1,0
400,192,100410,6,0,B|320:192,1,70
256,192,100810,2,0,B|168:160,1,70
120,144,101210,2,0,B|72:224,1,70
128,256,101610,1,0
264,288,102010,2,0,B|328:256,1,70
326,256,102410,1,0
448,184,102810,5,0
304,184,103210,1,0
304,184,103410,1,0
112,80,104010,5,0
248,80,104410,1,0
320,80,104610,1,0
392,80,104810,1,0
392,152,105010,1,0
320,152,105210,1,0
248,152,105410,1,0
176,152,105610,1,0
104,152,105810,1,0
104,288,106210,1,0
104,288,106310,1,0
104,288,106410,1,0
240,288,106810,5,0
312,288,107010,1,0
384,288,107210,1,0
384,216,107410,2,0,B|384:144,1,70
384,72,107810,2,0,B|304:72,1,70
240,72,108210,2,0,B|160:72,1,70
96,72,108610,2,0,B|96:160,1,70
96,208,109010,5,4
256,192,109510,12,4,111810
464,344,112210,1,0
432,344,112310,1,0
400,344,112410,1,0
368,344,112510,1,0
336,344,112610,1,0
368,280,112810,1,0
336,280,112910,1,0
304,280,113010,1,0
272,280,113110,1,0
240,280,113210,1,0
176,280,113410,2,0,B|96:280,1,70
64,224,113810,5,0
96,224,113910,1,0
128,224,114010,1,0
160,224,114110,1,0
192,224,114210,1,0
264,224,114410,1,0
296,224,114510,1,0
328,224,114610,1,0
360,224,114710,1,0
392,224,114810,1,0
464,208,115010,2,0,B|464:168,4,35
328,208,115810,1,2
192,208,116210,1,0
264,88,116610,1,4
440,80,117010,6,0,B|440:144,4,35
368,80,117610,2,0,B|368:120,4,35
296,80,118210,2,0,B|224:80,1,70
226,80,118610,2,0,B|225:41,4,35
160,80,119210,2,0,B|160:40,4,35
160,288,120210,6,0,B|160:328,4,35
232,288,120810,2,0,B|232:328,4,35
304,288,121410,1,0
336,280,121510,1,0
368,256,121610,1,0
392,232,121710,1,0
400,200,121810,5,0
400,80,122160,2,0,B|376:80,1,17.5
240,80,122610,1,0
104,80,123010,1,0
104,224,123410,5,4
104,344,123760,2,0,B|128:344,1,17.5
264,344,124210,1,0
408,320,124610,1,0
432,296,124710,1,0
448,264,124810,1,0
456,232,124910,1,0
456,200,125010,5,0
432,136,125210,1,0
384,88,125410,1,0
320,64,125610,1,0
256,56,125810,1,0
192,72,126010,1,0
136,104,126210,1,0
104,168,126410,1,4
88,240,126610,5,4
88,240,126810,5,4
88,240,127010,5,4
88,240,127210,5,4
256,192,127410,12,4,128210
