osu file format v5

[General]
AudioFilename: 1.01_-_laharl-sama_no_sanbika.mp3
AudioLeadIn: 0
PreviewTime: -1
Countdown: 1
SampleSet: Normal
StackLeniency: 0.7
Mode: 0
EditorBookmarks: 28731,49969,70899,78173,105200,139930,166139,187567,200398,223134,247566,253598

[Metadata]
Title:Laharl-Sama No Sanbika
Artist:Disgaea OST
Creator:Hitoshirenu Shourai
Version:Vassal
Source:
Tags:

[Difficulty]
HPDrainRate:3
CircleSize:4
OverallDifficulty:3
SliderMultiplier:1.2
SliderTickRate:2

[Events]
//Background and Video events
0,0,"disgaea_tv0100.jpg"
//Break Periods
2,46374,48934
2,76243,76918
//Storyboard Layer 0 (Background)
//Storyboard Layer 1 (Failing)
//Storyboard Layer 2 (Passing)
//Storyboard Layer 3 (Foreground)
//Storyboard Sound Samples
//Background Colour Transformations
3,100,0,128,255

[TimingPoints]
355,329.67032967033,4,1,0,100
71229,370.37037037037,4,1,0,100
78371,315.789473684211,4,1,0,100
105170,329.67032967033,4,1,0,100
187567,361.44578313253,4,1,0,100
200398,315.789473684211,4,1,0,100
223134,309.278350515464,4,1,0,100
247566,326.086956521739,4,1,0,100
253608,309.278350515464,4,1,0,100

[HitObjects]
96,64,29036,6,0,B|96:208,1,120
96,264,29695,1,0
344,264,30684,5,0
344,176,31014,1,0
344,88,31344,1,0
256,88,31673,5,0
256,176,32003,1,0
256,264,32333,1,0
88,272,32992,6,0,B|88:144,2,120
256,192,34311,12,0,36206
456,56,36948,6,0,B|456:184,2,120
288,56,38267,6,0,B|288:184,2,120
256,192,39585,12,0,40904
48,192,41234,6,0,B|112:192,2,60
48,272,41893,1,0
104,328,42223,5,0
184,328,42552,1,0
264,328,42882,1,0
344,328,43212,1,0
416,288,43541,5,0
448,208,43871,1,0
448,120,44201,1,0
392,56,44530,1,0
256,192,44860,12,0,46179
256,192,50135,12,0,55409
56,192,56069,5,0
224,192,56728,1,0
392,192,57387,1,0
392,104,57717,6,0,B|328:104,2,60
304,104,58376,5,0
216,104,58706,2,0,B|144:104,1,60
112,104,59036,1,0
104,184,59365,1,0
88,264,59695,1,0
40,328,60025,1,0
40,240,60354,6,0,B|40:168,2,60
120,96,61344,6,0,B|384:96,1,240
440,96,62333,2,0,B|440:232,1,120
440,296,62992,5,0
400,296,63157,1,0
360,296,63322,1,0
272,296,63651,1,0
232,296,63816,1,0
192,296,63981,1,0
104,296,64311,5,0
64,296,64475,1,0
24,296,64640,1,0
24,208,64970,1,0
24,168,65135,1,0
24,128,65300,1,0
80,64,65629,5,0
160,64,65959,1,0
240,64,66289,1,0
320,64,66618,1,0
400,64,66948,1,0
400,184,67278,5,0
280,184,67607,1,0
160,184,67937,1,0
256,192,68102,12,0,70574
440,336,71229,6,0,B|312:336,1,120
200,336,71969,2,0,B|56:336,1,120
80,216,72710,2,0,B|248:216,1,120
320,216,73451,1,0
256,192,73821,12,0,76043
456,48,78371,6,0,B|456:184,2,120
288,48,79634,2,0,B|288:192,2,120
120,48,80897,5,0
64,112,81213,1,0
40,192,81528,1,0
32,272,81844,1,0
112,272,82160,2,0,B|184:272,4,60
280,272,83423,6,0,B|424:272,1,120
400,184,84055,1,0
280,64,84686,2,0,B|424:64,1,120
344,128,85318,5,0
304,128,85476,1,0
264,128,85634,1,0
176,128,85949,5,0
176,168,86107,1,0
176,208,86265,1,0
176,288,86581,5,0
216,288,86739,1,0
256,288,86897,1,0
336,288,87213,5,0
336,248,87370,1,0
336,208,87528,1,0
256,192,88476,12,0,92897
256,104,93213,6,0,B|64:104|64:328|448:328|448:56|200:56,1,600
128,56,95107,1,0
168,128,95423,1,0
212,56,95739,6,0,B|448:56|448:328|64:328|64:104|256:104,1,600
248,184,97634,1,0
248,264,97949,1,0
328,264,98265,6,0,B|328:128,2,120
408,264,99213,6,0,B|408:360,2,60
488,264,99844,6,0,B|488:152,1,60
488,160,100160,2,0,B|488:104,4,30
256,192,100792,12,0,103002
256,112,103634,2,0,B|256:248,2,120
168,112,104581,2,0,B|312:112,1,120
352,112,105252,1,0
